<?xml version="1.0" standalone="no"?>
<!DOCTYPE svg PUBLIC "-//W3C//DTD SVG 1.1//EN" "http://www.w3.org/Graphics/SVG/1.1/DTD/svg11.dtd" >
<svg xmlns="http://www.w3.org/2000/svg">
<metadata></metadata>
<defs>
<font id="sparkasse_rgitalic" horiz-adv-x="1182" >
<font-face units-per-em="2048" ascent="1638" descent="-410" />
<missing-glyph horiz-adv-x="471" />
<glyph horiz-adv-x="0" />
<glyph unicode="&#xd;" horiz-adv-x="471" />
<glyph unicode=" "  horiz-adv-x="471" />
<glyph unicode="&#x09;" horiz-adv-x="471" />
<glyph unicode="&#xa0;" horiz-adv-x="471" />
<glyph unicode="!" horiz-adv-x="543" d="M150 121q0 42 23 75.5t58.5 49.5t67.5 16q44 0 80 -23.5t51.5 -56.5t15.5 -61q0 -44 -24 -77t-58 -48.5t-65 -15.5q-32 0 -59 11.5t-47 30.5t-31.5 44.5t-11.5 54.5zM248 455l145 968h213l-160 -968h-198z" />
<glyph unicode="&#x22;" horiz-adv-x="877" d="M299 1006l88 499h195l-86 -499h-197zM678 1006l88 499h197l-89 -499h-196z" />
<glyph unicode="#" horiz-adv-x="1208" d="M137 418l25 151h211l88 287h-199l25 152h219l127 415h170l-125 -415h258l125 415h172l-125 -415h178l-22 -152h-203l-86 -287h186l-22 -151h-211l-125 -418h-172l125 418h-256l-127 -418h-172l127 418h-191zM545 569h258l86 287h-258z" />
<glyph unicode="$" horiz-adv-x="1090" d="M123 80l61 160q44 -25 99 -45t110 -29t119 -10l80 501l-33 15q-57 24 -109 54t-92 71.5t-64 96t-24 128.5q0 134 71.5 230.5t174 134t201.5 43.5l16 96h101l-15 -94q89 -6 168.5 -22t128.5 -32l-29 -168q-38 14 -82 26t-101.5 21t-110.5 11l-74 -463q71 -29 78 -37 q91 -45 145 -96.5t76 -112.5t22 -125q0 -99 -34.5 -177.5t-95 -134t-144 -88.5t-180.5 -40l-19 -121h-100l18 119q-90 3 -174.5 22t-126 37.5t-61.5 28.5zM465 1044q0 -66 37.5 -110.5t120.5 -85.5l67 416q-79 -9 -133 -44.5t-73 -83t-19 -92.5zM612 162q72 12 124.5 50 t75 88.5t22.5 102.5q0 72 -35.5 120.5t-112.5 88.5z" />
<glyph unicode="%" horiz-adv-x="2005" d="M285 954q0 109 27.5 214.5t83.5 189t135.5 122t164.5 38.5q112 0 179.5 -54.5t89.5 -133.5t22 -150q0 -111 -28 -217.5t-83.5 -189t-135.5 -120t-165 -37.5q-77 0 -132 26.5t-90 72.5t-51.5 107.5t-16.5 131.5zM453 0l1122 1505h203l-1125 -1505h-200zM465 954 q0 -35 5 -69.5t19 -62t38 -45t63 -17.5q64 0 109.5 51.5t68.5 123t31 139t8 108.5q0 64 -14 106.5t-43.5 65t-67.5 22.5q-65 0 -109 -51t-69 -126.5t-32 -140t-7 -104.5zM1241 326q0 110 27 213.5t84 187.5t137 123t166 39q111 0 179 -54.5t90 -134.5t22 -151 q0 -113 -28 -216.5t-84 -186t-135 -120.5t-165 -38q-78 0 -134 26t-91 72t-51.5 107.5t-16.5 132.5zM1421 324q0 -35 5 -69.5t19.5 -62t39 -44.5t63.5 -17q53 0 93.5 36t65 90t37 114t17 107.5t4.5 74.5q0 64 -14.5 107.5t-43 65.5t-67.5 22q-66 0 -111 -51.5t-69.5 -127 t-31.5 -140t-7 -105.5z" />
<glyph unicode="&#x26;" horiz-adv-x="1366" d="M158 344q0 135 66.5 233t158.5 151.5t166 88.5q-44 56 -71 106t-36.5 97t-9.5 92q0 120 62 199t150.5 107t168.5 28q104 0 184 -36.5t114 -98t34 -133.5q0 -80 -27.5 -140.5t-74 -107.5t-107 -83.5t-125.5 -68.5q77 -96 102 -131q26 -34 164 -237q37 58 59 126.5 t27 145.5h166q-3 -113 -43 -219.5t-115 -202.5q41 -66 76.5 -132t61.5 -128h-211q-34 73 -66 127q-90 -68 -201 -107.5t-241 -39.5q-84 0 -162 21.5t-138 66t-96 113t-36 163.5zM352 365q0 -61 24.5 -103t63.5 -68.5t88.5 -38.5t100.5 -12q85 0 167.5 31t153.5 90 q-85 139 -198 297q-28 38 -109 139q-101 -50 -168 -103t-95 -112.5t-28 -119.5zM606 1122q0 -62 28.5 -115.5t78.5 -115.5q92 43 150 85.5t82 90t24 96.5q0 56 -26.5 90t-66.5 46t-75 12q-43 0 -79 -14t-61.5 -39.5t-40 -60t-14.5 -75.5z" />
<glyph unicode="'" horiz-adv-x="516" d="M295 1006l88 499h197l-88 -499h-197z" />
<glyph unicode="(" horiz-adv-x="664" d="M211 412q0 151 29 300t84.5 288.5t137 267.5t187.5 237h207q-94 -105 -172.5 -232t-135.5 -266.5t-88.5 -285.5t-31.5 -289q0 -128 23.5 -258.5t58 -221t74.5 -159.5h-207q-44 67 -75.5 142t-51.5 154t-29.5 160.5t-9.5 162.5z" />
<glyph unicode=")" horiz-adv-x="664" d="M10 -207q140 159 242.5 361t143 385.5t40.5 326.5q0 79 -9 163t-28 166.5t-48.5 161.5t-69.5 148h206q45 -68 76.5 -142.5t51.5 -153.5t29 -160t9 -162q0 -152 -28.5 -300.5t-84 -288.5t-137 -268t-186.5 -237h-207z" />
<glyph unicode="*" horiz-adv-x="856" d="M231 1169l52 146l249 -84l-4 274h158l-4 -274l248 84l53 -146l-256 -79l160 -211l-127 -93l-154 215l-153 -215l-125 93l159 211z" />
<glyph unicode="+" d="M195 627l28 176h387l64 403h198l-63 -403h385l-29 -176h-385l-63 -410h-199l64 410h-387z" />
<glyph unicode="," horiz-adv-x="508" d="M100 -154q10 12 28.5 34t36.5 52.5t31 68.5t13 81q0 29 -10 56.5t-41 47.5l22 84h240q3 -12 5.5 -36.5t2.5 -47.5q0 -100 -45 -195t-100.5 -155t-89.5 -86z" />
<glyph unicode="-" horiz-adv-x="727" d="M199 477h479l33 205h-480z" />
<glyph unicode="." horiz-adv-x="510" d="M127 121q0 42 23 75.5t58.5 49.5t65.5 16q44 0 81.5 -23.5t53 -57t15.5 -60.5q0 -44 -24 -77t-59.5 -48.5t-66.5 -15.5q-30 0 -57 11.5t-47 30.5t-31.5 44.5t-11.5 54.5z" />
<glyph unicode="/" horiz-adv-x="575" d="M-2 0l631 1505h186l-631 -1505h-186z" />
<glyph unicode="0" d="M225 434q0 147 19.5 279.5t55.5 244.5t88.5 202t117.5 153t142.5 97t164.5 34q133 0 221 -67.5t119 -175t31 -212.5q0 -223 -43 -408.5t-120.5 -319t-186 -207.5t-238.5 -74q-92 0 -161 31.5t-116 90t-70.5 142.5t-23.5 190zM436 420q0 -52 6.5 -101.5t25 -88t51.5 -62 t87 -23.5q79 0 141.5 65t107.5 168t72.5 229t36.5 225t9 172q0 89 -17.5 151.5t-59.5 92.5t-95 30q-92 0 -165.5 -92t-120 -239.5t-63 -283t-16.5 -243.5z" />
<glyph unicode="1" d="M254 0l25 158h243l168 1054q-35 -10 -145 -44t-137 -46l26 174l320 127h170l-201 -1265h244l-25 -158h-688z" />
<glyph unicode="2" d="M117 0l20 162q71 80 176 183t230 220q53 51 116.5 110.5t118.5 126.5t92 139.5t37 148.5q0 62 -23.5 102.5t-75 61t-114.5 20.5q-74 0 -147.5 -25t-116.5 -50t-53 -32l29 193q15 7 45 21.5t72.5 28t97 24t118.5 10.5q146 0 237 -54.5t119.5 -129.5t28.5 -142 q0 -68 -18.5 -130t-49.5 -119t-71.5 -108t-83.5 -97t-87 -86t-81 -74q-58 -54 -107 -99t-91.5 -85t-79 -76.5t-70.5 -73.5h629l-29 -170h-868z" />
<glyph unicode="3" d="M125 70l78 155q31 -19 74 -36t97.5 -26t114.5 -9q109 0 191 45t113.5 114.5t31.5 139.5t-26 117.5t-101 72.5t-180 25h-55l26 172h56q111 0 192 33.5t117.5 94.5t36.5 134q0 52 -23 91.5t-77.5 61t-124.5 21.5q-98 0 -183.5 -29t-136.5 -59l27 184q40 17 89.5 33 t119.5 27.5t135 11.5q106 0 179 -26t118.5 -68.5t65.5 -97.5t20 -113q0 -84 -27 -148.5t-69 -111t-92.5 -77t-96.5 -46.5q72 -20 124 -64.5t74.5 -106t22.5 -126.5q0 -100 -37 -187t-106 -152t-169 -102.5t-226 -37.5q-87 0 -153.5 12t-113 28t-73 30.5t-33.5 19.5z" />
<glyph unicode="4" d="M139 332l25 157q171 237 366.5 469.5t409.5 464.5h186l-147 -931h143l-24 -160h-144l-53 -332h-194l53 332h-621zM356 492h428l105 657q-131 -144 -269 -315t-264 -342z" />
<glyph unicode="5" d="M156 68l75 155q22 -15 72.5 -35t98 -28t90.5 -8q70 0 136 22.5t117 70.5t82 122t31 176q0 81 -33.5 134t-100 76t-146.5 23q-78 0 -148 -14.5t-121 -26.5l156 688h674l-27 -172h-514l-76 -329q19 5 60 9.5t82 4.5q111 0 188.5 -29t126 -79.5t70.5 -118.5t22 -146 q0 -121 -39.5 -227.5t-112.5 -185.5t-176.5 -124.5t-230.5 -45.5q-105 0 -189 20.5t-120.5 40t-46.5 27.5z" />
<glyph unicode="6" d="M221 426q0 185 52 372.5t158.5 342t256.5 229t313 74.5q35 0 87 -5t71 -12l-24 -161q-10 3 -49.5 8.5t-90.5 5.5q-85 0 -160 -25t-138 -80t-113 -141.5t-86 -210.5q31 41 80 72t107 45t114 14q129 0 210.5 -62t107.5 -146t26 -158q0 -148 -38.5 -261.5t-107.5 -190.5 t-164.5 -116.5t-209.5 -39.5q-118 0 -195.5 40t-123.5 104t-64.5 143.5t-18.5 158.5zM420 383q0 -38 8.5 -80.5t32.5 -78.5t66 -59.5t110 -23.5q67 0 122 29.5t93 84t59 132.5t21 176q0 72 -23.5 127t-73.5 82t-114 27q-78 0 -135 -34t-94 -91t-54.5 -132.5t-17.5 -158.5z " />
<glyph unicode="7" d="M281 0q91 190 175 352.5t175 325.5q68 125 143.5 249.5t131.5 210t75 115.5h-668l27 170h874l-26 -168q-65 -95 -141.5 -221.5t-172.5 -294.5q-60 -103 -127.5 -231.5t-153.5 -294.5t-108 -213h-204z" />
<glyph unicode="8" d="M158 322q0 80 28 145.5t76.5 118t113.5 91.5t140 66q-62 39 -101 78.5t-61 79t-29.5 78t-7.5 74.5q0 94 36.5 167.5t100.5 124t150.5 77t186.5 26.5q146 0 240 -52t126.5 -120t32.5 -125q0 -71 -22 -130t-62 -109t-96 -91.5t-123 -75.5q92 -53 142.5 -114t65.5 -119.5 t15 -101.5q0 -100 -40 -180.5t-109.5 -137t-163 -87t-201.5 -30.5q-111 0 -193.5 28t-137 76t-81 111t-26.5 132zM358 340q0 -43 16.5 -80t49 -64.5t80.5 -43t112 -15.5q88 0 158 39t99.5 99.5t29.5 123.5q0 57 -22 102t-78 87t-129 76q-159 -59 -237.5 -136t-78.5 -188z M506 1075q0 -35 9.5 -67.5t34.5 -63t69 -60.5t114 -61q88 39 149 87t88 103t27 111q0 55 -31 96t-83.5 59.5t-112.5 18.5q-89 0 -153 -38t-87.5 -87.5t-23.5 -97.5z" />
<glyph unicode="9" d="M229 -2l39 158q47 -11 127 -11q136 0 237.5 58t164 167.5t98.5 237.5q-35 -42 -80.5 -72t-101.5 -43.5t-111 -13.5q-92 0 -158 28.5t-108 78.5t-62 118t-20 146q0 144 38 255t106 186.5t162.5 114t207.5 38.5q166 0 262.5 -81t121 -185t24.5 -185q0 -106 -19 -222 t-59.5 -228.5t-103 -214.5t-149.5 -179.5t-199.5 -123t-252.5 -45.5q-62 0 -103 6t-61 12zM461 866q0 -41 8.5 -81.5t31.5 -73.5t64.5 -53.5t106.5 -20.5q78 0 134.5 33t93.5 89t55 130.5t18 157.5q0 69 -25 124.5t-76 83t-118 27.5t-121 -28.5t-92.5 -82.5t-59 -131 t-20.5 -174z" />
<glyph unicode=":" horiz-adv-x="510" d="M127 121q0 42 23 75.5t58.5 49.5t65.5 16q44 0 81.5 -23.5t53 -57t15.5 -60.5q0 -44 -24 -77t-59.5 -48.5t-66.5 -15.5q-30 0 -57 11.5t-47 30.5t-31.5 44.5t-11.5 54.5zM250 893q0 43 24 77.5t57.5 50t65.5 15.5q46 0 83 -25t52 -57t15 -61q0 -43 -25 -77t-60 -48 t-65 -14q-31 0 -57.5 11t-46.5 30t-31.5 44t-11.5 54z" />
<glyph unicode=";" horiz-adv-x="508" d="M98 -158l95 -92q61 46 114 113.5t84.5 146t36.5 148.5q3 29 1 60t-7 52h-238l-26 -84q34 -21 44 -53t7 -70q-5 -55 -29.5 -102.5t-48.5 -77t-33 -41.5zM252 893q0 -29 11.5 -54t31.5 -44t46.5 -30t57.5 -11q44 0 81.5 23t53 55t15.5 61q0 43 -23.5 76.5t-60 50 t-66.5 16.5q-47 0 -84 -26t-50 -57t-13 -60z" />
<glyph unicode="&#x3c;" d="M190 627l27 176l1036 403l-30 -198l-793 -301l696 -306l-28 -184z" />
<glyph unicode="=" d="M158 406l28 178h971l-29 -178h-970zM227 846l29 178h971l-27 -178h-973z" />
<glyph unicode="&#x3e;" d="M117 217l30 201l793 301l-696 305l28 182l908 -407l-29 -176z" />
<glyph unicode="?" horiz-adv-x="1020" d="M324 121q0 44 24.5 78t59.5 48.5t65 14.5q45 0 81.5 -24t51.5 -55.5t15 -61.5q0 -46 -24.5 -79.5t-59.5 -47.5t-64 -14t-56 11t-47.5 29.5t-33 44.5t-12.5 56zM324 1182l20 184q69 34 159.5 58t198.5 24q111 0 198.5 -38.5t127 -107.5t39.5 -149q0 -97 -38.5 -174 t-93.5 -123t-104 -80q-84 -59 -120.5 -93t-58 -78.5t-27.5 -94.5l-11 -68h-196l14 93q13 82 40.5 138t63 95t76 67t80.5 54q59 38 96 75t50.5 76t13.5 80q0 66 -35 102.5t-81.5 47t-84.5 10.5q-86 0 -172 -28t-155 -70z" />
<glyph unicode="@" horiz-adv-x="1868" d="M223 430q0 118 28.5 227.5t81.5 204.5t128.5 172.5t170.5 133t206.5 86t236.5 30.5q178 0 322 -55t246 -151.5t157 -229t55 -287.5q0 -135 -39.5 -242t-104 -181.5t-146.5 -114t-166 -39.5q-52 0 -89.5 11t-63 29t-41.5 41.5t-25 49.5q-48 -59 -118.5 -96t-160.5 -37 q-68 0 -124 21t-96 63.5t-62.5 107t-22.5 152.5q0 135 39.5 240t104 177.5t146.5 110t167 37.5q83 0 138 -26.5t81 -63.5l14 71h154l-105 -593q-8 -46 -8 -76q0 -37 26 -54.5t64 -17.5q75 0 141.5 68t95.5 168t29 198q0 119 -42.5 221.5t-121 178t-190.5 118.5t-250 43 q-148 0 -273 -51.5t-216 -144.5t-142 -223t-51 -287q0 -165 52.5 -295t144 -220.5t215 -138t266.5 -47.5q98 0 194 18.5t160.5 41.5t96.5 37l57 -142q-64 -30 -155.5 -57.5t-178.5 -40t-157 -12.5q-204 0 -365.5 65.5t-273.5 181t-171 274t-59 345.5zM778 330q0 -44 8.5 -81 t28.5 -63.5t52 -41.5t79 -15q76 0 130 49t79.5 113.5t34.5 118.5l43 256q-20 25 -41.5 42t-57 28.5t-73.5 11.5q-56 0 -107 -30.5t-90 -85.5t-62.5 -132t-23.5 -170z" />
<glyph unicode="A" horiz-adv-x="1217" d="M14 0q92 218 181 409.5t186 381.5t191 357t165 275h191q30 -95 58.5 -208t55 -235.5t50 -250.5t44 -254.5t37 -247t29.5 -227.5h-207q-3 31 -8 73.5t-11 92t-13 103t-13 104.5h-571q-156 -361 -160 -373h-205zM455 539h473q-22 159 -51.5 327t-75.5 355 q-103 -180 -190.5 -355.5t-155.5 -326.5z" />
<glyph unicode="B" horiz-adv-x="1255" d="M188 0l226 1423h422q116 0 189 -29.5t114 -74t56 -95.5t15 -94q0 -103 -43.5 -184t-98 -119.5t-97.5 -54.5q117 -34 173 -111t56 -192q0 -101 -35.5 -186.5t-103.5 -148.5t-167 -98.5t-226 -35.5h-480zM414 166h223q79 0 142.5 17.5t108.5 54t69 93t24 134.5 q0 73 -35 120.5t-101 67t-140 19.5h-213zM518 836h172q147 0 227 68.5t80 187.5q0 56 -19.5 93t-71 54.5t-122.5 17.5h-198z" />
<glyph unicode="C" horiz-adv-x="1155" d="M227 549q0 119 21 231.5t63 212t104.5 182.5t144.5 142.5t184 93t223 33.5q98 0 186.5 -19t136.5 -41l-28 -182q-29 14 -74.5 27t-109 24t-115.5 11q-112 0 -204 -45.5t-154.5 -125.5t-98.5 -181t-46.5 -190.5t-10.5 -168.5q0 -84 18 -155.5t59.5 -123.5t109 -81 t165.5 -29q97 0 168.5 17t111.5 32l52 -166q-65 -26 -162.5 -46.5t-212.5 -20.5q-146 0 -247 43.5t-164 120t-91.5 180.5t-28.5 225z" />
<glyph unicode="D" horiz-adv-x="1356" d="M188 0l226 1423h391q153 0 257.5 -42.5t169.5 -116t93.5 -172t28.5 -209.5q0 -190 -48 -351.5t-140.5 -279.5t-227.5 -185t-309 -67h-441zM420 168h211q118 0 211 51.5t157 144.5t97.5 222.5t33.5 285.5q0 75 -16 144.5t-54.5 122.5t-102.5 84.5t-160 31.5h-205z" />
<glyph unicode="E" horiz-adv-x="1118" d="M188 0l226 1423h807l-27 -170h-602l-64 -405h514l-26 -170h-514l-82 -508h635l-27 -170h-840z" />
<glyph unicode="F" horiz-adv-x="1020" d="M188 0l226 1423h788l-26 -170h-584l-64 -403h486l-27 -170h-485l-109 -680h-205z" />
<glyph unicode="G" horiz-adv-x="1305" d="M227 537q0 202 54.5 369.5t154 287.5t239 186t308.5 66q110 0 188.5 -16t155.5 -39l-29 -181q-19 9 -75 24.5t-121.5 24.5t-120.5 9q-128 0 -227 -54.5t-166.5 -151.5t-102 -231t-34.5 -294q0 -81 19 -150t63 -120t116.5 -80t179.5 -29q74 0 150 8l70 438h-230l29 174 h432l-123 -778q-10 -1 -126 -8.5t-232 -7.5q-150 0 -258 39.5t-178 112.5t-103 174.5t-33 226.5z" />
<glyph unicode="H" horiz-adv-x="1370" d="M188 0l226 1423h204l-86 -551h582l86 551h207l-225 -1423h-207l110 700h-581l-111 -700h-205z" />
<glyph unicode="I" horiz-adv-x="582" d="M188 0l226 1423h204l-225 -1423h-205z" />
<glyph unicode="J" horiz-adv-x="967" d="M55 76l82 153q21 -18 56 -37t80 -29.5t94 -10.5q63 0 110.5 17.5t81.5 49.5q40 38 64 98t36 144l152 962h205l-156 -989q-18 -114 -58.5 -201t-109.5 -149q-57 -51 -135 -80t-180 -29q-98 0 -176 26t-108 47t-38 28z" />
<glyph unicode="K" horiz-adv-x="1237" d="M188 0l226 1423h204l-92 -592l602 592h254l-680 -665q78 -77 152 -169.5t140.5 -191.5t124 -200.5t102.5 -196.5h-244q-76 145 -153 266t-162.5 228.5t-159.5 181.5l-109 -676h-205z" />
<glyph unicode="L" horiz-adv-x="1010" d="M188 0l226 1423h204l-198 -1253h579l-26 -170h-785z" />
<glyph unicode="M" horiz-adv-x="1618" d="M170 0q17 105 38.5 226.5t46 250t50.5 259t52.5 253.5t52.5 234t49 200h217l201 -1026l520 1026h223q-5 -85 -18.5 -244t-34.5 -342.5t-44.5 -369t-41.5 -310t-23 -157.5h-194q11 65 23 147.5t24.5 175t25 193t25 202.5t24 202.5t21.5 193.5l-502 -981h-141l-191 991 q-41 -196 -89 -452t-71.5 -384t-50.5 -288h-192z" />
<glyph unicode="N" horiz-adv-x="1370" d="M188 0l226 1423h196q100 -190 215.5 -471.5t221.5 -584.5l167 1056h193l-225 -1423h-183q-48 142 -98 286.5t-103.5 290t-112 290.5t-122.5 288l-182 -1155h-193z" />
<glyph unicode="O" horiz-adv-x="1405" d="M225 516q0 131 22 251.5t63.5 224.5t102.5 188.5t138.5 145t170.5 93.5t200 33q132 0 224 -45t149.5 -120.5t83.5 -173.5t26 -204q0 -211 -56 -392t-159 -309.5t-229.5 -182.5t-251.5 -54q-132 0 -224.5 45.5t-150 121t-83.5 174t-26 204.5zM444 506q0 -38 4 -79.5 t14.5 -82t30 -77.5t49.5 -65t72.5 -44.5t100.5 -16.5q107 0 194 60t148 165t94 247t33 305q0 62 -9 114.5t-29.5 102t-59.5 85.5t-82 49t-91 13q-107 0 -193.5 -60t-147.5 -165t-94.5 -246.5t-33.5 -304.5z" />
<glyph unicode="P" horiz-adv-x="1174" d="M188 0l226 1423h420q158 0 253.5 -52.5t125.5 -132.5t30 -155q0 -107 -35 -200t-103.5 -162.5t-170.5 -109.5t-236 -40h-221l-90 -571h-199zM504 737h184q120 0 200 46.5t110 122.5t30 157q0 68 -31 113.5t-90 63t-129 17.5h-192z" />
<glyph unicode="Q" horiz-adv-x="1405" d="M225 516q0 131 22 251.5t63.5 224.5t102.5 188.5t138.5 145t170.5 93.5t200 33q132 0 224 -45t149.5 -120.5t83.5 -173.5t26 -204q0 -185 -44.5 -349.5t-116 -272t-144.5 -170.5q48 -63 95.5 -118.5t84.5 -92.5l-123 -115q-57 57 -104.5 117.5t-89.5 120.5 q-57 -28 -120 -43t-134 -15q-132 0 -224.5 45.5t-150 121t-83.5 174t-26 204.5zM444 506q0 -38 4 -79.5t14.5 -82t30 -77.5t49.5 -65t72.5 -44.5t100.5 -16.5q77 0 149 37q-40 69 -68 124t-42 89l127 66q14 -31 41 -79.5t65 -105.5q69 77 116.5 193t64 233.5t16.5 219.5 q0 62 -9 114.5t-29.5 102t-59.5 85.5t-82 49t-91 13q-107 0 -193.5 -60t-147.5 -165t-94.5 -246.5t-33.5 -304.5z" />
<glyph unicode="R" horiz-adv-x="1276" d="M188 0l226 1423h405q114 0 192.5 -25t127 -69.5t70.5 -105.5t22 -133q0 -113 -46 -207.5t-116.5 -150t-140.5 -83.5q86 -126 161 -296.5t132 -352.5h-228q-23 69 -53 149.5t-65 160.5t-73.5 153t-78.5 127h-244l-92 -590h-199zM506 756h176q77 0 138.5 20.5t104.5 60.5 t66 97.5t23 132.5q0 66 -26 109t-81 62t-121 19h-200z" />
<glyph unicode="S" horiz-adv-x="1085" d="M88 70l70 166q11 -7 42.5 -21t77.5 -28t103.5 -24.5t120.5 -10.5q174 0 257 65.5t83 185.5q0 66 -37.5 113.5t-103.5 81t-132 61.5q-55 23 -110.5 52t-100 70.5t-72.5 98.5t-28 136q0 100 39.5 180.5t110.5 136t169 85.5t216 30q97 0 188.5 -17t153.5 -38l-29 -176 q-43 17 -84.5 28t-111.5 22t-128 11q-106 0 -184.5 -35.5t-106.5 -89t-28 -106.5q0 -43 18.5 -75.5t53.5 -59.5t85.5 -51.5t114.5 -51.5q126 -54 196.5 -107t100 -122.5t29.5 -147.5q0 -113 -40 -198.5t-113 -143t-175.5 -86.5t-226.5 -29q-89 0 -160.5 12t-124 27.5 t-86 31.5t-47.5 24z" />
<glyph unicode="T" horiz-adv-x="1071" d="M236 1249l26 174h1000l-29 -174h-395l-199 -1249h-205l197 1249h-395z" />
<glyph unicode="U" horiz-adv-x="1343" d="M248 362v39q0 60 14 150l139 872h205l-143 -909q-10 -64 -10 -117q0 -63 17.5 -108.5t49.5 -75t77.5 -43.5t102.5 -14q103 0 175.5 40.5t110 120t52.5 172.5l148 934h207l-154 -960q-21 -129 -69.5 -221.5t-120.5 -151.5t-165 -87t-202 -28q-95 0 -175 23.5t-137.5 71.5 t-89.5 121t-32 171z" />
<glyph unicode="V" horiz-adv-x="1210" d="M240 1423h213q18 -126 39 -264t46 -283.5t53 -296t60 -300.5q148 276 284.5 563t264.5 581h221q-69 -163 -152.5 -337.5t-168.5 -342t-171 -326.5t-141.5 -254.5t-97.5 -162.5h-172q-40 163 -78.5 337t-74 354t-67 364.5t-58.5 367.5z" />
<glyph unicode="W" horiz-adv-x="1735" d="M240 1423h206q6 -119 16 -250.5t22.5 -271t27.5 -284t31 -289.5l440 1058h209l102 -1058q83 174 151 330.5t122.5 294.5t95.5 256t70 214h213q-54 -159 -137.5 -372t-172.5 -415t-167.5 -361.5t-141.5 -274.5h-186l-99 1118l-450 -1118h-186q-27 163 -52 339.5t-46.5 358 t-39 365t-28.5 360.5z" />
<glyph unicode="X" horiz-adv-x="1184" d="M25 0l569 719q-54 116 -119 265t-106.5 256.5t-65.5 182.5h211q26 -85 75 -213t77.5 -196t58.5 -137q120 160 218.5 301t164.5 245h211q-87 -143 -224.5 -335.5t-281.5 -378.5l344 -709h-231l-248 547l-424 -547h-229z" />
<glyph unicode="Y" horiz-adv-x="1165" d="M240 1423h200q39 -109 102.5 -263t164.5 -347q163 189 274 345t182 265h215q-93 -147 -211 -308.5t-213.5 -276.5t-165.5 -193l-102 -645h-207l103 645q-67 114 -139 266.5t-122 281.5t-81 230z" />
<glyph unicode="Z" horiz-adv-x="1092" d="M63 0l27 168q17 23 45.5 62t65.5 89t80.5 108.5t91 121t97.5 126.5t99 124q101 126 211 253t178 201h-659l27 170h905l-25 -168q-64 -67 -206.5 -232.5t-249.5 -297.5q-89 -107 -196.5 -247t-231.5 -308h733l-27 -170h-965z" />
<glyph unicode="[" horiz-adv-x="672" d="M109 -207l270 1712h430l-25 -155h-231l-221 -1401h231l-24 -156h-430z" />
<glyph unicode="\" horiz-adv-x="573" d="M229 1505h185l145 -1505h-184z" />
<glyph unicode="]" horiz-adv-x="672" d="M27 -207l24 156h232l221 1401h-232l25 155h430l-270 -1712h-430z" />
<glyph unicode="^" horiz-adv-x="1145" d="M186 598l529 825h172l268 -825h-203l-186 588l-371 -588h-209z" />
<glyph unicode="_" horiz-adv-x="1028" d="M2 -332h1024v-102h-1024v102z" />
<glyph unicode="`" horiz-adv-x="819" d="M410 1423h219l133 -282h-187z" />
<glyph unicode="a" horiz-adv-x="1174" d="M195 385q0 150 40 274t108.5 212.5t160 137t194.5 48.5q67 0 124 -20.5t88.5 -48t45.5 -48.5l21 96h190l-110 -698q-15 -84 -15 -139q0 -41 8 -86t17 -73.5t14 -39.5h-202q-14 28 -21.5 79t-7.5 60q-40 -56 -101.5 -95t-118 -51.5t-102.5 -12.5q-71 0 -132 23 t-105.5 72.5t-70 126t-25.5 183.5zM410 395q0 -60 10.5 -107.5t33 -80.5t59 -50.5t87.5 -17.5q80 0 143 52t93.5 129.5t42.5 150.5l49 322q-25 30 -49 49t-64 33t-82 14q-71 0 -130 -37t-102 -102.5t-67 -156t-24 -198.5z" />
<glyph unicode="b" horiz-adv-x="1167" d="M168 0l238 1505h198l-94 -600q35 47 83 83t107 52.5t119 16.5q90 0 152 -31t101 -83.5t56 -121.5t17 -145q0 -158 -39.5 -286.5t-108.5 -219.5t-163 -140.5t-203 -49.5q-51 0 -92.5 10.5t-73.5 26t-54 34.5t-34 37l-19 -88h-190zM406 244q30 -48 77 -74.5t119 -26.5 q118 0 197.5 90t105 207t25.5 215q0 77 -20.5 130.5t-65.5 78.5t-99 25q-87 0 -155.5 -61t-101 -150.5t-44.5 -173.5z" />
<glyph unicode="c" horiz-adv-x="922" d="M197 412q0 137 39.5 254.5t113.5 203.5t178.5 134.5t235.5 48.5q99 0 231 -33l-26 -170q-12 4 -44.5 13t-75 14.5t-79.5 5.5q-102 0 -174 -45t-113.5 -118.5t-57 -150.5t-15.5 -147q0 -125 58 -196.5t181 -71.5q40 0 95 8.5t80.5 19t35.5 15.5l53 -156 q-45 -19 -120.5 -38t-188.5 -19q-111 0 -188.5 34t-126 92.5t-70.5 136.5t-22 165z" />
<glyph unicode="d" horiz-adv-x="1165" d="M195 389q0 151 40 274t108.5 210.5t160 135.5t194.5 48q73 0 128.5 -21t84.5 -47.5t43 -44.5l90 561h199l-237 -1505h-191l16 127q-55 -72 -129.5 -109.5t-171.5 -37.5q-71 0 -132.5 23.5t-106.5 73.5t-70.5 127t-25.5 185zM412 395q0 -59 10.5 -105.5t33 -78.5t59 -49 t87.5 -17q82 0 144 51t92.5 126.5t42.5 148.5l51 322q-20 25 -47 46t-68.5 35.5t-83.5 14.5q-71 0 -129.5 -37t-101.5 -102.5t-66.5 -156t-23.5 -198.5z" />
<glyph unicode="e" horiz-adv-x="1071" d="M195 410q0 100 26.5 200t83.5 193t137 153t160.5 82.5t161.5 22.5q103 0 180.5 -36t111.5 -100.5t34 -138.5q0 -71 -30.5 -142t-106 -127.5t-203.5 -92t-322 -35.5h-31q0 -91 40 -152.5t98 -80.5t112 -19q35 0 89 6.5t94 19t67 25.5l53 -153q-53 -20 -105.5 -32t-109 -20 t-100.5 -8q-123 0 -207 33t-136 91.5t-74.5 138t-22.5 172.5zM406 541h30q153 0 248.5 25t142.5 67t57.5 81.5t10.5 67.5q0 66 -38.5 102t-117.5 36q-47 0 -99 -21.5t-98.5 -67.5t-83 -118t-52.5 -172z" />
<glyph unicode="f" horiz-adv-x="623" d="M-20 -252q64 36 110.5 81.5t80.5 124t48 171.5l113 754h-121l27 157h118l31 189q25 151 116.5 226t229.5 75q51 0 108 -9t89 -18l-25 -149q-17 5 -57 12.5t-88 7.5q-86 0 -126.5 -43t-53.5 -131l-25 -160h227l-24 -157h-228l-120 -797q-13 -84 -39.5 -148.5t-60 -113 t-71.5 -83t-74.5 -57.5t-68 -36.5t-51.5 -20.5z" />
<glyph unicode="g" horiz-adv-x="1167" d="M197 397q0 147 40 268.5t108.5 208.5t160 135t194.5 48q76 0 134.5 -23t86 -49.5t40.5 -44.5l20 96h190l-167 -1052q-17 -110 -56.5 -185.5t-101.5 -126.5q-66 -54 -154.5 -80t-197.5 -26q-88 0 -161 12.5t-134 32.5l39 147q42 -14 102.5 -25.5t138.5 -11.5 q151 0 228.5 62.5t97.5 196.5l24 159q-55 -72 -127 -108.5t-172 -36.5q-71 0 -132 22.5t-105.5 71.5t-70 125.5t-25.5 183.5zM414 403q0 -118 43.5 -182.5t146.5 -64.5q80 0 142.5 48.5t94.5 125t44 149.5l49 314q-20 25 -47 46t-68.5 35.5t-83.5 14.5q-71 0 -129.5 -37.5 t-101.5 -103t-66.5 -154.5t-23.5 -191z" />
<glyph unicode="h" horiz-adv-x="1159" d="M168 0l238 1505h198l-94 -600q54 66 133.5 109t190.5 43q99 0 165 -39t89.5 -98.5t23.5 -114.5q0 -35 -3.5 -77t-12.5 -105l-99 -623h-198l92 575q8 45 13 93t5 80q0 66 -37 102.5t-118 36.5q-53 0 -102 -23.5t-88.5 -63.5t-66.5 -93t-36 -111l-94 -596h-199z" />
<glyph unicode="i" horiz-adv-x="580" d="M201 0l141 889q-12 2 -28 4.5t-33 4.5t-34 3.5t-32 3.5l21 131h327l-164 -1036h-198zM356 1364q0 38 21.5 68.5t52 43.5t57.5 13q40 0 70.5 -19.5t45.5 -50t15 -55.5q0 -39 -23.5 -70t-52 -43t-55.5 -12t-50.5 10t-41.5 27t-28.5 39.5t-10.5 48.5z" />
<glyph unicode="j" horiz-adv-x="580" d="M-147 -397l34 139q11 -6 45 -15.5t80 -9.5q55 0 90.5 21.5t54.5 65t27 96.5l158 989q-12 2 -28 4.5t-33 4.5t-34 3.5t-32 3.5l21 131h327l-178 -1126q-20 -124 -68 -202.5t-122 -110t-156 -31.5q-62 0 -112.5 12.5t-73.5 24.5zM356 1364q0 38 21.5 68.5t52 43.5t57.5 13 q40 0 70.5 -19.5t45.5 -50t15 -55.5q0 -39 -23.5 -70t-52 -43t-55.5 -12t-50.5 10t-41.5 27t-28.5 39.5t-10.5 48.5z" />
<glyph unicode="k" horiz-adv-x="1008" d="M168 0l238 1505h198l-137 -868l420 399h241l-487 -454q74 -82 152 -194.5t132.5 -211t90.5 -176.5h-236q-30 56 -67 121t-79.5 132t-89 133.5t-95.5 125.5l-82 -512h-199z" />
<glyph unicode="l" horiz-adv-x="539" d="M168 0l215 1360q-26 5 -127 16l20 129h328l-237 -1505h-199z" />
<glyph unicode="m" horiz-adv-x="1718" d="M168 0l164 1036h188l-14 -139q49 69 126 114.5t181 45.5q81 0 134.5 -27.5t81.5 -69.5t38 -81q42 61 105.5 104.5t123 58.5t107.5 15q98 0 160.5 -39t85 -98.5t22.5 -114.5q0 -83 -16 -191l-99 -614h-198l92 575q8 45 13 93t5 80q0 66 -32.5 103.5t-104.5 37.5 q-71 0 -137 -51.5t-97 -117.5t-40 -124l-94 -596h-199l90 575q8 45 13 93t5 80q0 66 -31 103.5t-104 37.5t-139 -51.5t-97 -117.5t-40 -124l-94 -596h-199z" />
<glyph unicode="n" horiz-adv-x="1159" d="M168 0l164 1036h188l-14 -139q41 54 97 92t115.5 53t115.5 15q99 0 165 -39t89.5 -98.5t23.5 -114.5q0 -102 -14 -182l-101 -623h-198l92 575q8 45 13 93t5 80q0 66 -37 102.5t-118 36.5q-53 0 -102 -23.5t-88.5 -63.5t-66.5 -93t-36 -111l-94 -596h-199z" />
<glyph unicode="o" horiz-adv-x="1155" d="M195 395q0 144 41 266t113.5 211t172.5 139t217 50q101 0 174.5 -31.5t121.5 -87t71.5 -133t23.5 -168.5q0 -144 -41 -266.5t-113.5 -211t-172.5 -138.5t-217 -50q-101 0 -174.5 31.5t-121.5 87.5t-71.5 133t-23.5 168zM408 381q0 -42 7 -86t28 -80t58.5 -59t98.5 -23 q81 0 141 44t99.5 117t58.5 167t19 194q0 76 -20.5 133.5t-67 86t-107.5 28.5q-81 0 -140 -44t-98 -117t-58 -167t-19 -194z" />
<glyph unicode="p" horiz-adv-x="1169" d="M102 -414l230 1450h188l-14 -141q34 51 81 87.5t109 55.5t125 19q90 0 152 -31t101 -83.5t56 -121.5t17 -145q0 -158 -39.5 -286.5t-109 -219.5t-165 -140.5t-206.5 -49.5q-49 0 -89.5 8t-71.5 20.5t-53.5 27t-35.5 27.5l-76 -477h-199zM403 231q31 -38 80 -63t121 -25 q118 0 196.5 90.5t104 207t25.5 214.5q0 77 -20.5 130.5t-64.5 78.5t-100 25q-60 0 -109.5 -28.5t-87 -79.5t-63.5 -122t-39 -155z" />
<glyph unicode="q" horiz-adv-x="1165" d="M195 389q0 149 40 272t108.5 211t160 136.5t194.5 48.5q76 0 131 -22t86 -49.5t43 -45.5l21 96h188l-229 -1450h-199l86 545q-55 -72 -126.5 -108.5t-170.5 -36.5q-71 0 -132 22.5t-105.5 71.5t-70 125t-25.5 184zM410 395q0 -118 44 -180.5t148 -62.5q81 0 143.5 48.5 t93 123t42.5 147.5l49 322q-20 26 -45.5 46t-67.5 35t-84 15q-71 0 -130 -37.5t-102 -104t-67 -157t-24 -195.5z" />
<glyph unicode="r" horiz-adv-x="743" d="M168 0l164 1036h192l-26 -184q54 87 132.5 138.5t174.5 51.5q26 0 47 -3t29 -5l-31 -188q-9 3 -31 5.5t-47 2.5q-94 0 -169.5 -57t-108 -124.5t-39.5 -115.5l-88 -557h-199z" />
<glyph unicode="s" horiz-adv-x="932" d="M100 51l60 152q25 -14 72 -30.5t102 -25t110 -8.5q125 0 185.5 38.5t60.5 119.5q0 43 -34.5 74t-88.5 52t-102 40q-58 21 -103 44.5t-76 54t-47 69t-16 88.5q0 116 64 197t161 111t193 30q104 0 179.5 -15.5t113.5 -27.5l-27 -158q-53 17 -121.5 31t-142.5 14 q-114 0 -169.5 -37t-55.5 -106q0 -29 14 -50t41 -38t67.5 -32.5t94.5 -33.5q97 -32 155.5 -75t80.5 -94.5t22 -104.5q0 -89 -33 -154.5t-91.5 -109t-139 -65t-174.5 -21.5q-107 0 -190.5 17.5t-118.5 32.5t-46 21z" />
<glyph unicode="t" horiz-adv-x="705" d="M190 879l25 157h158l35 232q85 29 213 88l-50 -320h258l-26 -157h-258l-86 -551q-8 -47 -8 -86q0 -53 26.5 -77t85.5 -24q48 0 121 23l41 -148q-38 -14 -100.5 -25t-135.5 -11q-129 0 -186 58.5t-57 162.5q0 52 10 104l90 574h-156z" />
<glyph unicode="u" horiz-adv-x="1159" d="M209 231q0 76 18 183l97 622h198l-90 -575q-10 -57 -14 -104t-4 -70q0 -66 37 -103t118 -37q53 0 102 23.5t88.5 63.5t66.5 93t36 111l94 598h199l-166 -1036h-186l14 139q-52 -71 -133.5 -115t-194.5 -44q-69 0 -121.5 18.5t-87.5 52t-53 79.5t-18 101z" />
<glyph unicode="v" horiz-adv-x="975" d="M180 1036h201q29 -198 64 -407t75 -422q98 179 212 418.5t183 410.5h209q-36 -82 -78 -171t-87.5 -180t-93.5 -182.5t-96.5 -179.5t-96 -169.5t-92.5 -153.5h-195q-26 119 -53.5 248t-53.5 261.5t-51 265.5t-47 261z" />
<glyph unicode="w" horiz-adv-x="1411" d="M180 1036h193q14 -234 34.5 -454t36.5 -355l338 783h176l68 -789q112 227 193 430t143 385h197q-64 -184 -158 -399.5t-174.5 -371t-143.5 -265.5h-192l-66 750l-323 -750h-193q-37 192 -65.5 407t-42.5 366.5t-21 262.5z" />
<glyph unicode="x" horiz-adv-x="965" d="M18 0l443 520q-30 58 -62.5 124t-64 134t-59.5 134.5t-48 123.5h195q32 -95 80 -202t84 -175q74 93 160.5 208t121.5 169h197q-83 -125 -187 -258.5t-212 -263.5l276 -514h-217l-186 371l-301 -371h-220z" />
<glyph unicode="y" horiz-adv-x="1008" d="M-84 -387l55 147q11 -8 42 -19t73 -11q39 0 73 12.5t66 38t63 65t64 93.5q12 9 23.5 27t22.5 38t20.5 39t17.5 31q-35 115 -71 243.5t-69.5 256t-63.5 246.5t-52 216h209q18 -85 40 -179t45.5 -191.5t49 -197t51.5 -196.5q92 171 197 383.5t176 380.5h211 q-94 -203 -201.5 -414.5t-195 -365.5t-156.5 -264q-114 -179 -188.5 -265t-156.5 -123.5t-167 -37.5q-59 0 -108 15.5t-70 31.5z" />
<glyph unicode="z" horiz-adv-x="944" d="M63 0l25 154q70 86 166.5 198t198.5 221q107 116 297 306h-517l25 157h758l-27 -153q-39 -41 -69.5 -71.5t-125 -128.5t-149.5 -157q-45 -48 -92 -99.5t-91 -100t-82.5 -92.5t-66.5 -78h572l-25 -156h-797z" />
<glyph unicode="{" horiz-adv-x="672" d="M154 567l24 162q70 0 113 44.5t59 102t23 101.5l45 285q18 120 85.5 181.5t188.5 61.5h154l-25 -159h-80q-59 0 -86 -29.5t-37 -87.5l-47 -303q-12 -76 -37.5 -131.5t-66 -91t-88.5 -58.5q57 -35 80.5 -85t23.5 -105q0 -81 -10 -142l-33 -196q-10 -59 -10 -90 q0 -42 27 -58t80 -16h63l-25 -160h-98q-98 0 -156.5 29t-77 69t-18.5 80q0 27 15 142l28 196q13 72 13 133q0 36 -15.5 66t-45.5 44t-66 15z" />
<glyph unicode="|" horiz-adv-x="598" d="M193 -207l270 1712h147l-270 -1712h-147z" />
<glyph unicode="}" horiz-adv-x="672" d="M27 -209l24 160h82q59 0 86.5 30t36.5 87l47 305q11 71 35.5 126.5t67 93t90.5 60.5q-57 35 -82 85t-25 104q0 71 12 141l31 197q10 61 10 90q0 41 -27 58.5t-77 17.5h-66l25 157h100q131 0 191.5 -48t60.5 -130q0 -47 -14 -139l-31 -197q-10 -58 -10 -135 q0 -35 15.5 -66.5t45.5 -44.5t66 -14l-25 -162q-52 0 -86.5 -22.5t-56 -57.5t-33 -78.5t-18.5 -86.5l-45 -285q-20 -122 -87 -184t-188 -62h-155z" />
<glyph unicode="~" horiz-adv-x="1368" d="M147 393q79 145 175.5 227t216.5 82q61 0 115 -21t137 -67q55 -34 107 -58t97 -24q44 0 81.5 20.5t73.5 66.5t69 104l149 -84q-77 -145 -173.5 -227t-213.5 -82q-74 0 -137.5 26t-122.5 60q-59 35 -108.5 59.5t-94.5 24.5q-44 0 -82.5 -24t-71.5 -67.5t-67 -99.5z" />
<glyph unicode="&#xa1;" horiz-adv-x="543" d="M158 -8l161 969h199l-147 -969h-213zM317 1298q0 42 23.5 76t58.5 50t68 16q46 0 81.5 -25t50.5 -57.5t15 -59.5q0 -42 -25 -77.5t-58.5 -49.5t-63.5 -14q-32 0 -59 11.5t-47.5 31t-32 45t-11.5 53.5z" />
<glyph unicode="&#xa2;" horiz-adv-x="928" d="M219 604q0 128 35 239.5t100.5 196t158.5 137t210 64.5l29 182h106l-29 -178q79 -5 127 -16.5t62 -16.5l-27 -170q-14 7 -65 19t-123 14l-115 -729q62 1 118.5 16.5t76.5 26.5l53 -156q-42 -17 -108.5 -34.5t-165.5 -22.5l-29 -176h-107l29 180q-92 11 -155.5 48.5 t-104 94.5t-58.5 129t-18 152zM432 614q0 -100 37 -166.5t115 -89.5l110 705q-99 -28 -162.5 -111.5t-81.5 -175.5t-18 -162z" />
<glyph unicode="&#xa3;" horiz-adv-x="1085" d="M74 0l26 164q48 8 95.5 46.5t78 94t45.5 115.5l60 237h-164l57 162h148l59 228q26 101 74 176t114 124t148.5 73t177.5 24q102 0 182 -21.5t107 -36.5l-25 -169q-36 15 -65.5 24.5t-87 20t-105.5 10.5q-68 0 -121 -18t-92.5 -54t-68 -90.5t-47.5 -126.5l-43 -164h364 l-55 -162h-350l-54 -206q-18 -72 -49.5 -135t-61.5 -95.5t-56 -48.5h696l-27 -172h-960z" />
<glyph unicode="&#xa4;" d="M195 330l139 139q-37 51 -56.5 112.5t-19.5 129.5t19.5 129.5t56.5 113.5l-139 140l122 123l142 -140q51 35 111 54.5t128 19.5q126 0 244 -74l139 140l123 -123l-141 -142q37 -51 56.5 -112t19.5 -129q0 -66 -19.5 -127.5t-54.5 -114.5l139 -139l-123 -123l-139 139 q-53 -37 -114.5 -56.5t-129.5 -19.5q-66 0 -127.5 19.5t-113.5 56.5l-140 -139zM428 711q0 -58 21.5 -109.5t58.5 -90t86 -61t104 -22.5q81 0 148 46.5t95 112.5t28 124q0 84 -45 153.5t-107.5 99t-118.5 29.5q-80 0 -148.5 -48.5t-95 -112.5t-26.5 -121z" />
<glyph unicode="&#xa5;" horiz-adv-x="1137" d="M195 299l38 115h291l29 176h-311l39 115h254q-62 106 -126 244.5t-109.5 261.5t-70.5 212h195q15 -48 39 -116t56 -149t72.5 -172t88.5 -185q140 167 263.5 338.5t193.5 283.5h202q-72 -116 -168 -250.5t-197.5 -261.5t-174.5 -206h280l-39 -115h-288l-29 -176h309 l-39 -115h-288l-48 -299h-198l47 299h-311z" />
<glyph unicode="&#xa6;" horiz-adv-x="598" d="M193 -207l90 572h147l-90 -572h-147zM373 934l90 571h147l-90 -571h-147z" />
<glyph unicode="&#xa7;" horiz-adv-x="969" d="M121 57l55 144q31 -16 84.5 -32t105.5 -24t105 -8q95 0 151 25.5t71.5 61t15.5 67.5q0 47 -33 75.5t-90 49.5t-103.5 37t-93.5 34.5t-85 47t-61.5 70.5t-23.5 104q0 78 36.5 140.5t86.5 95.5t88 48q-28 17 -51.5 37t-41 45.5t-27 58t-9.5 74.5q0 107 65 183t162.5 105.5 t188.5 29.5q100 0 184.5 -15t128.5 -32l-29 -154q-31 11 -68.5 20.5t-100 18t-113.5 8.5q-80 0 -132 -21t-71.5 -54t-19.5 -68q0 -29 12 -49t37.5 -35.5t65 -29t94.5 -30.5q103 -31 165 -63.5t92.5 -84t30.5 -114.5q0 -79 -37.5 -144.5t-83.5 -99.5t-79 -49q60 -40 90 -91 t30 -117q0 -80 -33 -143.5t-91 -107.5t-137.5 -67.5t-172.5 -23.5q-97 0 -184 18t-124.5 35t-49.5 24zM401 752q0 -51 44.5 -85t105 -52t111.5 -33q49 22 82 52t48 68t15 76q0 63 -60 99.5t-167 62.5q-51 -10 -95 -40.5t-64 -70.5t-20 -77z" />
<glyph unicode="&#xa8;" horiz-adv-x="807" d="M287 1282q0 50 34 83.5t87 33.5q40 0 68 -19.5t41 -46t13 -51.5q0 -36 -21 -64.5t-48.5 -39.5t-52.5 -11q-26 0 -48.5 9t-38.5 25t-25 36.5t-9 44.5zM682 1282q0 37 20.5 66t47.5 40t53 11q42 0 71 -20.5t40.5 -46t11.5 -50.5q0 -37 -20 -64.5t-48.5 -39t-54.5 -11.5 t-48 9t-38 25t-25.5 36.5t-9.5 44.5z" />
<glyph unicode="&#xa9;" horiz-adv-x="1731" d="M229 711q0 159 66 303t182 247t247 147t253 44q130 0 254.5 -45t225.5 -129t163.5 -189t84 -199t21.5 -179q0 -130 -45.5 -253.5t-131.5 -223.5t-191 -160.5t-200.5 -81.5t-180.5 -21q-103 0 -198.5 26.5t-178.5 74.5t-151.5 116t-117 150t-75.5 176.5t-27 196.5z M391 711q0 -82 21 -157.5t59.5 -141.5t92 -120t118.5 -92.5t140 -59.5t155 -21q121 0 228 46.5t187 126.5t126.5 188t46.5 231t-46.5 231t-126.5 188.5t-187 127.5t-228 47q-123 0 -237 -51.5t-196.5 -144t-117.5 -196.5t-35 -202zM604 705q0 101 26 183t76.5 139.5 t125.5 88.5t174 31q50 0 107 -12.5t106 -30.5v-150q-42 19 -92.5 34.5t-116.5 15.5q-71 0 -118 -23.5t-75 -63.5t-39.5 -93t-11.5 -111q0 -151 62.5 -221t187.5 -70q48 0 90.5 7.5t93.5 27.5l49 -131q-65 -27 -123 -38.5t-139 -11.5q-92 0 -163.5 31t-120.5 87.5t-74 135.5 t-25 175z" />
<glyph unicode="&#xaa;" horiz-adv-x="793" d="M262 1094q0 97 26.5 176.5t73 136.5t109.5 88t137 31q64 0 107 -23t65 -49l11 57h127l-72 -452q-8 -47 -8 -92q0 -41 8 -76.5t14 -50.5h-141q-7 19 -19 80q-35 -47 -87 -71t-109 -24q-56 0 -100.5 15.5t-76 48.5t-48.5 84t-17 121zM416 1106q0 -75 28 -117.5t99 -42.5 t116.5 53t59.5 144l33 207q-14 13 -30 25.5t-44 22t-55 9.5q-45 0 -83 -23t-65.5 -63t-43 -95.5t-15.5 -119.5z" />
<glyph unicode="&#xab;" horiz-adv-x="1022" d="M160 535l315 399h211l-332 -412l203 -411h-197zM563 522l326 412h211l-342 -424l196 -399h-194z" />
<glyph unicode="&#xac;" d="M197 825l28 179h971l-92 -582h-199l64 403h-772z" />
<glyph unicode="&#xad;" horiz-adv-x="727" d="M199 477h479l33 205h-480z" />
<glyph unicode="&#xae;" horiz-adv-x="1731" d="M227 711q0 159 66 303t182 247t246.5 147t253.5 44q130 0 254.5 -45t225.5 -129t163.5 -189t84 -199t21.5 -179q0 -102 -26.5 -196.5t-75.5 -176.5t-117.5 -150t-151.5 -116t-179 -74.5t-199 -26.5t-198.5 26.5t-178.5 74.5t-151.5 116t-117 150t-75.5 176.5t-27 196.5z M389 711q0 -82 21 -157.5t59.5 -141.5t92 -120t118.5 -92.5t140 -59.5t155 -21q121 0 228 46.5t187 126.5t126.5 188t46.5 231t-46.5 231t-126.5 188.5t-187 127.5t-228 47q-123 0 -237 -51.5t-196.5 -144t-117.5 -196.5t-35 -202zM668 291v844h286q143 0 216 -61t73 -179 q0 -71 -31.5 -129t-103.5 -92q47 -54 94.5 -128t83 -142.5t55.5 -112.5h-167q-32 63 -70.5 131t-79 125.5t-66.5 83.5h-147v-340h-143zM811 752h111q85 0 125 35.5t40 97.5q0 69 -39 98t-124 29h-113v-260z" />
<glyph unicode="&#xaf;" horiz-adv-x="805" d="M283 1206h624l23 150h-625z" />
<glyph unicode="&#xb0;" horiz-adv-x="668" d="M225 1217q0 88 47.5 159t114 100t125.5 29q85 0 157 -47t102 -114.5t30 -126.5q0 -91 -51 -162t-115 -98t-123 -27t-111.5 22.5t-91.5 61.5t-61.5 91.5t-22.5 111.5zM367 1217q0 -47 25.5 -85.5t57.5 -53.5t62 -15q43 0 79.5 26.5t52 62t15.5 65.5q0 45 -23.5 81.5 t-58 54t-65.5 17.5q-43 0 -80 -26t-51 -61.5t-14 -65.5z" />
<glyph unicode="&#xb1;" d="M94 49l29 178h971l-29 -178h-971zM195 676l26 178h387l56 352h198l-55 -352h385l-27 -178h-385l-57 -359h-201l60 359h-387z" />
<glyph unicode="&#xb2;" horiz-adv-x="948" d="M233 629l21 133q52 46 134.5 110.5t141.5 112.5q93 75 137 117t71.5 86.5t27.5 85.5q0 37 -16 60.5t-47.5 33.5t-69.5 10q-56 0 -108.5 -16.5t-86 -34.5t-41.5 -22l25 157q33 13 65.5 24.5t86.5 21.5t98 10q110 0 175 -33t85 -85t20 -100q0 -82 -49.5 -156.5t-115 -132 t-113.5 -96.5q-84 -66 -86.5 -68.5t-40 -32.5t-53.5 -42h401l-23 -143h-639z" />
<glyph unicode="&#xb3;" horiz-adv-x="946" d="M244 678l57 129q23 -14 60 -27t73 -18.5t78 -5.5q73 0 122 22t69 58.5t20 74.5q0 39 -20 64.5t-67 37t-108 11.5h-49l23 133h47q103 0 158 36.5t55 98.5q0 30 -16.5 53.5t-50 33.5t-72.5 10q-80 0 -147 -25.5t-93 -40.5l23 143q14 8 55 21.5t96.5 22t108.5 8.5 q112 0 174 -31.5t82 -77t20 -86.5q0 -69 -38 -121t-79 -75t-67 -31q50 -16 83.5 -41t49.5 -62t16 -80q0 -61 -25.5 -115t-74 -94.5t-118 -64t-157.5 -23.5q-82 0 -149.5 14t-99 28t-39.5 20z" />
<glyph unicode="&#xb4;" horiz-adv-x="813" d="M385 1141l207 282h244l-246 -282h-205z" />
<glyph unicode="&#xb6;" horiz-adv-x="1229" d="M229 965q0 109 39 194t105.5 143.5t154 89.5t185.5 31h559l-260 -1638h-168l235 1485h-223l-235 -1485h-170l133 840q-92 5 -158.5 33t-110.5 73t-65 105t-21 129z" />
<glyph unicode="&#xb7;" horiz-adv-x="510" d="M221 713q0 -29 11.5 -55t31.5 -45.5t47 -30.5t58 -11q44 0 80 23t51.5 56.5t15.5 62.5q0 41 -24 75t-58.5 50t-64.5 16q-31 0 -58 -11.5t-47 -31t-31.5 -45t-11.5 -53.5z" />
<glyph unicode="&#xb8;" horiz-adv-x="813" d="M150 -375l202 273h238l-236 -273h-204z" />
<glyph unicode="&#xb9;" horiz-adv-x="954" d="M330 629l20 131h168l92 588q-167 -46 -190 -54l20 136l219 75h146l-119 -745h170l-20 -131h-506z" />
<glyph unicode="&#xba;" horiz-adv-x="786" d="M264 1102q0 87 25.5 164t73 134.5t114.5 91.5t150 34q102 0 164.5 -42t83 -106.5t20.5 -128.5q0 -87 -25.5 -164t-72.5 -134.5t-113.5 -91.5t-148.5 -34q-70 0 -121 19.5t-84.5 55.5t-49.5 87t-16 115zM418 1098q0 -47 14.5 -82.5t42.5 -51.5t64 -16q73 0 122 50.5 t64.5 120.5t15.5 132q0 47 -15 84t-43 53.5t-65 16.5q-74 0 -122 -51.5t-63 -122.5t-15 -133z" />
<glyph unicode="&#xbb;" horiz-adv-x="1022" d="M88 111l342 424l-197 399h195l197 -412l-326 -411h-211zM504 111l330 411l-201 412h194l203 -424l-317 -399h-209z" />
<glyph unicode="&#xbc;" horiz-adv-x="2005" d="M301 629l21 131h167l93 588q-12 -3 -39 -10.5t-57.5 -16t-57.5 -16t-39 -11.5l23 136l217 75h145l-117 -745h168l-20 -131h-504zM455 0l1122 1505h203l-1125 -1505h-200zM1126 188l21 134q152 174 265.5 291.5t268.5 263.5h166l-88 -558h92l-20 -131h-94l-29 -188h-162 l31 188h-451zM1309 319h288l60 371q-94 -94 -191 -197.5t-157 -173.5z" />
<glyph unicode="&#xbd;" horiz-adv-x="2005" d="M291 629l20 131h168l92 588q-167 -46 -190 -54l20 136l220 75h145l-119 -745h170l-20 -131h-506zM426 0l1124 1505h201l-1122 -1505h-203zM1182 0l20 133q29 26 120 97.5t157 125.5q79 64 128 110t77 92t28 87q0 37 -14 60.5t-46.5 34t-72.5 10.5q-51 0 -105.5 -17 t-88.5 -35.5t-42 -21.5l25 155q31 14 64.5 26t87.5 22t98 10q110 0 174.5 -32.5t85 -84.5t20.5 -100q0 -60 -25.5 -113t-65.5 -100.5t-89.5 -90t-97.5 -81.5q-24 -19 -49 -39.5t-49 -40t-45 -36t-37 -28.5h401l-22 -143h-637z" />
<glyph unicode="&#xbe;" horiz-adv-x="2005" d="M270 678l60 129q24 -15 60 -27.5t72 -18t79 -5.5q73 0 122 22t69 58.5t20 74.5q0 40 -21.5 65.5t-67 36.5t-106.5 11h-49l20 133h50q102 0 157.5 36.5t55.5 98.5q0 31 -17.5 54t-51 33t-73.5 10q-78 0 -143.5 -25t-93.5 -41l20 143q19 9 57.5 21.5t95 21.5t109.5 9 q112 0 175 -32t81.5 -77t18.5 -86q0 -69 -38 -121t-79 -75t-66 -31q51 -15 84.5 -40.5t49.5 -62.5t16 -80q0 -61 -26 -115t-74.5 -94.5t-118 -64t-156.5 -23.5q-82 0 -149 13.5t-100.5 28.5t-41.5 20zM479 0l1123 1505h200l-1122 -1505h-201zM1133 188l20 134 q152 174 260 285.5t275 269.5h163l-88 -558h95l-21 -131h-94l-29 -188h-162l31 188h-450zM1315 319h289l59 371q-94 -94 -191 -197.5t-157 -173.5z" />
<glyph unicode="&#xbf;" horiz-adv-x="1020" d="M174 274q0 99 37.5 173t93 122t105.5 82q78 55 116.5 91t59.5 80.5t30 97.5l11 65h196l-14 -92q-13 -82 -40.5 -138t-63 -95.5t-76 -67t-80.5 -53.5q-63 -41 -98 -76t-48.5 -74.5t-13.5 -81.5q0 -62 34 -101t81 -49t86 -10q87 0 172.5 28.5t155.5 72.5l-21 -187 q-69 -34 -159.5 -57.5t-198.5 -23.5q-68 0 -133.5 16t-117 51t-83 91t-31.5 136zM621 1309q0 41 24.5 75.5t60 49t64.5 14.5q45 0 81 -24t51.5 -55.5t15.5 -59.5q0 -45 -25 -80.5t-60 -49.5t-63 -14q-43 0 -81 23.5t-53 56.5t-15 64z" />
<glyph unicode="&#xc0;" horiz-adv-x="1217" d="M14 0q92 218 181 409.5t186 381.5t191 357t165 275h191q30 -95 58.5 -208t55 -235.5t50 -250.5t44 -254.5t37 -247t29.5 -227.5h-207q-3 31 -8 73.5t-11 92t-13 103t-13 104.5h-571q-156 -361 -160 -373h-205zM455 539h473q-22 159 -51.5 327t-75.5 355 q-103 -180 -190.5 -355.5t-155.5 -326.5zM570 1810h219l133 -282h-187z" />
<glyph unicode="&#xc1;" horiz-adv-x="1217" d="M14 0q92 218 181 409.5t186 381.5t191 357t165 275h191q30 -95 58.5 -208t55 -235.5t50 -250.5t44 -254.5t37 -247t29.5 -227.5h-207q-3 31 -8 73.5t-11 92t-13 103t-13 104.5h-571q-156 -361 -160 -373h-205zM455 539h473q-22 159 -51.5 327t-75.5 355 q-103 -180 -190.5 -355.5t-155.5 -326.5zM729 1528l207 282h244l-246 -282h-205z" />
<glyph unicode="&#xc2;" horiz-adv-x="1217" d="M14 0q92 218 181 409.5t186 381.5t191 357t165 275h191q30 -95 58.5 -208t55 -235.5t50 -250.5t44 -254.5t37 -247t29.5 -227.5h-207q-3 31 -8 73.5t-11 92t-13 103t-13 104.5h-571q-156 -361 -160 -373h-205zM455 539h473q-22 159 -51.5 327t-75.5 355 q-103 -180 -190.5 -355.5t-155.5 -326.5zM522 1528l273 282h174l182 -282h-186l-99 157l-149 -157h-195z" />
<glyph unicode="&#xc3;" horiz-adv-x="1217" d="M14 0q92 218 181 409.5t186 381.5t191 357t165 275h191q30 -95 58.5 -208t55 -235.5t50 -250.5t44 -254.5t37 -247t29.5 -227.5h-207q-3 31 -8 73.5t-11 92t-13 103t-13 104.5h-571q-156 -361 -160 -373h-205zM455 539h473q-22 159 -51.5 327t-75.5 355 q-103 -180 -190.5 -355.5t-155.5 -326.5zM520 1599q43 106 99.5 150.5t113.5 44.5q40 0 77 -13.5t77 -41.5q43 -29 66 -39t44 -10q28 0 50 19.5t45 76.5l108 -43q-35 -83 -76 -130.5t-78 -58t-67 -10.5q-43 0 -80.5 17t-71.5 38q-71 48 -106 48q-26 0 -49 -20.5t-47 -74.5z " />
<glyph unicode="&#xc4;" horiz-adv-x="1217" d="M14 0q92 218 181 409.5t186 381.5t191 357t165 275h191q30 -95 58.5 -208t55 -235.5t50 -250.5t44 -254.5t37 -247t29.5 -227.5h-207q-3 31 -8 73.5t-11 92t-13 103t-13 104.5h-571q-156 -361 -160 -373h-205zM455 539h473q-22 159 -51.5 327t-75.5 355 q-103 -180 -190.5 -355.5t-155.5 -326.5zM525 1669q0 50 34 83.5t87 33.5q40 0 68 -19.5t41 -46t13 -51.5q0 -36 -21 -64.5t-48.5 -39.5t-52.5 -11q-26 0 -48.5 9t-38.5 25t-25 36.5t-9 44.5zM920 1669q0 37 20.5 66t47.5 40t53 11q42 0 71 -20.5t40.5 -46t11.5 -50.5 q0 -37 -20 -64.5t-48.5 -39t-54.5 -11.5t-48 9t-38 25t-25.5 36.5t-9.5 44.5z" />
<glyph unicode="&#xc5;" horiz-adv-x="1217" d="M14 0q57 140 147 336t186 388t187 356t168 288q-40 29 -65 75.5t-25 100.5q0 69 37.5 124t88 76t96.5 21q69 0 121.5 -36.5t76 -87.5t23.5 -97q0 -60 -29.5 -109.5t-77.5 -78.5q28 -96 54.5 -205.5t50.5 -226.5t46 -238.5t40.5 -240t34.5 -231.5t28 -214h-207 q-3 31 -8 73.5t-11 92t-13 103t-13 104.5h-571q-156 -361 -160 -373h-205zM455 539h473q-22 159 -51.5 327t-75.5 355q-103 -180 -190.5 -355.5t-155.5 -326.5zM721 1544q0 -36 19.5 -67t44.5 -41.5t49 -10.5q35 0 63 20t39.5 47.5t11.5 51.5q0 38 -20 66.5t-45 41.5t-49 13 q-35 0 -64.5 -21.5t-39 -48.5t-9.5 -51z" />
<glyph unicode="&#xc6;" horiz-adv-x="1815" d="M4 0q112 195 234.5 392.5t250.5 389.5q146 214 262.5 370.5t206.5 270.5h959l-27 -170h-602l-63 -405h514l-27 -170h-514l-80 -508h633l-27 -170h-839l63 399h-497q-132 -207 -240 -399h-207zM561 569h414l110 697h-30q-64 -78 -156.5 -203.5t-189.5 -265.5 q-55 -82 -84.5 -128t-39 -60.5t-24.5 -39.5z" />
<glyph unicode="&#xc7;" horiz-adv-x="1155" d="M227 549q0 119 21 231.5t63 212t104.5 182.5t144.5 142.5t184 93t223 33.5q98 0 186.5 -19t136.5 -41l-28 -182q-29 14 -74.5 27t-109 24t-115.5 11q-112 0 -204 -45.5t-154.5 -125.5t-98.5 -181t-46.5 -190.5t-10.5 -168.5q0 -84 18 -155.5t59.5 -123.5t109 -81 t165.5 -29q97 0 168.5 17t111.5 32l52 -166q-65 -26 -162.5 -46.5t-212.5 -20.5q-146 0 -247 43.5t-164 120t-91.5 180.5t-28.5 225zM408 -375l202 273h238l-236 -273h-204z" />
<glyph unicode="&#xc8;" horiz-adv-x="1118" d="M188 0l226 1423h807l-27 -170h-602l-64 -405h514l-26 -170h-514l-82 -508h635l-27 -170h-840zM635 1810h219l133 -282h-187z" />
<glyph unicode="&#xc9;" horiz-adv-x="1118" d="M188 0l226 1423h807l-27 -170h-602l-64 -405h514l-26 -170h-514l-82 -508h635l-27 -170h-840zM713 1528l207 282h244l-246 -282h-205z" />
<glyph unicode="&#xca;" horiz-adv-x="1118" d="M188 0l226 1423h807l-27 -170h-602l-64 -405h514l-26 -170h-514l-82 -508h635l-27 -170h-840zM561 1528l273 282h174l182 -282h-186l-99 157l-149 -157h-195z" />
<glyph unicode="&#xcb;" horiz-adv-x="1118" d="M188 0l226 1423h807l-27 -170h-602l-64 -405h514l-26 -170h-514l-82 -508h635l-27 -170h-840zM518 1669q0 50 34 83.5t87 33.5q40 0 68 -19.5t41 -46t13 -51.5q0 -36 -21 -64.5t-48.5 -39.5t-52.5 -11q-26 0 -48.5 9t-38.5 25t-25 36.5t-9 44.5zM913 1669q0 37 20.5 66 t47.5 40t53 11q42 0 71 -20.5t40.5 -46t11.5 -50.5q0 -37 -20 -64.5t-48.5 -39t-54.5 -11.5t-48 9t-38 25t-25.5 36.5t-9.5 44.5z" />
<glyph unicode="&#xcc;" horiz-adv-x="582" d="M188 0l226 1423h204l-225 -1423h-205zM274 1810h219l133 -282h-187z" />
<glyph unicode="&#xcd;" horiz-adv-x="582" d="M188 0l226 1423h204l-225 -1423h-205zM428 1528l207 282h244l-246 -282h-205z" />
<glyph unicode="&#xce;" horiz-adv-x="582" d="M188 0l226 1423h204l-225 -1423h-205zM216 1528l273 282h174l182 -282h-186l-99 157l-149 -157h-195z" />
<glyph unicode="&#xcf;" horiz-adv-x="582" d="M188 0l226 1423h204l-225 -1423h-205zM225 1669q0 50 34 83.5t87 33.5q40 0 68 -19.5t41 -46t13 -51.5q0 -36 -21 -64.5t-48.5 -39.5t-52.5 -11q-26 0 -48.5 9t-38.5 25t-25 36.5t-9 44.5zM620 1669q0 37 20.5 66t47.5 40t53 11q42 0 71 -20.5t40.5 -46t11.5 -50.5 q0 -37 -20 -64.5t-48.5 -39t-54.5 -11.5t-48 9t-38 25t-25.5 36.5t-9.5 44.5z" />
<glyph unicode="&#xd0;" horiz-adv-x="1356" d="M160 662l22 145h133l99 616h391q153 0 257.5 -42.5t169.5 -116t93.5 -172t28.5 -209.5q0 -190 -48 -351.5t-140.5 -279.5t-227.5 -185t-309 -67h-441l105 662h-133zM420 168h211q118 0 211 51.5t157 144.5t97.5 222.5t33.5 285.5q0 75 -16 144.5t-54.5 122.5t-102.5 84.5 t-160 31.5h-205l-70 -448h256l-22 -145h-256z" />
<glyph unicode="&#xd1;" horiz-adv-x="1370" d="M188 0l226 1423h196q100 -190 215.5 -471.5t221.5 -584.5l167 1056h193l-225 -1423h-183q-48 142 -98 286.5t-103.5 290t-112 290.5t-122.5 288l-182 -1155h-193zM606 1599q43 106 99.5 150.5t113.5 44.5q40 0 77 -13.5t77 -41.5q43 -29 66 -39t44 -10q28 0 50 19.5 t45 76.5l108 -43q-35 -83 -76 -130.5t-78 -58t-67 -10.5q-43 0 -80.5 17t-71.5 38q-71 48 -106 48q-26 0 -49 -20.5t-47 -74.5z" />
<glyph unicode="&#xd2;" horiz-adv-x="1405" d="M225 516q0 131 22 251.5t63.5 224.5t102.5 188.5t138.5 145t170.5 93.5t200 33q132 0 224 -45t149.5 -120.5t83.5 -173.5t26 -204q0 -211 -56 -392t-159 -309.5t-229.5 -182.5t-251.5 -54q-132 0 -224.5 45.5t-150 121t-83.5 174t-26 204.5zM444 506q0 -38 4 -79.5 t14.5 -82t30 -77.5t49.5 -65t72.5 -44.5t100.5 -16.5q107 0 194 60t148 165t94 247t33 305q0 62 -9 114.5t-29.5 102t-59.5 85.5t-82 49t-91 13q-107 0 -193.5 -60t-147.5 -165t-94.5 -246.5t-33.5 -304.5zM727 1810h219l133 -282h-187z" />
<glyph unicode="&#xd3;" horiz-adv-x="1405" d="M225 516q0 131 22 251.5t63.5 224.5t102.5 188.5t138.5 145t170.5 93.5t200 33q132 0 224 -45t149.5 -120.5t83.5 -173.5t26 -204q0 -211 -56 -392t-159 -309.5t-229.5 -182.5t-251.5 -54q-132 0 -224.5 45.5t-150 121t-83.5 174t-26 204.5zM444 506q0 -38 4 -79.5 t14.5 -82t30 -77.5t49.5 -65t72.5 -44.5t100.5 -16.5q107 0 194 60t148 165t94 247t33 305q0 62 -9 114.5t-29.5 102t-59.5 85.5t-82 49t-91 13q-107 0 -193.5 -60t-147.5 -165t-94.5 -246.5t-33.5 -304.5zM825 1528l207 282h244l-246 -282h-205z" />
<glyph unicode="&#xd4;" horiz-adv-x="1405" d="M225 516q0 131 22 251.5t63.5 224.5t102.5 188.5t138.5 145t170.5 93.5t200 33q132 0 224 -45t149.5 -120.5t83.5 -173.5t26 -204q0 -211 -56 -392t-159 -309.5t-229.5 -182.5t-251.5 -54q-132 0 -224.5 45.5t-150 121t-83.5 174t-26 204.5zM444 506q0 -38 4 -79.5 t14.5 -82t30 -77.5t49.5 -65t72.5 -44.5t100.5 -16.5q107 0 194 60t148 165t94 247t33 305q0 62 -9 114.5t-29.5 102t-59.5 85.5t-82 49t-91 13q-107 0 -193.5 -60t-147.5 -165t-94.5 -246.5t-33.5 -304.5zM649 1528l273 282h174l182 -282h-186l-99 157l-149 -157h-195z" />
<glyph unicode="&#xd5;" horiz-adv-x="1405" d="M225 516q0 131 22 251.5t63.5 224.5t102.5 188.5t138.5 145t170.5 93.5t200 33q132 0 224 -45t149.5 -120.5t83.5 -173.5t26 -204q0 -211 -56 -392t-159 -309.5t-229.5 -182.5t-251.5 -54q-132 0 -224.5 45.5t-150 121t-83.5 174t-26 204.5zM444 506q0 -38 4 -79.5 t14.5 -82t30 -77.5t49.5 -65t72.5 -44.5t100.5 -16.5q107 0 194 60t148 165t94 247t33 305q0 62 -9 114.5t-29.5 102t-59.5 85.5t-82 49t-91 13q-107 0 -193.5 -60t-147.5 -165t-94.5 -246.5t-33.5 -304.5zM628 1599q43 106 99.5 150.5t113.5 44.5q40 0 77 -13.5t77 -41.5 q43 -29 66 -39t44 -10q28 0 50 19.5t45 76.5l108 -43q-35 -83 -76 -130.5t-78 -58t-67 -10.5q-43 0 -80.5 17t-71.5 38q-71 48 -106 48q-26 0 -49 -20.5t-47 -74.5z" />
<glyph unicode="&#xd6;" horiz-adv-x="1405" d="M225 516q0 131 22 251.5t63.5 224.5t102.5 188.5t138.5 145t170.5 93.5t200 33q132 0 224 -45t149.5 -120.5t83.5 -173.5t26 -204q0 -211 -56 -392t-159 -309.5t-229.5 -182.5t-251.5 -54q-132 0 -224.5 45.5t-150 121t-83.5 174t-26 204.5zM444 506q0 -38 4 -79.5 t14.5 -82t30 -77.5t49.5 -65t72.5 -44.5t100.5 -16.5q107 0 194 60t148 165t94 247t33 305q0 62 -9 114.5t-29.5 102t-59.5 85.5t-82 49t-91 13q-107 0 -193.5 -60t-147.5 -165t-94.5 -246.5t-33.5 -304.5zM656 1669q0 50 34 83.5t87 33.5q40 0 68 -19.5t41 -46t13 -51.5 q0 -36 -21 -64.5t-48.5 -39.5t-52.5 -11q-26 0 -48.5 9t-38.5 25t-25 36.5t-9 44.5zM1051 1669q0 37 20.5 66t47.5 40t53 11q42 0 71 -20.5t40.5 -46t11.5 -50.5q0 -37 -20 -64.5t-48.5 -39t-54.5 -11.5t-48 9t-38 25t-25.5 36.5t-9.5 44.5z" />
<glyph unicode="&#xd7;" d="M217 430l340 291l-235 278l135 119l233 -282l330 286l117 -137l-334 -285l235 -278l-135 -119l-233 283l-336 -291z" />
<glyph unicode="&#xd8;" horiz-adv-x="1409" d="M190 -68l144 207q-57 76 -83 173.5t-26 203.5q0 131 22 251.5t63.5 224.5t102.5 188.5t138.5 145t170.5 93.5t200 33q83 0 150.5 -19t121.5 -53l133 193l117 -74l-148 -215q57 -75 83 -172t26 -203q0 -211 -56 -392t-159 -309.5t-229.5 -182.5t-251.5 -54 q-84 0 -151.5 19t-121.5 53l-127 -184zM444 506q0 -40 5.5 -84.5t19.5 -87.5l616 889q-31 28 -72 43.5t-100 15.5q-107 0 -193.5 -60t-147.5 -165t-94.5 -246.5t-33.5 -304.5zM545 201q31 -28 72 -44t98 -16q107 0 194 60t148 165t94 247t33 305q0 40 -4.5 85t-18.5 89z" />
<glyph unicode="&#xd9;" horiz-adv-x="1343" d="M248 362v39q0 60 14 150l139 872h205l-143 -909q-10 -64 -10 -117q0 -63 17.5 -108.5t49.5 -75t77.5 -43.5t102.5 -14q103 0 175.5 40.5t110 120t52.5 172.5l148 934h207l-154 -960q-21 -129 -69.5 -221.5t-120.5 -151.5t-165 -87t-202 -28q-95 0 -175 23.5t-137.5 71.5 t-89.5 121t-32 171zM670 1810h219l133 -282h-187z" />
<glyph unicode="&#xda;" horiz-adv-x="1343" d="M248 362v39q0 60 14 150l139 872h205l-143 -909q-10 -64 -10 -117q0 -63 17.5 -108.5t49.5 -75t77.5 -43.5t102.5 -14q103 0 175.5 40.5t110 120t52.5 172.5l148 934h207l-154 -960q-21 -129 -69.5 -221.5t-120.5 -151.5t-165 -87t-202 -28q-95 0 -175 23.5t-137.5 71.5 t-89.5 121t-32 171zM778 1528l207 282h244l-246 -282h-205z" />
<glyph unicode="&#xdb;" horiz-adv-x="1343" d="M248 362v39q0 60 14 150l139 872h205l-143 -909q-10 -64 -10 -117q0 -63 17.5 -108.5t49.5 -75t77.5 -43.5t102.5 -14q103 0 175.5 40.5t110 120t52.5 172.5l148 934h207l-154 -960q-21 -129 -69.5 -221.5t-120.5 -151.5t-165 -87t-202 -28q-95 0 -175 23.5t-137.5 71.5 t-89.5 121t-32 171zM583 1528l273 282h174l182 -282h-186l-99 157l-149 -157h-195z" />
<glyph unicode="&#xdc;" horiz-adv-x="1343" d="M248 362v39q0 60 14 150l139 872h205l-143 -909q-10 -64 -10 -117q0 -63 17.5 -108.5t49.5 -75t77.5 -43.5t102.5 -14q103 0 175.5 40.5t110 120t52.5 172.5l148 934h207l-154 -960q-21 -129 -69.5 -221.5t-120.5 -151.5t-165 -87t-202 -28q-95 0 -175 23.5t-137.5 71.5 t-89.5 121t-32 171zM600 1669q0 50 34 83.5t87 33.5q40 0 68 -19.5t41 -46t13 -51.5q0 -36 -21 -64.5t-48.5 -39.5t-52.5 -11q-26 0 -48.5 9t-38.5 25t-25 36.5t-9 44.5zM995 1669q0 37 20.5 66t47.5 40t53 11q42 0 71 -20.5t40.5 -46t11.5 -50.5q0 -37 -20 -64.5t-48.5 -39 t-54.5 -11.5t-48 9t-38 25t-25.5 36.5t-9.5 44.5z" />
<glyph unicode="&#xdd;" horiz-adv-x="1165" d="M240 1423h200q39 -109 102.5 -263t164.5 -347q163 189 274 345t182 265h215q-93 -147 -211 -308.5t-213.5 -276.5t-165.5 -193l-102 -645h-207l103 645q-67 114 -139 266.5t-122 281.5t-81 230zM704 1528l207 282h244l-246 -282h-205z" />
<glyph unicode="&#xde;" horiz-adv-x="1174" d="M188 0l226 1423h198l-34 -231h221q158 0 253.5 -52.5t125.5 -133t30 -154.5q0 -107 -35 -200.5t-104 -163.5t-171 -110t-236 -40h-220l-55 -338h-199zM467 504h184q118 0 199 47t111 123t30 157q0 69 -31 114.5t-90 63t-129 17.5h-190z" />
<glyph unicode="&#xdf;" horiz-adv-x="1219" d="M-53 -252q65 37 111 83t79.5 123.5t48.5 170.5l158 995q15 90 47 162t92.5 131t148 86t183.5 27q102 0 168 -23t105 -59t54 -80t15 -86q0 -62 -19 -108.5t-47.5 -81.5t-61.5 -62t-62 -51q-70 -58 -86.5 -73t-26.5 -36.5t-10 -42.5q0 -41 24 -64t133 -100q43 -30 76 -58.5 t55.5 -63.5t34 -80t11.5 -107q0 -83 -33.5 -151t-90.5 -117t-132.5 -75.5t-159.5 -26.5q-59 0 -103 6t-77 15t-57 20t-42 22l64 137q21 -14 70.5 -29.5t123.5 -15.5q71 0 124 29.5t77.5 78t24.5 97.5q0 44 -16 78.5t-50.5 66.5t-77.5 62q-43 28 -78.5 54.5t-61 55t-40 61.5 t-14.5 75q0 56 23.5 103t59 82.5t66.5 61.5q35 29 66 53t53.5 48t35.5 51.5t13 64.5q0 39 -19 67.5t-57 42t-84 13.5q-57 0 -99 -20t-71 -56t-46.5 -84.5t-26.5 -105.5l-166 -1032q-16 -99 -54 -179.5t-87 -133t-96.5 -83t-79.5 -44t-48 -19.5z" />
<glyph unicode="&#xe0;" horiz-adv-x="1174" d="M195 385q0 150 40 274t108.5 212.5t160 137t194.5 48.5q67 0 124 -20.5t88.5 -48t45.5 -48.5l21 96h190l-110 -698q-15 -84 -15 -139q0 -41 8 -86t17 -73.5t14 -39.5h-202q-14 28 -21.5 79t-7.5 60q-40 -56 -101.5 -95t-118 -51.5t-102.5 -12.5q-71 0 -132 23 t-105.5 72.5t-70 126t-25.5 183.5zM410 395q0 -60 10.5 -107.5t33 -80.5t59 -50.5t87.5 -17.5q80 0 143 52t93.5 129.5t42.5 150.5l49 322q-25 30 -49 49t-64 33t-82 14q-71 0 -130 -37t-102 -102.5t-67 -156t-24 -198.5zM613 1423h219l133 -282h-187z" />
<glyph unicode="&#xe1;" horiz-adv-x="1174" d="M195 385q0 150 40 274t108.5 212.5t160 137t194.5 48.5q67 0 124 -20.5t88.5 -48t45.5 -48.5l21 96h190l-110 -698q-15 -84 -15 -139q0 -41 8 -86t17 -73.5t14 -39.5h-202q-14 28 -21.5 79t-7.5 60q-40 -56 -101.5 -95t-118 -51.5t-102.5 -12.5q-71 0 -132 23 t-105.5 72.5t-70 126t-25.5 183.5zM410 395q0 -60 10.5 -107.5t33 -80.5t59 -50.5t87.5 -17.5q80 0 143 52t93.5 129.5t42.5 150.5l49 322q-25 30 -49 49t-64 33t-82 14q-71 0 -130 -37t-102 -102.5t-67 -156t-24 -198.5zM657 1141l207 282h244l-246 -282h-205z" />
<glyph unicode="&#xe2;" horiz-adv-x="1174" d="M195 385q0 150 40 274t108.5 212.5t160 137t194.5 48.5q67 0 124 -20.5t88.5 -48t45.5 -48.5l21 96h190l-110 -698q-15 -84 -15 -139q0 -41 8 -86t17 -73.5t14 -39.5h-202q-14 28 -21.5 79t-7.5 60q-40 -56 -101.5 -95t-118 -51.5t-102.5 -12.5q-71 0 -132 23 t-105.5 72.5t-70 126t-25.5 183.5zM410 395q0 -60 10.5 -107.5t33 -80.5t59 -50.5t87.5 -17.5q80 0 143 52t93.5 129.5t42.5 150.5l49 322q-25 30 -49 49t-64 33t-82 14q-71 0 -130 -37t-102 -102.5t-67 -156t-24 -198.5zM475 1141l273 282h174l182 -282h-186l-99 157 l-149 -157h-195z" />
<glyph unicode="&#xe3;" horiz-adv-x="1174" d="M195 385q0 150 40 274t108.5 212.5t160 137t194.5 48.5q67 0 124 -20.5t88.5 -48t45.5 -48.5l21 96h190l-110 -698q-15 -84 -15 -139q0 -41 8 -86t17 -73.5t14 -39.5h-202q-14 28 -21.5 79t-7.5 60q-40 -56 -101.5 -95t-118 -51.5t-102.5 -12.5q-71 0 -132 23 t-105.5 72.5t-70 126t-25.5 183.5zM410 395q0 -60 10.5 -107.5t33 -80.5t59 -50.5t87.5 -17.5q80 0 143 52t93.5 129.5t42.5 150.5l49 322q-25 30 -49 49t-64 33t-82 14q-71 0 -130 -37t-102 -102.5t-67 -156t-24 -198.5zM450 1212q43 106 99.5 150.5t113.5 44.5 q40 0 77 -13.5t77 -41.5q43 -29 66 -39t44 -10q28 0 50 19.5t45 76.5l108 -43q-35 -83 -76 -130.5t-78 -58t-67 -10.5q-43 0 -80.5 17t-71.5 38q-71 48 -106 48q-26 0 -49 -20.5t-47 -74.5z" />
<glyph unicode="&#xe4;" horiz-adv-x="1174" d="M195 385q0 150 40 274t108.5 212.5t160 137t194.5 48.5q67 0 124 -20.5t88.5 -48t45.5 -48.5l21 96h190l-110 -698q-15 -84 -15 -139q0 -41 8 -86t17 -73.5t14 -39.5h-202q-14 28 -21.5 79t-7.5 60q-40 -56 -101.5 -95t-118 -51.5t-102.5 -12.5q-71 0 -132 23 t-105.5 72.5t-70 126t-25.5 183.5zM410 395q0 -60 10.5 -107.5t33 -80.5t59 -50.5t87.5 -17.5q80 0 143 52t93.5 129.5t42.5 150.5l49 322q-25 30 -49 49t-64 33t-82 14q-71 0 -130 -37t-102 -102.5t-67 -156t-24 -198.5zM490 1282q0 50 34 83.5t87 33.5q40 0 68 -19.5 t41 -46t13 -51.5q0 -36 -21 -64.5t-48.5 -39.5t-52.5 -11q-26 0 -48.5 9t-38.5 25t-25 36.5t-9 44.5zM885 1282q0 37 20.5 66t47.5 40t53 11q42 0 71 -20.5t40.5 -46t11.5 -50.5q0 -37 -20 -64.5t-48.5 -39t-54.5 -11.5t-48 9t-38 25t-25.5 36.5t-9.5 44.5z" />
<glyph unicode="&#xe5;" horiz-adv-x="1174" d="M195 385q0 150 40 274t108.5 212.5t160 137t194.5 48.5q67 0 124 -20.5t88.5 -48t45.5 -48.5l21 96h190l-110 -698q-15 -84 -15 -139q0 -41 8 -86t17 -73.5t14 -39.5h-202q-14 28 -21.5 79t-7.5 60q-40 -56 -101.5 -95t-118 -51.5t-102.5 -12.5q-71 0 -132 23 t-105.5 72.5t-70 126t-25.5 183.5zM410 395q0 -60 10.5 -107.5t33 -80.5t59 -50.5t87.5 -17.5q80 0 143 52t93.5 129.5t42.5 150.5l49 322q-25 30 -49 49t-64 33t-82 14q-71 0 -130 -37t-102 -102.5t-67 -156t-24 -198.5zM596 1362q0 69 37.5 123.5t88 76t96.5 21.5 q70 0 123.5 -37t76.5 -87.5t23 -96.5q0 -70 -37.5 -124t-89 -75.5t-96.5 -21.5t-85.5 17t-71 47t-48 70.5t-17.5 86.5zM705 1362q0 -36 19.5 -67t44.5 -41.5t49 -10.5q35 0 63 20t39.5 47.5t11.5 51.5q0 36 -19.5 65.5t-45 42.5t-49.5 13q-35 0 -63.5 -21t-39 -48.5 t-10.5 -51.5z" />
<glyph unicode="&#xe6;" horiz-adv-x="1753" d="M195 385q0 150 40 274t109 212.5t160.5 137t195.5 48.5q74 0 131 -22t91.5 -51t50.5 -50l22 102h166l-20 -114q40 45 94.5 78t113 47t111.5 14q96 0 170 -36t108 -100.5t34 -138.5q0 -71 -30.5 -142t-106 -127.5t-203.5 -92t-322 -35.5h-31q0 -91 40 -152.5t98.5 -80.5 t111.5 -19q35 0 89 6.5t94 19t67 25.5l53 -153q-53 -20 -105.5 -32t-109 -20t-100.5 -8q-123 0 -208 33.5t-125 81t-60 92.5q-42 -67 -101.5 -114.5t-134 -67.5t-147.5 -20q-76 0 -139.5 23t-109.5 72.5t-71.5 126t-25.5 183.5zM410 395q0 -123 44 -189.5t148 -66.5 q79 0 141 51.5t93 129.5t43 151l51 322q-21 25 -48 46.5t-67 35.5t-82 14q-71 0 -130 -37t-102 -102.5t-67 -156t-24 -198.5zM1087 541h31q153 0 248.5 25t143 67.5t57.5 79.5t10 69q0 66 -38.5 102t-117.5 36q-47 0 -99 -21.5t-99 -67.5t-83.5 -118t-52.5 -172z" />
<glyph unicode="&#xe7;" horiz-adv-x="922" d="M197 412q0 137 39.5 254.5t113.5 203.5t178.5 134.5t235.5 48.5q99 0 231 -33l-26 -170q-12 4 -44.5 13t-75 14.5t-79.5 5.5q-102 0 -174 -45t-113.5 -118.5t-57 -150.5t-15.5 -147q0 -125 58 -196.5t181 -71.5q40 0 95 8.5t80.5 19t35.5 15.5l53 -156 q-45 -19 -120.5 -38t-188.5 -19q-111 0 -188.5 34t-126 92.5t-70.5 136.5t-22 165zM269 -375l202 273h238l-236 -273h-204z" />
<glyph unicode="&#xe8;" horiz-adv-x="1071" d="M195 410q0 100 26.5 200t83.5 193t137 153t160.5 82.5t161.5 22.5q103 0 180.5 -36t111.5 -100.5t34 -138.5q0 -71 -30.5 -142t-106 -127.5t-203.5 -92t-322 -35.5h-31q0 -91 40 -152.5t98 -80.5t112 -19q35 0 89 6.5t94 19t67 25.5l53 -153q-53 -20 -105.5 -32t-109 -20 t-100.5 -8q-123 0 -207 33t-136 91.5t-74.5 138t-22.5 172.5zM406 541h30q153 0 248.5 25t142.5 67t57.5 81.5t10.5 67.5q0 66 -38.5 102t-117.5 36q-47 0 -99 -21.5t-98.5 -67.5t-83 -118t-52.5 -172zM553 1423h219l133 -282h-187z" />
<glyph unicode="&#xe9;" horiz-adv-x="1071" d="M195 410q0 100 26.5 200t83.5 193t137 153t160.5 82.5t161.5 22.5q103 0 180.5 -36t111.5 -100.5t34 -138.5q0 -71 -30.5 -142t-106 -127.5t-203.5 -92t-322 -35.5h-31q0 -91 40 -152.5t98 -80.5t112 -19q35 0 89 6.5t94 19t67 25.5l53 -153q-53 -20 -105.5 -32t-109 -20 t-100.5 -8q-123 0 -207 33t-136 91.5t-74.5 138t-22.5 172.5zM406 541h30q153 0 248.5 25t142.5 67t57.5 81.5t10.5 67.5q0 66 -38.5 102t-117.5 36q-47 0 -99 -21.5t-98.5 -67.5t-83 -118t-52.5 -172zM635 1141l207 282h244l-246 -282h-205z" />
<glyph unicode="&#xea;" horiz-adv-x="1071" d="M195 410q0 100 26.5 200t83.5 193t137 153t160.5 82.5t161.5 22.5q103 0 180.5 -36t111.5 -100.5t34 -138.5q0 -71 -30.5 -142t-106 -127.5t-203.5 -92t-322 -35.5h-31q0 -91 40 -152.5t98 -80.5t112 -19q35 0 89 6.5t94 19t67 25.5l53 -153q-53 -20 -105.5 -32t-109 -20 t-100.5 -8q-123 0 -207 33t-136 91.5t-74.5 138t-22.5 172.5zM406 541h30q153 0 248.5 25t142.5 67t57.5 81.5t10.5 67.5q0 66 -38.5 102t-117.5 36q-47 0 -99 -21.5t-98.5 -67.5t-83 -118t-52.5 -172zM452 1141l273 282h174l182 -282h-186l-99 157l-149 -157h-195z" />
<glyph unicode="&#xeb;" horiz-adv-x="1071" d="M195 410q0 100 26.5 200t83.5 193t137 153t160.5 82.5t161.5 22.5q103 0 180.5 -36t111.5 -100.5t34 -138.5q0 -71 -30.5 -142t-106 -127.5t-203.5 -92t-322 -35.5h-31q0 -91 40 -152.5t98 -80.5t112 -19q35 0 89 6.5t94 19t67 25.5l53 -153q-53 -20 -105.5 -32t-109 -20 t-100.5 -8q-123 0 -207 33t-136 91.5t-74.5 138t-22.5 172.5zM406 541h30q153 0 248.5 25t142.5 67t57.5 81.5t10.5 67.5q0 66 -38.5 102t-117.5 36q-47 0 -99 -21.5t-98.5 -67.5t-83 -118t-52.5 -172zM465 1282q0 50 34 83.5t87 33.5q40 0 68 -19.5t41 -46t13 -51.5 q0 -36 -21 -64.5t-48.5 -39.5t-52.5 -11q-26 0 -48.5 9t-38.5 25t-25 36.5t-9 44.5zM860 1282q0 37 20.5 66t47.5 40t53 11q42 0 71 -20.5t40.5 -46t11.5 -50.5q0 -37 -20 -64.5t-48.5 -39t-54.5 -11.5t-48 9t-38 25t-25.5 36.5t-9.5 44.5z" />
<glyph unicode="&#xec;" horiz-adv-x="580" d="M201 0l141 889q-12 2 -28 4.5t-33 4.5t-34 3.5t-32 3.5l21 131h327l-164 -1036h-198zM212 1423h219l133 -282h-187z" />
<glyph unicode="&#xed;" horiz-adv-x="580" d="M201 0l141 889q-12 2 -28 4.5t-33 4.5t-34 3.5t-32 3.5l21 131h327l-164 -1036h-198zM355 1141l207 282h244l-246 -282h-205z" />
<glyph unicode="&#xee;" horiz-adv-x="580" d="M117 1141l273 282h174l182 -282h-186l-99 157l-149 -157h-195zM201 0l141 889q-12 2 -28 4.5t-33 4.5t-34 3.5t-32 3.5l21 131h327l-164 -1036h-198z" />
<glyph unicode="&#xef;" horiz-adv-x="580" d="M122 1282q0 50 34 83.5t87 33.5q40 0 68 -19.5t41 -46t13 -51.5q0 -36 -21 -64.5t-48.5 -39.5t-52.5 -11q-26 0 -48.5 9t-38.5 25t-25 36.5t-9 44.5zM201 0l141 889q-12 2 -28 4.5t-33 4.5t-34 3.5t-32 3.5l21 131h327l-164 -1036h-198zM517 1282q0 37 20.5 66t47.5 40 t53 11q42 0 71 -20.5t40.5 -46t11.5 -50.5q0 -37 -20 -64.5t-48.5 -39t-54.5 -11.5t-48 9t-38 25t-25.5 36.5t-9.5 44.5z" />
<glyph unicode="&#xf0;" horiz-adv-x="1174" d="M193 381q0 136 38.5 249t105 193.5t155 125t188.5 44.5q54 0 95 -10t71.5 -25t50 -32.5t29.5 -32.5q-11 67 -33 129t-55.5 117.5t-73.5 99.5l-146 -123l-75 90l133 113q-58 46 -141 86l63 121q60 -22 112 -47t95 -56l123 103l78 -90l-107 -88q81 -77 128 -165t71.5 -176 t31.5 -169.5t7 -145.5q0 -171 -42 -304.5t-116 -225t-174 -139.5t-217 -48q-102 0 -176 29.5t-123 83.5t-72.5 128.5t-23.5 164.5zM406 377q0 -45 7.5 -89t28.5 -79t59 -56.5t99 -21.5q81 0 139.5 40.5t96 106.5t55.5 150.5t18 171.5q0 74 -22 128.5t-68.5 82t-107.5 27.5 q-80 0 -137.5 -40.5t-95 -105.5t-55 -148t-17.5 -167z" />
<glyph unicode="&#xf1;" horiz-adv-x="1159" d="M168 0l164 1036h188l-14 -139q41 54 97 92t115.5 53t115.5 15q99 0 165 -39t89.5 -98.5t23.5 -114.5q0 -102 -14 -182l-101 -623h-198l92 575q8 45 13 93t5 80q0 66 -37 102.5t-118 36.5q-53 0 -102 -23.5t-88.5 -63.5t-66.5 -93t-36 -111l-94 -596h-199zM456 1212 q43 106 99.5 150.5t113.5 44.5q40 0 77 -13.5t77 -41.5q43 -29 66 -39t44 -10q28 0 50 19.5t45 76.5l108 -43q-35 -83 -76 -130.5t-78 -58t-67 -10.5q-43 0 -80.5 17t-71.5 38q-71 48 -106 48q-26 0 -49 -20.5t-47 -74.5z" />
<glyph unicode="&#xf2;" horiz-adv-x="1155" d="M195 395q0 144 41 266t113.5 211t172.5 139t217 50q101 0 174.5 -31.5t121.5 -87t71.5 -133t23.5 -168.5q0 -144 -41 -266.5t-113.5 -211t-172.5 -138.5t-217 -50q-101 0 -174.5 31.5t-121.5 87.5t-71.5 133t-23.5 168zM408 381q0 -42 7 -86t28 -80t58.5 -59t98.5 -23 q81 0 141 44t99.5 117t58.5 167t19 194q0 76 -20.5 133.5t-67 86t-107.5 28.5q-81 0 -140 -44t-98 -117t-58 -167t-19 -194zM572 1423h219l133 -282h-187z" />
<glyph unicode="&#xf3;" horiz-adv-x="1155" d="M195 395q0 144 41 266t113.5 211t172.5 139t217 50q101 0 174.5 -31.5t121.5 -87t71.5 -133t23.5 -168.5q0 -144 -41 -266.5t-113.5 -211t-172.5 -138.5t-217 -50q-101 0 -174.5 31.5t-121.5 87.5t-71.5 133t-23.5 168zM408 381q0 -42 7 -86t28 -80t58.5 -59t98.5 -23 q81 0 141 44t99.5 117t58.5 167t19 194q0 76 -20.5 133.5t-67 86t-107.5 28.5q-81 0 -140 -44t-98 -117t-58 -167t-19 -194zM635 1141l207 282h244l-246 -282h-205z" />
<glyph unicode="&#xf4;" horiz-adv-x="1155" d="M195 395q0 144 41 266t113.5 211t172.5 139t217 50q101 0 174.5 -31.5t121.5 -87t71.5 -133t23.5 -168.5q0 -144 -41 -266.5t-113.5 -211t-172.5 -138.5t-217 -50q-101 0 -174.5 31.5t-121.5 87.5t-71.5 133t-23.5 168zM408 381q0 -42 7 -86t28 -80t58.5 -59t98.5 -23 q81 0 141 44t99.5 117t58.5 167t19 194q0 76 -20.5 133.5t-67 86t-107.5 28.5q-81 0 -140 -44t-98 -117t-58 -167t-19 -194zM465 1141l273 282h174l182 -282h-186l-99 157l-149 -157h-195z" />
<glyph unicode="&#xf5;" horiz-adv-x="1155" d="M195 395q0 144 41 266t113.5 211t172.5 139t217 50q101 0 174.5 -31.5t121.5 -87t71.5 -133t23.5 -168.5q0 -144 -41 -266.5t-113.5 -211t-172.5 -138.5t-217 -50q-101 0 -174.5 31.5t-121.5 87.5t-71.5 133t-23.5 168zM408 381q0 -42 7 -86t28 -80t58.5 -59t98.5 -23 q81 0 141 44t99.5 117t58.5 167t19 194q0 76 -20.5 133.5t-67 86t-107.5 28.5q-81 0 -140 -44t-98 -117t-58 -167t-19 -194zM442 1212q43 106 99.5 150.5t113.5 44.5q40 0 77 -13.5t77 -41.5q43 -29 66 -39t44 -10q28 0 50 19.5t45 76.5l108 -43q-35 -83 -76 -130.5t-78 -58 t-67 -10.5q-43 0 -80.5 17t-71.5 38q-71 48 -106 48q-26 0 -49 -20.5t-47 -74.5z" />
<glyph unicode="&#xf6;" horiz-adv-x="1155" d="M195 395q0 144 41 266t113.5 211t172.5 139t217 50q101 0 174.5 -31.5t121.5 -87t71.5 -133t23.5 -168.5q0 -144 -41 -266.5t-113.5 -211t-172.5 -138.5t-217 -50q-101 0 -174.5 31.5t-121.5 87.5t-71.5 133t-23.5 168zM408 381q0 -42 7 -86t28 -80t58.5 -59t98.5 -23 q81 0 141 44t99.5 117t58.5 167t19 194q0 76 -20.5 133.5t-67 86t-107.5 28.5q-81 0 -140 -44t-98 -117t-58 -167t-19 -194zM467 1282q0 50 34 83.5t87 33.5q40 0 68 -19.5t41 -46t13 -51.5q0 -36 -21 -64.5t-48.5 -39.5t-52.5 -11q-26 0 -48.5 9t-38.5 25t-25 36.5t-9 44.5 zM862 1282q0 37 20.5 66t47.5 40t53 11q42 0 71 -20.5t40.5 -46t11.5 -50.5q0 -37 -20 -64.5t-48.5 -39t-54.5 -11.5t-48 9t-38 25t-25.5 36.5t-9.5 44.5z" />
<glyph unicode="&#xf7;" d="M195 627l28 176h971l-29 -176h-970zM498 356q0 39 23.5 73.5t56 48.5t61.5 14q43 0 77 -22.5t49 -54.5t15 -59q0 -40 -24 -73t-56.5 -46.5t-60.5 -13.5q-42 0 -77.5 22.5t-49.5 53.5t-14 57zM610 1071q0 40 23.5 73.5t55.5 47.5t61 14q42 0 77 -23t49.5 -54t14.5 -58 q0 -41 -24.5 -73.5t-56 -46t-60.5 -13.5q-39 0 -75.5 22t-50.5 53.5t-14 57.5z" />
<glyph unicode="&#xf8;" horiz-adv-x="1155" d="M174 -51l111 151q-47 56 -68.5 130.5t-21.5 164.5q0 144 41 266t113.5 211t172.5 139t217 50q65 0 118 -14t95 -37l109 147l90 -65l-113 -154q47 -56 69.5 -131t22.5 -166q0 -144 -41 -266.5t-113.5 -211t-172.5 -138.5t-217 -50q-65 0 -119.5 14.5t-97.5 39.5l-105 -144 zM406 379q0 -23 3 -48t11 -48l426 583q-22 19 -51.5 29t-71.5 10q-81 0 -140.5 -44.5t-98.5 -118t-58.5 -168.5t-19.5 -195zM475 172q23 -19 52.5 -30t72.5 -11q81 0 141.5 44.5t100 118t59 167.5t19.5 194q0 26 -3.5 53t-11.5 50z" />
<glyph unicode="&#xf9;" horiz-adv-x="1159" d="M209 231q0 76 18 183l97 622h198l-90 -575q-10 -57 -14 -104t-4 -70q0 -66 37 -103t118 -37q53 0 102 23.5t88.5 63.5t66.5 93t36 111l94 598h199l-166 -1036h-186l14 139q-52 -71 -133.5 -115t-194.5 -44q-69 0 -121.5 18.5t-87.5 52t-53 79.5t-18 101zM519 1423h219 l133 -282h-187z" />
<glyph unicode="&#xfa;" horiz-adv-x="1159" d="M209 231q0 76 18 183l97 622h198l-90 -575q-10 -57 -14 -104t-4 -70q0 -66 37 -103t118 -37q53 0 102 23.5t88.5 63.5t66.5 93t36 111l94 598h199l-166 -1036h-186l14 139q-52 -71 -133.5 -115t-194.5 -44q-69 0 -121.5 18.5t-87.5 52t-53 79.5t-18 101zM649 1141 l207 282h244l-246 -282h-205z" />
<glyph unicode="&#xfb;" horiz-adv-x="1159" d="M209 231q0 76 18 183l97 622h198l-90 -575q-10 -57 -14 -104t-4 -70q0 -66 37 -103t118 -37q53 0 102 23.5t88.5 63.5t66.5 93t36 111l94 598h199l-166 -1036h-186l14 139q-52 -71 -133.5 -115t-194.5 -44q-69 0 -121.5 18.5t-87.5 52t-53 79.5t-18 101zM422 1141 l273 282h174l182 -282h-186l-99 157l-149 -157h-195z" />
<glyph unicode="&#xfc;" horiz-adv-x="1159" d="M209 231q0 76 18 183l97 622h198l-90 -575q-10 -57 -14 -104t-4 -70q0 -66 37 -103t118 -37q53 0 102 23.5t88.5 63.5t66.5 93t36 111l94 598h199l-166 -1036h-186l14 139q-52 -71 -133.5 -115t-194.5 -44q-69 0 -121.5 18.5t-87.5 52t-53 79.5t-18 101zM447 1282 q0 50 34 83.5t87 33.5q40 0 68 -19.5t41 -46t13 -51.5q0 -36 -21 -64.5t-48.5 -39.5t-52.5 -11q-26 0 -48.5 9t-38.5 25t-25 36.5t-9 44.5zM842 1282q0 37 20.5 66t47.5 40t53 11q42 0 71 -20.5t40.5 -46t11.5 -50.5q0 -37 -20 -64.5t-48.5 -39t-54.5 -11.5t-48 9t-38 25 t-25.5 36.5t-9.5 44.5z" />
<glyph unicode="&#xfd;" horiz-adv-x="1008" d="M-84 -387l55 147q11 -8 42 -19t73 -11q39 0 73 12.5t66 38t63 65t64 93.5q12 9 23.5 27t22.5 38t20.5 39t17.5 31q-35 115 -71 243.5t-69.5 256t-63.5 246.5t-52 216h209q18 -85 40 -179t45.5 -191.5t49 -197t51.5 -196.5q92 171 197 383.5t176 380.5h211 q-94 -203 -201.5 -414.5t-195 -365.5t-156.5 -264q-114 -179 -188.5 -265t-156.5 -123.5t-167 -37.5q-59 0 -108 15.5t-70 31.5zM580 1141l207 282h244l-246 -282h-205z" />
<glyph unicode="&#xfe;" horiz-adv-x="1169" d="M102 -414l306 1919h198l-96 -602q37 49 82 83t107 52.5t122 18.5q90 0 152 -31t101 -83.5t56 -121.5t17 -145q0 -158 -39.5 -286.5t-109 -219.5t-165 -140.5t-206.5 -49.5q-49 0 -89.5 8t-71.5 20.5t-53.5 27t-35.5 27.5l-76 -477h-199zM403 231q31 -38 80 -63t121 -25 q118 0 196.5 90.5t104 207t25.5 214.5q0 77 -20.5 130.5t-64.5 78.5t-100 25q-60 0 -109.5 -28.5t-87 -79.5t-63.5 -122t-39 -155z" />
<glyph unicode="&#xff;" horiz-adv-x="1008" d="M-84 -387l55 147q11 -8 42 -19t73 -11q39 0 73 12.5t66 38t63 65t64 93.5q12 9 23.5 27t22.5 38t20.5 39t17.5 31q-35 115 -71 243.5t-69.5 256t-63.5 246.5t-52 216h209q18 -85 40 -179t45.5 -191.5t49 -197t51.5 -196.5q92 171 197 383.5t176 380.5h211 q-94 -203 -201.5 -414.5t-195 -365.5t-156.5 -264q-114 -179 -188.5 -265t-156.5 -123.5t-167 -37.5q-59 0 -108 15.5t-70 31.5zM381 1282q0 50 34 83.5t87 33.5q40 0 68 -19.5t41 -46t13 -51.5q0 -36 -21 -64.5t-48.5 -39.5t-52.5 -11q-26 0 -48.5 9t-38.5 25t-25 36.5 t-9 44.5zM776 1282q0 37 20.5 66t47.5 40t53 11q42 0 71 -20.5t40.5 -46t11.5 -50.5q0 -37 -20 -64.5t-48.5 -39t-54.5 -11.5t-48 9t-38 25t-25.5 36.5t-9.5 44.5z" />
<glyph unicode="&#x152;" horiz-adv-x="1987" d="M225 516q0 131 22 251.5t63.5 224.5t101 188.5t135.5 145t167 93.5t195 33q98 0 172 -31.5t116.5 -78.5t62.5 -89l24 170h803l-27 -170h-606l-65 -405h522l-27 -170h-520l-82 -508h639l-27 -170h-835l26 158q-74 -97 -174 -142t-215 -45q-128 0 -217.5 45.5t-145.5 121 t-82 174t-26 204.5zM444 506q0 -38 4 -79.5t15 -82t30.5 -77.5t49.5 -65t73 -44.5t101 -16.5q106 0 192.5 60t147.5 165t94 247t33 305q0 63 -9 115.5t-30 102.5t-59 85t-81.5 48t-91.5 13q-108 0 -195 -60t-147.5 -165t-93.5 -246.5t-33 -304.5z" />
<glyph unicode="&#x153;" horiz-adv-x="1774" d="M195 395q0 145 41 267.5t112.5 211t168.5 138t210 49.5q131 0 214.5 -52t125.5 -151q47 68 117 116.5t142.5 67.5t139.5 19q103 0 180.5 -36t111.5 -100.5t34 -138.5q0 -85 -39.5 -159t-124 -130t-214.5 -82t-284 -26h-30q0 -91 40 -152.5t98.5 -80.5t111.5 -19 q34 0 88 6.5t94 19t67 25.5l54 -153q-53 -20 -104.5 -31.5t-109.5 -20t-102 -8.5q-74 0 -133.5 13t-105 38t-79 61t-56.5 81q-70 -94 -166.5 -143.5t-210.5 -49.5q-101 0 -174.5 31.5t-121.5 87.5t-71.5 133t-23.5 168zM408 381q0 -42 7 -86t28 -80t58.5 -59t98.5 -23 q115 0 190.5 91t100 211t24.5 220q0 79 -20 135.5t-65.5 84.5t-106.5 28q-81 0 -140 -44t-98 -117t-58 -167t-19 -194zM1108 541h31q152 0 248 25t143 67t57 79.5t10 69.5q0 66 -38.5 102t-116.5 36q-47 0 -99 -21.5t-99 -67.5t-83.5 -118t-52.5 -172z" />
<glyph unicode="&#x178;" horiz-adv-x="1165" d="M240 1423h200q39 -109 102.5 -263t164.5 -347q163 189 274 345t182 265h215q-93 -147 -211 -308.5t-213.5 -276.5t-165.5 -193l-102 -645h-207l103 645q-67 114 -139 266.5t-122 281.5t-81 230zM516 1669q0 50 34 83.5t87 33.5q40 0 68 -19.5t41 -46t13 -51.5 q0 -36 -21 -64.5t-48.5 -39.5t-52.5 -11q-26 0 -48.5 9t-38.5 25t-25 36.5t-9 44.5zM911 1669q0 37 20.5 66t47.5 40t53 11q42 0 71 -20.5t40.5 -46t11.5 -50.5q0 -37 -20 -64.5t-48.5 -39t-54.5 -11.5t-48 9t-38 25t-25.5 36.5t-9.5 44.5z" />
<glyph unicode="&#x2c6;" horiz-adv-x="805" d="M268 1141l273 282h174l182 -282h-186l-99 157l-149 -157h-195z" />
<glyph unicode="&#x2dc;" horiz-adv-x="805" d="M266 1212q43 106 99.5 150.5t113.5 44.5q40 0 77 -13.5t77 -41.5q43 -29 66 -39t44 -10q28 0 50 19.5t45 76.5l108 -43q-35 -83 -76 -130.5t-78 -58t-67 -10.5q-43 0 -80.5 17t-71.5 38q-71 48 -106 48q-26 0 -49 -20.5t-47 -74.5z" />
<glyph unicode="&#x2000;" horiz-adv-x="905" />
<glyph unicode="&#x2001;" horiz-adv-x="1810" />
<glyph unicode="&#x2002;" horiz-adv-x="905" />
<glyph unicode="&#x2003;" horiz-adv-x="1810" />
<glyph unicode="&#x2004;" horiz-adv-x="603" />
<glyph unicode="&#x2005;" horiz-adv-x="452" />
<glyph unicode="&#x2006;" horiz-adv-x="301" />
<glyph unicode="&#x2007;" horiz-adv-x="301" />
<glyph unicode="&#x2008;" horiz-adv-x="226" />
<glyph unicode="&#x2009;" horiz-adv-x="362" />
<glyph unicode="&#x200a;" horiz-adv-x="100" />
<glyph unicode="&#x2010;" horiz-adv-x="727" d="M199 477h479l33 205h-480z" />
<glyph unicode="&#x2011;" horiz-adv-x="727" d="M199 477h479l33 205h-480z" />
<glyph unicode="&#x2012;" horiz-adv-x="727" d="M199 477h479l33 205h-480z" />
<glyph unicode="&#x2013;" horiz-adv-x="1028" d="M74 451l26 161h1024l-26 -161h-1024z" />
<glyph unicode="&#x2014;" horiz-adv-x="2052" d="M74 451l26 161h2048l-26 -161h-2048z" />
<glyph unicode="&#x2018;" horiz-adv-x="500" d="M299 1085q0 108 45.5 204.5t97.5 153.5t84 83l86 -84q-38 -47 -61 -80t-38 -76t-15 -86q0 -38 11.5 -65t39.5 -45l-21 -80h-217q-12 28 -12 75z" />
<glyph unicode="&#x2019;" horiz-adv-x="498" d="M285 1071q38 45 58.5 74.5t38 78t17.5 91.5q0 37 -10.5 64.5t-38.5 45.5l21 80h217q10 -40 10 -78q0 -105 -44.5 -201.5t-98 -154t-84.5 -82.5z" />
<glyph unicode="&#x201a;" horiz-adv-x="498" d="M90 -164q31 36 54 68t43 82.5t20 93.5q0 37 -11.5 63.5t-39.5 44.5l20 82h217q5 -12 7.5 -34.5t2.5 -42.5q0 -106 -45 -203.5t-97 -154.5t-83 -83z" />
<glyph unicode="&#x201c;" horiz-adv-x="844" d="M285 1085q0 108 45.5 204.5t97.5 153.5t84 83l86 -84q-9 -11 -28.5 -34t-38.5 -55t-33.5 -71t-14.5 -82q0 -38 12 -65t40 -45l-21 -80h-217q-12 28 -12 75zM670 1085q0 78 23.5 147.5t57.5 126t73 99t71 68.5l86 -84q-9 -11 -28.5 -34t-38.5 -55t-33.5 -71t-14.5 -82 q0 -38 12 -65t40 -45l-21 -80h-217q-10 24 -10 75z" />
<glyph unicode="&#x201d;" horiz-adv-x="844" d="M266 1071q37 45 58 73t39 78t18 93q0 37 -11 64.5t-40 45.5l22 80h217q11 -44 11 -78q0 -103 -46.5 -203t-98.5 -155t-83 -80zM649 1071q37 45 58 73t39 78t18 93q0 37 -10.5 64.5t-38.5 45.5l20 80h217q11 -44 11 -78q0 -103 -46.5 -203t-98.5 -155t-83 -80z" />
<glyph unicode="&#x201e;" horiz-adv-x="844" d="M80 -164q33 37 54 68.5t41 82t20 93.5q0 37 -12 63.5t-40 44.5l23 82h215q5 -12 8.5 -34.5t3.5 -42.5q0 -78 -23.5 -147.5t-58.5 -126t-74.5 -99.5t-70.5 -68zM463 -164q33 37 54 68.5t41 82t20 93.5q0 37 -11.5 63.5t-40.5 44.5l23 82h217q10 -40 10 -77 q0 -78 -23.5 -147.5t-58.5 -126t-74.5 -99.5t-70.5 -68z" />
<glyph unicode="&#x2022;" horiz-adv-x="846" d="M195 690q0 102 56 186t133.5 118t147.5 34q102 0 185 -56t118 -134t35 -148t-26.5 -131.5t-72.5 -107.5t-107.5 -72.5t-131.5 -26.5t-131.5 26.5t-107 72.5t-72 107.5t-26.5 131.5z" />
<glyph unicode="&#x2026;" horiz-adv-x="2052" d="M205 121q0 42 23 75.5t58.5 49.5t67.5 16q45 0 81 -23.5t51.5 -56.5t15.5 -61q0 -44 -24.5 -77.5t-58.5 -48.5t-65 -15q-32 0 -59 11.5t-47 30.5t-31.5 44.5t-11.5 54.5zM887 121q0 42 23 75.5t58 49.5t68 16q45 0 81 -23.5t51.5 -56.5t15.5 -61q0 -44 -24.5 -77.5 t-58.5 -48.5t-65 -15q-32 0 -59 11.5t-47 30.5t-31.5 44.5t-11.5 54.5zM1569 121q0 42 23 75.5t58.5 49.5t67.5 16q45 0 81 -23.5t51.5 -56.5t15.5 -61q0 -44 -24.5 -77.5t-58.5 -48.5t-65 -15q-32 0 -59 11.5t-47 30.5t-31.5 44.5t-11.5 54.5z" />
<glyph unicode="&#x202f;" horiz-adv-x="362" />
<glyph unicode="&#x2039;" horiz-adv-x="616" d="M160 522l325 412h209l-342 -424l197 -399h-193z" />
<glyph unicode="&#x203a;" horiz-adv-x="616" d="M88 111l342 424l-197 399h195l197 -412l-326 -411h-211z" />
<glyph unicode="&#x205f;" horiz-adv-x="452" />
<glyph unicode="&#x20ac;" horiz-adv-x="1167" d="M141 530l41 117h137q5 54 13 107t20 104h-159l40 117h156q62 165 171 275.5t231.5 152t232.5 41.5q115 0 194 -24t125 -48l-65 -158q-18 8 -60 22.5t-95 24t-97 9.5q-136 0 -244 -75t-174 -220h555l-39 -117h-557q-14 -48 -22 -101t-13 -110h480l-39 -117h-443 q5 -181 85 -276.5t241 -95.5q80 0 144.5 15.5t103.5 33.5l57 -162q-57 -25 -144 -45t-196 -20q-117 0 -209.5 33.5t-157.5 101.5t-100.5 171.5t-38.5 243.5h-174z" />
<glyph unicode="&#x2122;" horiz-adv-x="1847" d="M252 1290v133h659v-133h-252v-708h-155v708h-252zM987 582q0 125 7.5 316t16 318t17.5 207h166l215 -567l215 567h164q5 -55 9.5 -123.5t9 -143.5t8 -153.5t6 -153.5t4 -143.5t2.5 -123.5h-144q0 253 -14 608l-203 -543h-120l-201 537q-5 -140 -9 -258.5t-5 -204 t-1 -139.5h-143z" />
<glyph unicode="&#x25fc;" horiz-adv-x="1035" d="M0 0v1035h1035v-1035h-1035z" />
<glyph unicode="&#xfb01;" horiz-adv-x="1155" d="M-20 -252q64 36 110.5 81.5t80.5 124t48 171.5l111 754h-123l24 157h121l17 99q32 193 144.5 292t315.5 99q78 0 142 -11.5t121 -25.5l-25 -158q-49 13 -82 20t-75.5 12t-84.5 5q-91 0 -147.5 -34.5t-80 -90.5t-32.5 -115l-14 -92h590l-166 -1036h-199l142 879h-390 l-118 -797q-16 -102 -54.5 -183t-87.5 -132.5t-94.5 -80.5t-79 -43t-49.5 -20z" />
<glyph unicode="&#xfb02;" horiz-adv-x="1159" d="M-20 -252q64 36 110.5 81.5t80.5 124t48 171.5l111 754h-123l24 157h121l19 121q17 108 61.5 179.5t107 113.5t138 59t153.5 17q99 0 190 -20.5t136.5 -41t54.5 -24.5l-227 -1440h-197l211 1333q-37 14 -53 19t-55.5 12.5t-77.5 7.5q-110 0 -171.5 -56.5t-78.5 -187.5 l-12 -92h219l-27 -157h-215l-118 -797q-16 -102 -54.5 -183t-87.5 -132.5t-94.5 -80.5t-79 -43t-49.5 -20z" />
</font>
</defs>
</svg>
