<?xml version="1.0" standalone="no"?>
<!DOCTYPE svg PUBLIC "-//W3C//DTD SVG 1.1//EN" "http://www.w3.org/Graphics/SVG/1.1/DTD/svg11.dtd" >
<svg xmlns="http://www.w3.org/2000/svg">
<metadata></metadata>
<defs>
<font id="sparkasse_rgregular" horiz-adv-x="1182" >
<font-face units-per-em="2048" ascent="1638" descent="-410" />
<missing-glyph horiz-adv-x="471" />
<glyph horiz-adv-x="0" />
<glyph unicode="&#xd;" horiz-adv-x="471" />
<glyph unicode=" "  horiz-adv-x="471" />
<glyph unicode="&#x09;" horiz-adv-x="471" />
<glyph unicode="&#xa0;" horiz-adv-x="471" />
<glyph unicode="!" horiz-adv-x="545" d="M125 121q0 41 24 76t57.5 49t65.5 14q47 0 81.5 -22.5t50.5 -56t16 -60.5q0 -44 -24.5 -77.5t-58.5 -48.5t-65 -15t-57.5 11.5t-46.5 30.5t-31.5 44.5t-11.5 54.5zM166 1423h215l-8 -968h-199z" />
<glyph unicode="&#x22;" horiz-adv-x="883" d="M152 1006v499h194v-499h-194zM535 1006v499h194v-499h-194z" />
<glyph unicode="#" horiz-adv-x="1223" d="M76 418v151h217l41 287h-201v152h223l62 415h172l-62 -415h265l61 415h170l-59 -415h184v-152h-207l-43 -287h193v-151h-215l-62 -418h-170l62 418h-267l-59 -418h-172l61 418h-194zM463 569h266l41 287h-264z" />
<glyph unicode="$" horiz-adv-x="1104" d="M106 78l56 160q26 -17 89.5 -38t127 -30.5t115.5 -9.5v493q-40 15 -83 32.5t-84.5 40t-79 52t-66 68t-45.5 89t-17 114.5q0 117 58 202.5t146 124.5t175 49v101h102v-94q118 -4 196.5 -22.5t118.5 -31.5v-172q-46 18 -88.5 30.5t-104.5 21.5t-122 10v-453q78 -28 149 -60 t126 -79.5t87.5 -115.5t32.5 -167q0 -132 -62.5 -223t-155.5 -129t-181 -45v-123h-102v119q-123 4 -218 27t-170 59zM313 1059q0 -39 12.5 -68.5t36 -53.5t58 -43.5t78.5 -37.5v404q-87 -16 -136 -66t-49 -135zM596 170q70 15 115 52t58 82.5t13 84.5q0 60 -28 104t-73 71 t-85 44v-438z" />
<glyph unicode="%" horiz-adv-x="2034" d="M139 1073q0 160 52.5 267.5t134 146.5t163.5 39q83 0 148.5 -30.5t111 -88.5t69.5 -142t24 -192t-24 -191.5t-69.5 -140.5t-111 -86.5t-148.5 -29.5q-82 0 -147 29.5t-110 86.5t-69 140.5t-24 191.5zM322 1073q0 -156 46 -230.5t121 -74.5q76 0 122 75t46 230 q0 160 -46 235.5t-122 75.5q-75 0 -121 -75.5t-46 -235.5zM467 0l905 1505h195l-905 -1505h-195zM1192 428q0 159 53.5 268t134.5 146t164 37q123 0 206 -66.5t113.5 -171.5t30.5 -213t-24 -191.5t-69 -141.5t-110 -88t-147 -30q-83 0 -148.5 30t-110.5 88t-69 141.5 t-24 191.5zM1376 428q0 -156 45.5 -231.5t122.5 -75.5q76 0 121 75.5t45 231.5q0 160 -45 235.5t-121 75.5q-77 0 -122.5 -75.5t-45.5 -235.5z" />
<glyph unicode="&#x26;" horiz-adv-x="1384" d="M104 365q0 81 22.5 147t70.5 119q36 42 87 82t148 96q-63 65 -101 126t-49.5 111.5t-11.5 98.5q0 98 57.5 171.5t139 101.5t162.5 28q87 0 153 -22t109.5 -61.5t65.5 -93.5t22 -118q0 -62 -20 -113t-54 -96q-62 -81 -192 -162q64 -68 291 -327q22 56 35.5 122.5 t13.5 106.5h174q0 -103 -28.5 -199t-78.5 -178q68 -83 126 -162.5t95 -142.5h-229q-22 34 -108 156q-59 -59 -131.5 -100.5t-152.5 -58.5t-157 -17q-113 0 -199 29.5t-143.5 81t-87 122t-29.5 152.5zM299 381q0 -56 19.5 -100t55.5 -74.5t87 -47t114 -16.5q104 0 183 37.5 t141 106.5q-135 169 -352 407q-102 -57 -155.5 -106t-73 -101.5t-19.5 -105.5zM449 1147q0 -43 17.5 -84.5t40.5 -68.5t42 -46q39 -39 51 -53q54 29 88 55.5t55 50.5q56 70 56 150q0 69 -44 113.5t-130 44.5q-57 0 -100.5 -25t-59.5 -62.5t-16 -74.5z" />
<glyph unicode="'" horiz-adv-x="510" d="M158 1006v499h194v-499h-194z" />
<glyph unicode="(" horiz-adv-x="668" d="M119 647q0 141 22.5 265t61.5 231t91.5 197.5t113.5 164.5h206q-59 -81 -110 -180t-89 -210t-59.5 -230t-21.5 -238t21.5 -237.5t59.5 -228.5t89 -209t110 -179h-206q-61 74 -113.5 164t-91.5 197t-61.5 230t-22.5 263z" />
<glyph unicode=")" horiz-adv-x="668" d="M53 -207q60 80 111.5 179t89 209t59 228.5t21.5 237.5q0 175 -46 350t-110.5 300.5t-124.5 207.5h207q98 -120 166 -264.5t95.5 -298.5t27.5 -295q0 -198 -46 -373.5t-114 -291t-129 -189.5h-207z" />
<glyph unicode="*" horiz-adv-x="856" d="M53 1169l51 146l250 -84l-2 274h152l-2 -274l250 84l51 -146l-256 -77l160 -213l-125 -93l-154 215l-154 -215l-127 93l162 213z" />
<glyph unicode="+" d="M104 627v176h388v403h196v-403h387v-176h-387v-410h-196v410h-388z" />
<glyph unicode="," horiz-adv-x="514" d="M125 -166q7 12 20 33t25.5 49t21.5 61t9 68q0 48 -18.5 84t-55.5 57l14 82h244q12 -32 18.5 -71.5t6.5 -71.5q0 -83 -31.5 -162t-72 -131.5t-70.5 -81.5z" />
<glyph unicode="-" horiz-adv-x="737" d="M115 479v199h506v-199h-506z" />
<glyph unicode="." horiz-adv-x="518" d="M113 121q0 41 24 76t58 49t65 14q47 0 81.5 -22.5t50.5 -55.5t16 -61q0 -44 -24.5 -77.5t-58.5 -48.5t-65 -15t-57.5 11.5t-46.5 30.5t-31.5 44.5t-11.5 54.5z" />
<glyph unicode="/" horiz-adv-x="588" d="M0 0l406 1505h182l-404 -1505h-184z" />
<glyph unicode="0" d="M127 711q0 367 117.5 550t347.5 183q463 0 463 -733q0 -368 -116.5 -549.5t-346.5 -181.5t-347.5 181.5t-117.5 549.5zM340 711q0 -287 60.5 -428.5t191.5 -141.5q130 0 190 141.5t60 428.5q0 292 -60 431.5t-190 139.5q-131 0 -191.5 -139.5t-60.5 -431.5z" />
<glyph unicode="1" d="M221 1133v163l309 127h168v-1263h252v-160h-704v160h254v1059q-46 -12 -141.5 -42t-137.5 -44z" />
<glyph unicode="2" d="M109 0v162q50 69 146.5 180.5t209.5 232.5q87 94 124.5 137.5t77 102t62.5 122.5t23 112q0 107 -59 166t-189 59q-78 0 -153 -25.5t-115.5 -49.5t-49.5 -32v189q61 29 103.5 45.5t113 29.5t138.5 13q211 0 317.5 -99t106.5 -282q0 -89 -32.5 -169t-81 -151.5 t-105.5 -132.5t-105 -112q-237 -253 -295 -328h660v-170h-897z" />
<glyph unicode="3" d="M98 70l66 161q36 -20 87 -39.5t108.5 -29.5t113.5 -10q99 0 172 34t103 98t30 136q0 85 -37.5 140.5t-121.5 81.5t-195 26h-57v172h57q111 0 183 29t101 83.5t29 122.5q0 66 -33 113.5t-92.5 67.5t-126.5 20q-82 0 -156 -23t-111.5 -44t-55.5 -31v182q61 27 107 43.5 t115 28.5t142 12q155 0 254.5 -54.5t133.5 -136t34 -157.5q0 -69 -18.5 -122.5t-49.5 -95t-70 -70.5t-81 -48q80 -20 142.5 -69t92 -121t29.5 -152q0 -92 -32 -172t-95 -139t-156 -93t-216 -34q-107 0 -199.5 19.5t-136 40.5t-60.5 30z" />
<glyph unicode="4" d="M86 332v155q142 244 302 475t339 461h195v-931h151v-160h-151v-332h-195v332h-641zM274 492h453v677q-123 -161 -250 -354.5t-203 -322.5z" />
<glyph unicode="5" d="M127 68l68 157q28 -17 85 -37t101 -27t86 -7q102 0 177.5 40t108.5 116t33 169q0 104 -42 171.5t-121 95.5t-170 28q-62 0 -132 -12t-137 -29l49 690h693v-170h-533l-22 -331q67 14 166 14q226 -2 344 -118t118 -331q0 -118 -34 -212t-99.5 -159.5t-161 -100.5 t-217.5 -35q-96 0 -177.5 18.5t-124 38.5t-58.5 31z" />
<glyph unicode="6" d="M131 608q0 86 12 181.5t41 188.5t78 177t121.5 148.5t172 102.5t230.5 38q53 0 96.5 -3.5t63.5 -8.5v-168q-21 5 -63 8.5t-101 3.5q-79 0 -148.5 -23.5t-124 -77t-93 -140t-54.5 -212.5q27 41 76 73.5t105 46t112 13.5q148 0 245.5 -66.5t133 -178t35.5 -232.5 q0 -119 -33 -212t-94.5 -156.5t-150 -97t-199.5 -33.5q-226 0 -343.5 159t-117.5 469zM340 467q0 -68 16 -127t47.5 -102.5t79 -69t109.5 -25.5q100 0 163 51t84 129.5t21 151.5t-14.5 132t-46 101t-80.5 64.5t-117 22.5q-96 0 -159 -52.5t-83 -128t-20 -147.5z" />
<glyph unicode="7" d="M119 1253v170h899v-168q-37 -71 -100.5 -202.5t-141.5 -317.5q-71 -166 -152 -387.5t-124 -347.5h-201q32 96 111.5 315.5t140.5 368.5q73 177 141.5 325t116.5 244h-690z" />
<glyph unicode="8" d="M96 362q0 75 22.5 135.5t62.5 107t94 80.5t116 58q-71 39 -119 78.5t-76.5 82.5t-40.5 90t-12 100q0 117 69 201.5t176.5 118.5t215.5 34q106 0 188 -25t138 -70t85 -106.5t29 -134.5q0 -232 -245 -362q148 -74 214 -165.5t66 -207.5q0 -92 -34.5 -166t-98.5 -126.5 t-154.5 -81t-201.5 -28.5q-114 0 -205.5 28.5t-155.5 79.5t-98.5 122t-34.5 157zM299 371q0 -54 21.5 -97.5t61 -73.5t94 -46.5t120.5 -16.5q62 0 112 17.5t85 49t54 75.5t19 96q0 71 -32.5 121.5t-101 90.5t-152.5 75q-78 -31 -131.5 -62.5t-86.5 -67t-48 -75t-15 -86.5z M338 1087q0 -41 16.5 -76.5t51.5 -67.5t88.5 -61.5t128.5 -58.5q101 46 161 113t60 162q0 66 -37 113.5t-95 66t-118 18.5q-64 0 -112 -17t-80 -45.5t-48 -66.5t-16 -80z" />
<glyph unicode="9" d="M109 950q0 175 71 293t182 159.5t222 41.5q230 0 346.5 -157.5t116.5 -471.5q0 -86 -12 -181.5t-42 -188t-79 -177t-123 -148.5t-175.5 -102t-234.5 -38q-56 0 -98.5 4t-71.5 10l25 164q65 -11 137 -11q87 0 162.5 26t134 82.5t97.5 146t52 216.5q-23 -43 -76 -78 t-110.5 -48.5t-110.5 -14.5q-97 -1 -173.5 28t-130 87.5t-81.5 148t-28 209.5zM315 956q0 -73 14 -132t44 -100.5t78.5 -64t117.5 -22.5q66 0 115 24t81 66.5t48 102t16 131.5q0 105 -35 181t-93 107t-121 31q-69 0 -119.5 -24t-82.5 -66.5t-47.5 -102t-15.5 -131.5z" />
<glyph unicode=":" horiz-adv-x="518" d="M113 121q0 41 24 76t58 49t65 14q47 0 81.5 -22.5t50.5 -55.5t16 -61q0 -44 -24.5 -77.5t-58.5 -48.5t-65 -15t-57.5 11.5t-46.5 30.5t-31.5 44.5t-11.5 54.5zM113 895q0 42 23.5 76t58 49.5t65.5 15.5q45 0 81 -23.5t51.5 -56.5t15.5 -61q0 -44 -26 -79.5t-58.5 -48.5 t-63.5 -13t-57.5 11.5t-46.5 30.5t-31.5 44.5t-11.5 54.5z" />
<glyph unicode=";" horiz-adv-x="516" d="M113 895q0 42 23.5 76t58 49.5t65.5 15.5q45 0 81 -23.5t51.5 -56.5t15.5 -61q0 -44 -26 -79.5t-58.5 -48.5t-63.5 -13t-57.5 11.5t-46.5 30.5t-31.5 44.5t-11.5 54.5zM127 -166q7 12 20 33t25.5 49t21.5 61t9 68q0 48 -18.5 84t-55.5 57l14 82h244q12 -32 18.5 -71.5 t6.5 -71.5q0 -83 -31.5 -162t-72.5 -132t-70 -81z" />
<glyph unicode="&#x3c;" d="M104 627v176l971 403v-190l-737 -301l737 -303v-195z" />
<glyph unicode="=" d="M104 406v178h971v-178h-971zM104 846v178h971v-178h-971z" />
<glyph unicode="&#x3e;" d="M104 217v195l738 303l-738 301v190l971 -403v-176z" />
<glyph unicode="?" horiz-adv-x="1028" d="M119 1178v188q64 30 101 43.5t108 26t145 12.5q148 0 248 -52t136 -134t36 -160q0 -75 -21.5 -129t-52.5 -94t-67 -67l-64 -48q-66 -49 -99.5 -91t-41.5 -81.5t-8 -81.5v-68h-195v88q0 68 12 118.5t35 90t56.5 70.5t76.5 61q66 47 96.5 75t46 67t15.5 84q0 64 -30.5 106 t-84.5 60t-114 18q-105 0 -180 -27.5t-154 -74.5zM291 121q0 41 24 76t58 49t65 14q46 0 82 -22.5t52 -55.5t16 -61q0 -44 -24 -77t-59.5 -48.5t-66.5 -15.5t-57.5 11.5t-46.5 30.5t-31.5 44.5t-11.5 54.5z" />
<glyph unicode="@" horiz-adv-x="1868" d="M119 430q0 118 28.5 227.5t81.5 204.5t128.5 172.5t170.5 133t206.5 86t236.5 30.5q177 0 321 -55t245.5 -151.5t156.5 -229t55 -287.5q0 -135 -39.5 -242t-103.5 -181.5t-145.5 -114t-164.5 -39.5q-71 0 -122 22.5t-71 52.5t-30 56q-48 -59 -117.5 -96t-160.5 -37 q-68 0 -124 21t-95.5 63t-61.5 106.5t-22 151.5q0 136 39.5 241.5t104 178t146.5 110t166 37.5q82 0 136.5 -26.5t82.5 -63.5l13 71h155l-106 -596q-6 -40 -6 -73q0 -38 25 -55t65 -17q75 0 141.5 68t95.5 168t29 198q0 119 -42.5 221.5t-121.5 178t-190.5 118.5t-249.5 43 q-148 0 -273 -51.5t-216 -144.5t-142 -223t-51 -287q0 -165 52 -295t143.5 -220.5t215 -138t267.5 -47.5q98 0 192.5 18.5t158.5 41t97 37.5l58 -142q-62 -29 -155.5 -57t-179.5 -40.5t-155 -12.5q-204 0 -365.5 65.5t-273 181t-170.5 274t-59 345.5zM672 330q0 -44 8.5 -81 t28.5 -63.5t52 -41.5t79 -15q76 0 130 48t80 113.5t35 119.5l43 256q-26 30 -44.5 44t-54.5 26t-75 12q-54 0 -105 -30t-90.5 -85t-63 -132t-23.5 -171z" />
<glyph unicode="A" horiz-adv-x="1247" d="M12 0q29 107 64.5 227.5t76.5 247t86.5 254.5t93 250.5t96.5 235.5t97 208h195q48 -95 97 -208t96.5 -235.5t93 -250.5t86.5 -254.5t76.5 -247t64.5 -227.5h-213q-47 177 -104 375h-599q-35 -131 -104 -375h-203zM373 539h495q-52 161 -112.5 328.5t-137.5 355.5 q-170 -438 -245 -684z" />
<glyph unicode="B" horiz-adv-x="1280" d="M188 0v1423h453q163 0 260.5 -59.5t126.5 -140.5t29 -148q0 -79 -29.5 -145.5t-72.5 -100.5t-83 -51q98 -27 164 -78t91.5 -125.5t25.5 -152.5q0 -87 -30 -164t-91 -134t-154 -90.5t-219 -33.5h-471zM389 168h219q169 0 247.5 64t78.5 190q0 129 -84 188.5t-262 59.5 h-199v-502zM389 836h174q108 0 175 35t87.5 86t20.5 98q0 76 -31.5 120t-94 62t-138.5 18h-193v-419z" />
<glyph unicode="C" horiz-adv-x="1184" d="M127 711q0 172 41.5 308t122 230.5t199 144.5t272.5 50q109 0 201 -21t133 -41v-184q-52 21 -104 37t-104.5 24.5t-103.5 8.5q-100 0 -175 -29.5t-128 -83.5q-71 -72 -102 -184.5t-31 -263.5q0 -280 111 -413.5t321 -133.5q106 0 178.5 17t120.5 36l64 -160 q-72 -31 -167.5 -52t-217.5 -21q-155 0 -273 49.5t-197.5 143t-120 229.5t-40.5 309z" />
<glyph unicode="D" horiz-adv-x="1384" d="M188 0v1423h420q152 0 272 -44.5t203.5 -134t127.5 -223t44 -310.5t-44.5 -310.5t-127.5 -222.5t-203.5 -133.5t-271.5 -44.5h-420zM393 170h217q100 0 179 34t133.5 101.5t83 169t28.5 236.5t-28.5 236.5t-83 169.5t-133.5 102t-179 34h-217v-1083z" />
<glyph unicode="E" horiz-adv-x="1141" d="M188 0v1423h830v-170h-625v-405h537v-168h-537v-510h660v-170h-865z" />
<glyph unicode="F" horiz-adv-x="1049" d="M188 0v1423h811v-170h-606v-405h506v-168h-506v-680h-205z" />
<glyph unicode="G" horiz-adv-x="1329" d="M129 711q0 169 43.5 305.5t127 231.5t205.5 146.5t279 51.5q114 0 205.5 -20.5t145.5 -41.5v-184q-50 19 -108.5 36t-116.5 25.5t-109 8.5q-220 0 -335.5 -139.5t-115.5 -419.5q0 -281 115.5 -417t351.5 -136q97 0 164 8v438h-242v174h447v-778q-13 -1 -134 -8.5 t-247 -7.5q-168 0 -295 47.5t-211.5 140t-127 228t-42.5 311.5z" />
<glyph unicode="H" horiz-adv-x="1399" d="M188 0v1423h205v-551h611v551h206v-1423h-206v700h-611v-700h-205z" />
<glyph unicode="I" horiz-adv-x="582" d="M188 0v1423h205v-1423h-205z" />
<glyph unicode="J" horiz-adv-x="995" d="M37 74l76 153q19 -16 60.5 -36.5t86.5 -30.5t90 -10q56 0 102 15.5t80 47.5q42 38 62 98.5t20 157.5v954h207v-942q0 -146 -33.5 -239t-93.5 -152q-59 -59 -140 -87t-181 -28q-70 0 -126.5 12t-98.5 28t-70 33t-41 26z" />
<glyph unicode="K" horiz-adv-x="1262" d="M188 0v1423h205v-592l545 592h252l-608 -655q129 -103 269 -253.5t238.5 -285t159.5 -229.5h-254q-91 130 -197.5 260t-211.5 235.5t-193 180.5v-676h-205z" />
<glyph unicode="L" horiz-adv-x="1032" d="M188 0v1423h205v-1253h602v-170h-807z" />
<glyph unicode="M" horiz-adv-x="1661" d="M168 0q0 218 7.5 466.5t23 518.5t34.5 438h230l371 -1011l370 1011h223q9 -88 17 -201t15 -239.5t13 -260t11 -262.5t7.5 -247t2.5 -213h-195q0 70 -1.5 155.5t-3.5 179.5t-5 194.5t-6.5 201t-7.5 198.5t-8 187l-365 -983h-143l-363 981q-4 -77 -7.5 -168.5t-7 -190.5 t-6.5 -201.5t-5.5 -201t-4 -188.5t-2.5 -164h-194z" />
<glyph unicode="N" horiz-adv-x="1399" d="M188 0v1423h197q71 -101 152.5 -224t164 -256.5t162 -272t148.5 -269.5v1022h198v-1423h-184q-149 289 -307.5 571t-331.5 555v-1126h-199z" />
<glyph unicode="O" horiz-adv-x="1442" d="M129 711q0 177 41.5 315t119 232.5t187 144t244.5 49.5t244.5 -49.5t187.5 -144t120 -232.5t42 -315t-42 -315t-120 -232.5t-187.5 -143.5t-244.5 -49t-244.5 49t-187 143.5t-119 232.5t-41.5 315zM350 711q0 -136 24 -242t71.5 -179t116.5 -111t159 -38t159.5 38 t117 111t72 179t24.5 242q0 138 -24.5 244.5t-72 179t-117 110t-159.5 37.5q-89 0 -158.5 -37.5t-116.5 -110t-71.5 -179t-24.5 -244.5z" />
<glyph unicode="P" horiz-adv-x="1194" d="M188 0v1423h435q171 0 283.5 -57t153 -152.5t40.5 -197.5q0 -79 -25.5 -158.5t-84.5 -143t-154.5 -103.5t-235.5 -40h-211v-571h-201zM389 737h191q79 0 136.5 19t95 54t55.5 84.5t18 111.5q0 102 -42.5 159t-115 73.5t-147.5 16.5h-191v-518z" />
<glyph unicode="Q" horiz-adv-x="1448" d="M129 711q0 177 41.5 315t119 232.5t187 144t244.5 49.5t244.5 -49.5t187.5 -144t120 -232.5t42 -315q0 -196 -51.5 -343t-147.5 -243q50 -54 104 -105t113 -102l-112 -127q-62 51 -124.5 112t-119.5 124q-57 -28 -120.5 -42t-135.5 -14q-135 0 -244.5 49t-187 143.5 t-119 232.5t-41.5 315zM350 711q0 -136 24 -242t71.5 -179t116.5 -111t159 -38q82 0 141 29q-49 62 -85.5 113t-67.5 102l125 78q26 -42 61 -88t86 -105q56 73 84.5 184t28.5 257q0 138 -24.5 244.5t-72 179t-117 110t-159.5 37.5q-89 0 -158.5 -37.5t-116.5 -110 t-71.5 -179t-24.5 -244.5z" />
<glyph unicode="R" horiz-adv-x="1309" d="M188 0v1423h422q237 0 357 -101.5t120 -291.5q0 -55 -12.5 -110t-41 -105t-74.5 -92.5t-113 -73.5l4 -4q61 -70 118 -149t107 -162.5t94 -168t80 -165.5h-235q-35 69 -80 149.5t-95.5 160.5t-104 153t-105.5 127h-240v-590h-201zM389 758h172q81 0 139 19t95.5 53 t55 81.5t17.5 104.5q0 97 -39 150t-109.5 71t-150.5 18h-180v-497z" />
<glyph unicode="S" horiz-adv-x="1112" d="M59 66l58 165q29 -15 93.5 -36t138.5 -33t138 -12q130 0 202.5 37.5t92 92.5t19.5 105q0 84 -55 135.5t-132.5 82t-140.5 54.5q-60 21 -113.5 44t-108 59.5t-92 87t-49.5 101t-12 106.5q0 90 34 163t97 124t153.5 78.5t203.5 27.5q86 0 160 -10.5t122.5 -24t69.5 -18.5 v-181q-51 19 -110 33.5t-121.5 22.5t-122.5 8q-134 0 -208.5 -55t-74.5 -158q0 -52 23.5 -88t66.5 -63.5t102 -50.5t130 -48q78 -29 150 -61t126.5 -79.5t87.5 -116.5t33 -171q0 -99 -34.5 -176t-100 -129.5t-159.5 -79.5t-214 -27q-89 0 -162.5 10.5t-131.5 25t-98 30 t-61 25.5z" />
<glyph unicode="T" horiz-adv-x="1104" d="M37 1249v174h1030v-174h-414v-1249h-204v1249h-412z" />
<glyph unicode="U" horiz-adv-x="1374" d="M176 487v936h205v-931q0 -90 22.5 -154t62.5 -104.5t96 -59t124 -18.5q67 0 123.5 18.5t96.5 59t62.5 104.5t22.5 154v931h207v-936q0 -131 -38 -227t-106 -159.5t-162 -94.5t-206 -31q-111 0 -205 31t-161.5 94.5t-105.5 159.5t-38 227z" />
<glyph unicode="V" horiz-adv-x="1241" d="M12 1423h224q27 -100 63.5 -223t84 -267.5t107 -309t134.5 -347.5q123 310 213.5 580.5t175.5 566.5h215q-32 -113 -90 -295.5t-116.5 -348t-125 -335t-113.5 -275t-77 -169.5h-172q-46 95 -93.5 206.5t-95 232t-94 247t-89 253t-81 249.5t-70.5 235z" />
<glyph unicode="W" horiz-adv-x="1784" d="M12 1423h221q37 -185 103 -462.5t176 -638.5l281 1064h213l280 -1067q117 357 181.5 633.5t95.5 470.5h209q-32 -166 -83 -380.5t-116 -433.5t-117 -366.5t-90 -242.5h-186l-287 1130l-287 -1130h-188q-36 96 -73 207.5t-74 232.5t-73 248t-69 253t-63 248.5t-54 233.5z " />
<glyph unicode="X" horiz-adv-x="1212" d="M23 0l469 715q-121 190 -227 365t-187 343h221q61 -129 137 -260.5t170 -281.5q227 370 312 542h206q-77 -165 -180.5 -340t-228.5 -362l475 -721h-244l-344 547l-354 -547h-225z" />
<glyph unicode="Y" horiz-adv-x="1198" d="M12 1423h217q28 -54 63 -120t81 -142.5t103 -163.5t128 -184q135 187 214.5 323.5t156.5 286.5h211q-71 -145 -167.5 -310t-176.5 -280.5t-140 -191.5v-641h-206v639q-89 111 -189.5 264.5t-173.5 286t-121 233.5z" />
<glyph unicode="Z" horiz-adv-x="1120" d="M63 0v168q62 105 176.5 291t219.5 344q97 146 321 450h-694v170h934v-168q-59 -76 -162 -219t-223 -319q-86 -125 -346 -547h768v-170h-994z" />
<glyph unicode="[" horiz-adv-x="676" d="M178 -207v1712h434v-155h-233v-1401h233v-156h-434z" />
<glyph unicode="\" horiz-adv-x="588" d="M0 1505h186l402 -1505h-187z" />
<glyph unicode="]" horiz-adv-x="676" d="M63 -51h234v1401h-234v155h435v-1712h-435v156z" />
<glyph unicode="^" horiz-adv-x="1145" d="M74 598l409 825h176l412 -825h-215l-289 590l-286 -590h-207z" />
<glyph unicode="_" horiz-adv-x="1024" d="M0 -332h1024v-102h-1024v102z" />
<glyph unicode="`" horiz-adv-x="823" d="M201 1423h239l181 -282h-205z" />
<glyph unicode="a" horiz-adv-x="1069" d="M96 293q0 118 54 194.5t159 118.5q59 23 132.5 34t164.5 13q4 0 19.5 0.5t32.5 0.5t32.5 0.5t20.5 0.5v56q0 78 -28.5 120.5t-87.5 58t-126 15.5q-84 0 -155 -17t-136 -40v162q84 22 122 29t97 12.5t111 5.5q103 0 178.5 -20t124.5 -62t72.5 -107t23.5 -155v-713h-188 l-4 88q-30 -30 -76.5 -54.5t-108 -39t-114.5 -14.5q-65 0 -123.5 17t-102 54.5t-69 97t-25.5 144.5zM295 301q0 -51 21 -92.5t63 -58.5t92 -17q53 0 106.5 17t84.5 38.5t49 40.5v281h-74q-87 0 -151 -10.5t-106.5 -35.5t-63.5 -65t-21 -98z" />
<glyph unicode="b" horiz-adv-x="1196" d="M168 0v1505h199v-594q24 41 70.5 75.5t108 52.5t122.5 18q97 0 173 -35t128 -101.5t79 -164.5t27 -224q0 -133 -30 -235.5t-86.5 -173t-137.5 -107t-184 -36.5q-97 0 -165 31t-110 77l-4 -88h-190zM367 262q38 -56 96 -88.5t133 -32.5q97 0 161 57.5t84.5 149.5t20.5 182 q0 122 -29.5 206t-88 118.5t-126.5 34.5q-121 0 -186 -93.5t-65 -271.5v-262z" />
<glyph unicode="c" horiz-adv-x="954" d="M121 516q0 124 33 223.5t96 169.5t155 107t211 37q83 0 156.5 -13.5t97.5 -23.5v-164q-16 4 -40 10.5t-52.5 11.5t-60.5 9t-64 4q-157 0 -238 -89.5t-81 -279.5q0 -187 76.5 -276.5t228.5 -89.5q74 0 134 12t87 24l47 -155q-57 -20 -128.5 -34.5t-170.5 -14.5 q-117 0 -208 36.5t-153 105t-94 167t-32 223.5z" />
<glyph unicode="d" horiz-adv-x="1192" d="M121 510q0 131 33.5 233t92 171.5t137.5 106t171 36.5q51 0 93.5 -8.5t76.5 -23t59 -32t41 -35.5v547h199v-1505h-190l-5 133q-52 -80 -123.5 -116.5t-175.5 -36.5q-89 0 -164 30.5t-129.5 95t-85 165t-30.5 239.5zM336 510q0 -123 28 -210t84 -122t127 -35q87 0 147 49 t81.5 126t21.5 153v320q-34 33 -65 54t-74 32.5t-86 11.5q-59 0 -107.5 -25t-83 -73.5t-54 -119t-19.5 -161.5z" />
<glyph unicode="e" horiz-adv-x="1106" d="M121 516q0 121 30 221.5t88 172.5t144 111.5t197 39.5q207 0 312 -125t105 -358q0 -69 -4 -121h-661q12 -157 88 -240.5t225 -83.5q69 0 134 9.5t114 23.5l39 -152q-65 -20 -140.5 -29.5t-175.5 -9.5q-118 0 -210 38t-155.5 108.5t-96.5 170.5t-33 224zM328 600h460v47 q0 128 -51.5 198t-161.5 70q-116 0 -177 -83t-70 -232z" />
<glyph unicode="f" horiz-adv-x="639" d="M43 881v155h123v172q0 79 22 138.5t63.5 99.5t100 60t131.5 20q69 0 122.5 -7.5t78.5 -13.5v-151q-83 16 -152 16q-90 0 -128.5 -44.5t-38.5 -147.5v-142h237v-155h-235v-881h-199v881h-125z" />
<glyph unicode="g" horiz-adv-x="1192" d="M121 518q0 129 33 229.5t90.5 169t134.5 104.5t166 36q73 0 131 -17t95 -43.5t58 -48.5l5 88h190v-1038q0 -112 -28.5 -189t-82.5 -131q-58 -57 -145.5 -84.5t-200.5 -27.5q-117 0 -196 13t-125 24l30 151q132 -33 250 -33q156 0 228.5 65t72.5 200v159 q-51 -78 -122.5 -114.5t-174.5 -36.5q-89 0 -164 29.5t-129.5 93t-85 163t-30.5 238.5zM336 518q0 -72 10.5 -138t38 -116t75 -80t120.5 -30q84 0 143 51t80.5 126t21.5 148v312q-34 33 -65 54t-74 32.5t-86 11.5q-59 0 -107.5 -25t-83 -72t-54 -116.5t-19.5 -157.5z" />
<glyph unicode="h" horiz-adv-x="1186" d="M168 0v1505h199v-606q45 71 124 114.5t197 43.5q122 0 200 -51t107 -129.5t29 -157.5v-719h-199v662q0 117 -49 171t-149 54q-80 0 -145 -48t-90 -113t-25 -124v-602h-199z" />
<glyph unicode="i" horiz-adv-x="571" d="M55 905v131h334v-1036h-199v889q-92 13 -135 16zM135 1364q0 38 21.5 68.5t51.5 43.5t58 13q38 0 68.5 -19.5t45.5 -49.5t15 -56q0 -38 -24 -70t-51.5 -42.5t-53.5 -10.5q-27 0 -50.5 9.5t-41.5 26.5t-28.5 39t-10.5 48z" />
<glyph unicode="j" horiz-adv-x="584" d="M-104 -410l28 138q55 -15 117 -15q77 0 117.5 40t40.5 134v1002q-64 11 -136 16v131h334v-1118q0 -103 -21.5 -168.5t-66.5 -107.5q-42 -39 -100 -57.5t-133 -18.5q-65 0 -114 9t-66 15zM147 1364q0 39 21 69.5t51 43t57 12.5q40 0 71.5 -19.5t46 -49.5t14.5 -56 q0 -38 -24 -70t-52.5 -42.5t-55.5 -10.5q-42 0 -73.5 21t-43.5 48.5t-12 53.5z" />
<glyph unicode="k" horiz-adv-x="1040" d="M168 0v1505h199v-870l387 401h239l-436 -448q64 -56 129 -126t126.5 -146.5t119 -157t108.5 -158.5h-249q-63 90 -140.5 189t-150 180t-133.5 141v-510h-199z" />
<glyph unicode="l" horiz-adv-x="549" d="M47 1376v129h334v-1505h-199v1360q-30 5 -135 16z" />
<glyph unicode="m" horiz-adv-x="1747" d="M168 0v1036h190l4 -137q47 72 120 115t180 43q106 0 179.5 -44.5t104.5 -127.5q56 81 135 126.5t189 45.5q153 0 234 -86t81 -242v-729h-199v672q0 112 -40.5 163.5t-133.5 51.5q-51 0 -94 -21.5t-75 -59.5t-50 -89t-18 -109v-608h-199v672q0 112 -40.5 163.5 t-133.5 51.5q-51 0 -94 -21.5t-74.5 -59.5t-49 -89t-17.5 -109v-608h-199z" />
<glyph unicode="n" horiz-adv-x="1186" d="M168 0v1036h190l4 -145q47 74 129.5 120t196.5 46q122 0 200 -51t107 -129.5t29 -157.5v-719h-199v662q0 117 -49 171t-149 54q-80 0 -145 -48t-90 -113t-25 -124v-602h-199z" />
<glyph unicode="o" horiz-adv-x="1180" d="M121 518q0 120 30 220t89 171.5t146.5 111.5t203.5 40q117 0 205 -40t147 -111.5t89 -171.5t30 -220q0 -115 -31.5 -214.5t-91.5 -172.5t-147.5 -114.5t-200.5 -41.5q-112 0 -199.5 41.5t-147.5 114.5t-91 172.5t-31 214.5zM334 518q0 -81 13.5 -151t43.5 -122t79 -82 t120 -30q102 0 161.5 61t78 152t18.5 172q0 129 -33 219.5t-93.5 128t-131.5 37.5t-120 -30t-79 -82.5t-43.5 -122.5t-13.5 -150z" />
<glyph unicode="p" horiz-adv-x="1196" d="M168 -414v1450h190l4 -151q27 52 76 93.5t109.5 60t124.5 18.5q144 0 239 -75.5t129.5 -199t34.5 -250.5q0 -131 -29 -234t-85.5 -173.5t-140 -107.5t-191.5 -37q-88 0 -152 22.5t-110 60.5v-477h-199zM367 238q45 -45 99 -71t122 -26q72 0 126.5 28t80.5 70t39 83 q14 45 21 97t7 109q0 123 -30 207.5t-88 119t-126 34.5q-60 0 -107 -28.5t-79 -79.5t-48.5 -122t-16.5 -155v-266z" />
<glyph unicode="q" horiz-adv-x="1192" d="M121 510q0 131 33.5 233t92 171.5t137.5 106t171 36.5q73 0 130 -19.5t92 -44.5t52 -43l5 86h190v-1450h-197v545q-51 -78 -122.5 -114.5t-174.5 -36.5q-89 0 -164 30.5t-129.5 95t-85 165t-30.5 239.5zM336 510q0 -75 11 -142.5t38.5 -117.5t74 -79.5t118.5 -29.5 q58 0 104 23t77.5 66t48.5 104t17 137v320q-34 33 -65 54t-74 32.5t-86 11.5q-59 0 -107.5 -25t-83 -73.5t-54 -119t-19.5 -161.5z" />
<glyph unicode="r" horiz-adv-x="760" d="M168 0v1036h190l4 -196q35 71 85 118t104 65.5t104 18.5q51 0 78 -6v-188q-24 6 -71 6q-75 0 -130 -27.5t-92 -70.5t-55 -95t-18 -100v-561h-199z" />
<glyph unicode="s" horiz-adv-x="977" d="M88 51l53 150q52 -21 94 -33.5t97.5 -20.5t111.5 -8q90 0 143.5 20.5t70 54.5t16.5 67q0 54 -41.5 86.5t-104.5 52.5t-116 39q-63 21 -116.5 44t-93 56t-61.5 80t-22 115q0 73 27.5 130t77.5 95t121 58t157 20q102 0 177 -12t132 -29v-164q-65 22 -137.5 34.5 t-159.5 12.5q-103 0 -152 -32t-49 -97q0 -33 17.5 -56t49.5 -41t78.5 -33.5t104.5 -33.5q120 -37 188.5 -78t97 -102t28.5 -133q0 -79 -30 -138t-85 -98t-132.5 -58t-172.5 -19q-70 0 -128.5 7.5t-105 18.5t-80.5 23t-55 22z" />
<glyph unicode="t" horiz-adv-x="735" d="M41 881v155h162v232q77 27 198 88v-320h269v-155h-269v-572q0 -90 33.5 -130t114.5 -40q41 0 78 6t57 13l35 -148q-48 -14 -106 -22t-119 -8q-78 0 -133 21t-90 60.5t-51.5 96.5t-16.5 129v594h-162z" />
<glyph unicode="u" horiz-adv-x="1186" d="M162 322v714h198v-671q0 -116 48.5 -167t148.5 -51q55 0 103 22.5t83.5 61.5t55.5 90.5t20 110.5v604h199v-1036h-193l-2 145q-46 -75 -129.5 -120t-197.5 -45q-160 0 -247 85.5t-87 256.5z" />
<glyph unicode="v" horiz-adv-x="999" d="M12 1036h211q50 -179 119 -390.5t160 -432.5q91 220 160 429t118 394h207q-83 -273 -186 -548t-201 -488h-201q-93 198 -202 492.5t-185 543.5z" />
<glyph unicode="w" horiz-adv-x="1444" d="M12 1036h199q31 -182 83 -384.5t126 -428.5l223 787h176l203 -783q75 223 127 423.5t86 385.5h197q-50 -255 -130 -519.5t-186 -516.5h-196l-195 741l-209 -741h-197q-103 254 -179.5 517.5t-127.5 518.5z" />
<glyph unicode="x" horiz-adv-x="1010" d="M29 0l368 518q-65 93 -142.5 211t-112 179.5t-68.5 127.5h202q42 -80 101 -171.5t131 -196.5q169 250 231 368h197q-86 -168 -324 -516l369 -520h-227l-248 365l-256 -365h-221z" />
<glyph unicode="y" horiz-adv-x="1028" d="M-37 -397l41 147q16 -6 46.5 -13t72.5 -7q83 0 141.5 51.5t108.5 157.5l61 129q-89 158 -178 352t-149.5 348t-98.5 268h213q25 -78 59 -170t75 -191.5t88 -202.5t98 -204q67 163 110 283t88.5 262.5t67.5 222.5h209q-72 -226 -143 -422t-136.5 -354t-118.5 -268 q-86 -176 -148 -262.5t-144.5 -125t-173.5 -38.5q-75 0 -122.5 13.5t-66.5 23.5z" />
<glyph unicode="z" horiz-adv-x="967" d="M74 0v154q33 51 117 166.5t186 248.5q76 101 256 312h-539v155h778v-153q-159 -186 -299 -359q-49 -60 -140.5 -180t-135.5 -188h596v-156h-819z" />
<glyph unicode="{" horiz-adv-x="680" d="M63 569v162q58 0 94 28.5t50 87.5t14 130v268q0 55 14 102.5t44 82.5t76.5 55t111.5 20h149v-157h-92q-43 0 -66 -20t-27.5 -48.5t-4.5 -56.5v-262q0 -104 -24.5 -171t-58 -96t-62.5 -45q49 -25 82 -68t48 -106t15 -135v-262q0 -46 11.5 -74.5t34.5 -39.5t52 -11h92v-160 h-149q-65 0 -111.5 20.5t-76.5 56t-44 82.5t-14 101v269q0 102 -23.5 159t-61 72.5t-73.5 15.5z" />
<glyph unicode="|" horiz-adv-x="598" d="M225 -207v1712h148v-1712h-148z" />
<glyph unicode="}" horiz-adv-x="680" d="M63 -49h93q56 0 76 35t20 92v260q0 102 24 168t58 96.5t65 46.5q-31 15 -57.5 38.5t-46.5 59.5t-31.5 87.5t-11.5 123.5v263q0 43 -10.5 71.5t-34.5 42t-51 13.5h-93v157h150q91 0 150 -42.5t77.5 -103t18.5 -114.5v-268q0 -71 10.5 -118.5t30.5 -76.5t49 -41t67 -12 v-162q-38 0 -67 -12t-49 -40t-30.5 -75.5t-10.5 -117.5v-269q0 -85 -33 -146t-90.5 -87.5t-122.5 -26.5h-150v158z" />
<glyph unicode="~" horiz-adv-x="1391" d="M104 395q45 113 105 184.5t123 97t127 25.5q59 0 123.5 -23.5t126.5 -57.5q65 -38 121.5 -63.5t103.5 -25.5q40 0 72 17t64.5 63.5t59.5 104.5l156 -80q-45 -112 -105.5 -184t-124 -97.5t-124.5 -25.5q-62 0 -131 24.5t-131 59.5q-160 86 -217 86q-39 0 -74 -20.5 t-64 -64.5t-57 -100z" />
<glyph unicode="&#xa1;" horiz-adv-x="545" d="M125 1311q0 41 24 75.5t57.5 50t65.5 15.5q47 0 81.5 -24.5t50.5 -56.5t16 -60q0 -42 -25 -77.5t-59 -49t-64 -13.5q-31 0 -57.5 11t-46.5 30.5t-31.5 44.5t-11.5 54zM166 0l8 969h197l8 -969h-213z" />
<glyph unicode="&#xa2;" horiz-adv-x="936" d="M115 709q0 171 62.5 293t160 174t199.5 63v184h104v-182q64 -3 122.5 -13.5t94.5 -21.5v-162q-32 10 -89 21.5t-128 13.5v-735q77 2 130.5 15.5t76.5 21.5l45 -152q-48 -18 -108 -31t-144 -18v-180h-104v182q-102 9 -181 49.5t-132.5 108t-81 160.5t-27.5 209zM324 711 q0 -310 211 -357v713q-104 -26 -157.5 -113t-53.5 -243z" />
<glyph unicode="&#xa3;" horiz-adv-x="1100" d="M63 0v164q45 6 86.5 43t64 94.5t28.5 118.5l22 237h-164l37 160h146l18 182q12 112 51.5 195.5t102.5 139t146.5 83t184.5 27.5q104 0 175.5 -19.5t115.5 -38.5v-178q-34 16 -76.5 31.5t-95 25t-100.5 9.5q-143 0 -214.5 -76t-86.5 -223l-17 -158h390l-37 -160h-369 l-20 -206q-8 -71 -30 -136t-47.5 -98t-45.5 -45h716v-172h-981z" />
<glyph unicode="&#xa4;" d="M86 328l139 141q-35 51 -55 112.5t-20 129.5t20 129.5t55 113.5l-139 140l123 120l139 -137q53 35 113.5 54.5t128.5 19.5q65 0 125.5 -18.5t120.5 -55.5l137 137l123 -120l-142 -142q38 -51 57 -112t19 -129q0 -66 -19 -127.5t-55 -114.5l140 -141l-123 -121l-139 139 q-53 -37 -114.5 -56.5t-129.5 -19.5q-66 0 -127.5 19.5t-114.5 56.5l-139 -139zM319 711q0 -58 21.5 -109.5t58.5 -90t86 -61t105 -22.5q80 0 147.5 46t96 112.5t28.5 124.5q0 84 -44.5 153t-108.5 99t-119 30q-81 0 -149.5 -48.5t-95 -112.5t-26.5 -121z" />
<glyph unicode="&#xa5;" horiz-adv-x="1165" d="M12 1423h205q58 -114 130 -243.5t124 -213.5t115 -175q101 151 204.5 329.5t161.5 302.5h201q-60 -126 -134.5 -260t-148.5 -250.5t-139 -207.5h275l-27 -115h-297v-176h324l-27 -115h-297v-299h-199v299h-327l26 115h301v176h-327l26 115h252q-100 140 -188.5 285 t-143.5 249.5t-90 183.5z" />
<glyph unicode="&#xa6;" horiz-adv-x="598" d="M225 -207v572h148v-572h-148zM225 934v571h148v-571h-148z" />
<glyph unicode="&#xa7;" horiz-adv-x="989" d="M102 57l48 150q27 -14 84.5 -32t110 -26t99.5 -8q71 0 117.5 10t73.5 28.5t38 45t11 58.5q0 51 -43.5 84t-107.5 52t-113 34q-62 18 -119 40t-100.5 55t-70 81.5t-26.5 118.5q0 69 29.5 122t69 80t71.5 41q-30 15 -59 36t-52 50.5t-37.5 68t-14.5 87.5q0 105 59 173.5 t152 94t184 25.5q114 0 193.5 -16.5t117.5 -30.5v-164q-43 14 -87 25t-106 19.5t-104 8.5q-108 0 -161.5 -31.5t-53.5 -97.5q0 -33 15 -55t45 -38.5t73.5 -30t100.5 -28.5q60 -17 122 -38.5t112.5 -56t83 -86.5t32.5 -130q0 -69 -29 -121.5t-66 -80.5t-63 -42 q72 -38 112 -96.5t40 -148.5q0 -78 -30.5 -135.5t-85 -95.5t-131 -57t-167.5 -19q-70 0 -129.5 9t-107 21.5t-80.5 25.5t-50 21zM295 768q0 -41 24.5 -68.5t64.5 -46.5t92 -33t108 -28q37 17 62 39t38.5 55.5t13.5 71.5q0 54 -41 88.5t-99.5 53t-113.5 32.5 q-45 -9 -81 -34.5t-52 -60t-16 -69.5z" />
<glyph unicode="&#xa8;" horiz-adv-x="823" d="M88 1282q0 50 34 83.5t87 33.5q42 0 71 -20.5t40.5 -46t11.5 -50.5q0 -37 -20 -64.5t-48.5 -39t-54.5 -11.5t-48.5 9t-38.5 25t-25 36.5t-9 44.5zM492 1282q0 36 19.5 65t47 40.5t53.5 11.5q42 0 71 -20.5t40.5 -46t11.5 -50.5q0 -37 -20 -64.5t-48 -39t-55 -11.5 q-26 0 -48 9t-38 25t-25 36.5t-9 44.5z" />
<glyph unicode="&#xa9;" horiz-adv-x="1745" d="M125 711q0 159 66 303t182 247t246.5 147t252.5 44q159 0 302.5 -63.5t249.5 -178t152 -245.5t46 -254q0 -160 -65.5 -302t-181 -246t-249.5 -148t-254 -44q-103 0 -198 26.5t-178 74.5t-151.5 116t-117 150t-75.5 176.5t-27 196.5zM287 711q0 -82 21 -157.5t59.5 -141.5 t92 -120t118.5 -92.5t139.5 -59.5t154.5 -21q125 0 237.5 50.5t195.5 141.5t119 195.5t36 204.5q0 126 -49.5 237.5t-140.5 197.5t-197 122.5t-201 36.5q-122 0 -236 -51.5t-196.5 -144t-117.5 -196.5t-35 -202zM500 705q0 101 26 183t76.5 139.5t125.5 88.5t173 31 q50 0 107 -12.5t106 -30.5v-150q-42 19 -92.5 34.5t-116.5 15.5q-71 0 -117.5 -23.5t-74.5 -63.5t-39.5 -93t-11.5 -111q0 -151 62 -221t187 -70q48 0 91 7.5t94 27.5l49 -131q-67 -28 -125.5 -39t-136.5 -11q-92 0 -163.5 31t-120.5 87.5t-74 135.5t-25 175z" />
<glyph unicode="&#xaa;" horiz-adv-x="725" d="M74 1044q0 97 55.5 149t133 67.5t167.5 15.5h49v22q0 45 -17 70t-51.5 34t-74.5 9q-62 0 -114.5 -12.5t-92.5 -28.5v123q125 33 221 33q139 0 205 -53t66 -168v-459h-138l-2 55q-23 -28 -70.5 -49t-115.5 -21q-43 0 -83 11t-70.5 36.5t-49 66t-18.5 99.5zM217 1042 q0 -19 5.5 -36.5t18 -30.5t33.5 -21t52 -8q55 0 95 19.5t58 44.5v157h-41q-91 0 -140 -14.5t-65 -44t-16 -66.5z" />
<glyph unicode="&#xab;" horiz-adv-x="1044" d="M74 522l268 412h209l-275 -412l275 -411h-209zM494 522l268 412h209l-275 -412l275 -411h-209z" />
<glyph unicode="&#xac;" d="M104 825v179h971v-582h-196v403h-775z" />
<glyph unicode="&#xad;" horiz-adv-x="737" d="M115 479v199h506v-199h-506z" />
<glyph unicode="&#xae;" horiz-adv-x="1745" d="M125 711q0 159 66 303t182 247t246.5 147t252.5 44q159 0 302.5 -63.5t249.5 -178t152 -245.5t46 -254q0 -160 -65.5 -302t-181 -246t-249.5 -148t-254 -44q-103 0 -198 26.5t-178 74.5t-151.5 116t-117 150t-75.5 176.5t-27 196.5zM287 711q0 -82 21 -157.5t59.5 -141.5 t92 -120t118.5 -92.5t139.5 -59.5t154.5 -21q125 0 237.5 50.5t195.5 141.5t119 195.5t36 204.5q0 126 -49.5 237.5t-140.5 197.5t-197 122.5t-201 36.5q-122 0 -236 -51.5t-196.5 -144t-117.5 -196.5t-35 -202zM565 291v844h287q142 0 215.5 -61t73.5 -179 q0 -71 -31.5 -129t-103.5 -92q47 -54 94.5 -128t83 -142.5t55.5 -112.5h-168q-28 57 -68 128t-80.5 128t-66.5 84h-147v-340h-144zM709 752h110q85 0 125.5 35.5t40.5 97.5q0 69 -39.5 98t-124.5 29h-112v-260z" />
<glyph unicode="&#xaf;" horiz-adv-x="823" d="M90 1206v150h643v-150h-643z" />
<glyph unicode="&#xb0;" horiz-adv-x="680" d="M53 1219q0 86 47.5 157t114 100t125.5 29q85 0 157.5 -47.5t102 -113.5t29.5 -125q0 -90 -49.5 -160.5t-115 -99.5t-124.5 -29t-111.5 23t-91.5 62.5t-61.5 92t-22.5 111.5zM195 1219q0 -31 11.5 -59t31 -49t46 -33.5t56.5 -12.5q45 0 80.5 26t51 61.5t15.5 66.5 q0 44 -24 81t-58 54.5t-65 17.5q-45 0 -81 -27t-50 -61.5t-14 -64.5z" />
<glyph unicode="&#xb1;" d="M104 51v176h971v-176h-971zM104 678v176h388v352h196v-352h387v-176h-387v-359h-196v359h-388z" />
<glyph unicode="&#xb2;" horiz-adv-x="946" d="M143 629v133q52 52 248 225q92 85 121 115t52.5 73.5t23.5 81.5q0 59 -36 90t-120 31q-73 0 -137.5 -26t-93.5 -47v151q44 20 80.5 32.5t85 21t98.5 8.5q155 0 231 -63t76 -185q0 -75 -41.5 -143t-97 -120.5t-98.5 -91.5q-23 -19 -68.5 -58t-97.5 -85h432v-143h-658z" />
<glyph unicode="&#xb3;" horiz-adv-x="944" d="M139 678l51 131q18 -11 62 -26t82 -21t78 -6q90 0 143 32.5t53 106.5q0 47 -26.5 76t-80 42t-116.5 13h-51v131h47q96 0 147.5 31t51.5 96q0 47 -36 74.5t-120 27.5q-78 0 -131.5 -19.5t-108.5 -47.5v143q22 11 60 24.5t95.5 22.5t115.5 9q113 0 184 -33t96 -83.5 t25 -96.5q0 -44 -13.5 -77t-34.5 -57t-47 -40.5t-51 -28.5q53 -12 95 -42.5t63 -76t21 -96.5q0 -89 -53.5 -154t-135.5 -91t-168 -26q-83 0 -151 14t-102.5 28.5t-43.5 19.5z" />
<glyph unicode="&#xb4;" horiz-adv-x="823" d="M203 1141l180 282h240l-215 -282h-205z" />
<glyph unicode="&#xb6;" horiz-adv-x="1257" d="M74 1022q0 142 71 237t182 129.5t222 34.5h524v-1638h-168v1487h-239v-1487h-168v840q-98 4 -176 35t-133.5 83t-85 123t-29.5 156z" />
<glyph unicode="&#xb7;" horiz-adv-x="518" d="M113 711q0 41 24 75.5t58 50t65 15.5q47 0 81.5 -24.5t50.5 -57t16 -59.5q0 -43 -25.5 -79t-58.5 -49.5t-64 -13.5t-57.5 11.5t-46.5 31t-31.5 45t-11.5 54.5z" />
<glyph unicode="&#xb8;" horiz-adv-x="823" d="M207 -375l170 273h239l-204 -273h-205z" />
<glyph unicode="&#xb9;" horiz-adv-x="952" d="M229 1294v136l215 75h146v-745h176v-131h-520v131h176v590q-32 -11 -95 -28t-98 -28z" />
<glyph unicode="&#xba;" horiz-adv-x="805" d="M84 1176q0 118 46 202t118.5 116t152.5 32q115 0 191.5 -55.5t102.5 -137t26 -157.5q0 -74 -21 -138t-61.5 -111.5t-100 -74.5t-137.5 -27q-77 0 -136 27t-99 74.5t-61 111.5t-21 138zM242 1176q0 -48 8 -90t27 -72.5t49.5 -48t74.5 -17.5q64 0 101 35t49 90t12 103 q0 75 -20.5 129t-59 77t-82.5 23q-63 0 -101 -38t-48 -90.5t-10 -100.5z" />
<glyph unicode="&#xbb;" horiz-adv-x="1044" d="M74 111l274 411l-274 412h209l268 -412l-268 -411h-209zM494 111l272 411l-272 412h208l269 -412l-269 -411h-208z" />
<glyph unicode="&#xbc;" horiz-adv-x="2034" d="M201 1294v136l215 75h146v-745h176v-131h-520v131h176v590q-32 -11 -95 -28t-98 -28zM492 0l907 1505h195l-908 -1505h-194zM1142 189v134q118 165 227 295.5t229 259.5h166v-560h101v-129h-101v-188h-161v188h-461zM1295 318h308v385q-86 -99 -171 -205t-137 -180z" />
<glyph unicode="&#xbd;" horiz-adv-x="2034" d="M201 1294v136l215 75h146v-745h176v-131h-520v131h176v590q-32 -11 -95 -28t-98 -28zM469 0l907 1505h195l-908 -1505h-194zM1229 -1v133q52 52 248 225q92 85 121 115t52.5 73.5t23.5 81.5q0 59 -36 90t-120 31q-73 0 -137.5 -26t-93.5 -47v151q44 20 80.5 32.5t85 21 t98.5 8.5q155 0 231 -63t76 -185q0 -75 -41.5 -143t-97 -120.5t-98.5 -91.5q-23 -19 -68.5 -58t-97.5 -85h432v-143h-658z" />
<glyph unicode="&#xbe;" horiz-adv-x="2034" d="M172 678l51 131q18 -11 62 -26t82 -21t78 -6q90 0 143 32.5t53 106.5q0 47 -26.5 76t-80 42t-116.5 13h-51v131h47q96 0 147.5 31t51.5 96q0 47 -36 74.5t-120 27.5q-78 0 -131.5 -19.5t-108.5 -47.5v143q22 11 60 24.5t95.5 22.5t115.5 9q113 0 184 -33t96 -83.5 t25 -96.5q0 -44 -13.5 -77t-34.5 -57t-47 -40.5t-51 -28.5q53 -12 95 -42.5t63 -76t21 -96.5q0 -89 -53.5 -154t-135.5 -91t-168 -26q-83 0 -151 14t-102.5 28.5t-43.5 19.5zM498 0l907 1505h195l-908 -1505h-194zM1143 189v134q118 165 227 295.5t229 259.5h166v-560h101 v-129h-101v-188h-161v188h-461zM1296 318h308v385q-86 -99 -171 -205t-137 -180z" />
<glyph unicode="&#xbf;" horiz-adv-x="1028" d="M135 326q0 100 41 172t88 108.5t76 57.5q64 46 96 86t42.5 84t10.5 86v65h195v-88q0 -99 -27.5 -165.5t-70 -105t-84.5 -69.5q-67 -45 -97 -73t-45.5 -67.5t-15.5 -84.5q0 -41 13.5 -74.5t41.5 -57.5t72 -37t104 -13q82 0 157.5 20.5t115 43t61.5 36.5v-189 q-39 -21 -91.5 -39.5t-121 -30t-141.5 -11.5q-102 0 -180.5 24.5t-131.5 69.5t-80.5 109t-27.5 143zM440 1311q0 41 23.5 75.5t58.5 50t66 15.5q46 0 80.5 -24.5t50.5 -56.5t16 -60q0 -42 -24.5 -77t-58 -49t-64.5 -14t-58 11t-47 30.5t-31.5 44.5t-11.5 54z" />
<glyph unicode="&#xc0;" horiz-adv-x="1247" d="M12 0q29 107 64.5 227.5t76.5 247t86.5 254.5t93 250.5t96.5 235.5t97 208h195q48 -95 97 -208t96.5 -235.5t93 -250.5t86.5 -254.5t76.5 -247t64.5 -227.5h-213q-47 177 -104 375h-599q-35 -131 -104 -375h-203zM326 1810h239l181 -282h-205zM373 539h495 q-52 161 -112.5 328.5t-137.5 355.5q-170 -438 -245 -684z" />
<glyph unicode="&#xc1;" horiz-adv-x="1247" d="M12 0q29 107 64.5 227.5t76.5 247t86.5 254.5t93 250.5t96.5 235.5t97 208h195q48 -95 97 -208t96.5 -235.5t93 -250.5t86.5 -254.5t76.5 -247t64.5 -227.5h-213q-47 177 -104 375h-599q-35 -131 -104 -375h-203zM373 539h495q-52 161 -112.5 328.5t-137.5 355.5 q-170 -438 -245 -684zM518 1528l180 282h240l-215 -282h-205z" />
<glyph unicode="&#xc2;" horiz-adv-x="1247" d="M12 0q29 107 64.5 227.5t76.5 247t86.5 254.5t93 250.5t96.5 235.5t97 208h195q48 -95 97 -208t96.5 -235.5t93 -250.5t86.5 -254.5t76.5 -247t64.5 -227.5h-213q-47 177 -104 375h-599q-35 -131 -104 -375h-203zM313 1528l236 282h176l235 -282h-198l-129 155l-127 -155 h-193zM373 539h495q-52 161 -112.5 328.5t-137.5 355.5q-170 -438 -245 -684z" />
<glyph unicode="&#xc3;" horiz-adv-x="1247" d="M12 0q29 107 64.5 227.5t76.5 247t86.5 254.5t93 250.5t96.5 235.5t97 208h195q48 -95 97 -208t96.5 -235.5t93 -250.5t86.5 -254.5t76.5 -247t64.5 -227.5h-213q-47 177 -104 375h-599q-35 -131 -104 -375h-203zM301 1599q32 106 83 151.5t117 45.5q35 0 72.5 -11 t85.5 -42q56 -37 77 -44t42 -7t36.5 9t28 31t21.5 50l115 -39q-26 -85 -61 -130.5t-72 -58t-70 -12.5q-38 0 -79 15t-79 38q-82 52 -117 52q-26 0 -47.5 -18t-40.5 -75zM373 539h495q-52 161 -112.5 328.5t-137.5 355.5q-170 -438 -245 -684z" />
<glyph unicode="&#xc4;" horiz-adv-x="1247" d="M12 0q29 107 64.5 227.5t76.5 247t86.5 254.5t93 250.5t96.5 235.5t97 208h195q48 -95 97 -208t96.5 -235.5t93 -250.5t86.5 -254.5t76.5 -247t64.5 -227.5h-213q-47 177 -104 375h-599q-35 -131 -104 -375h-203zM303 1669q0 50 34 83.5t87 33.5q42 0 71 -20.5t40.5 -46 t11.5 -50.5q0 -37 -20 -64.5t-48.5 -39t-54.5 -11.5t-48.5 9t-38.5 25t-25 36.5t-9 44.5zM373 539h495q-52 161 -112.5 328.5t-137.5 355.5q-170 -438 -245 -684zM707 1669q0 36 19.5 65t47 40.5t53.5 11.5q42 0 71 -20.5t40.5 -46t11.5 -50.5q0 -37 -20 -64.5t-48 -39 t-55 -11.5q-26 0 -48 9t-38 25t-25 36.5t-9 44.5z" />
<glyph unicode="&#xc5;" horiz-adv-x="1247" d="M12 0q49 180 108.5 369.5t128.5 384.5t131 345t118 267q-44 29 -69.5 76t-25.5 104q0 68 37 122t88 76.5t97 22.5q67 0 121 -37.5t77 -88t23 -95.5q0 -57 -26.5 -104t-69.5 -76q46 -96 92.5 -206t91.5 -227.5t87.5 -240t81 -242t72 -234t60.5 -216.5h-213 q-47 177 -104 375h-599q-35 -131 -104 -375h-203zM373 539h495q-52 161 -112.5 328.5t-137.5 355.5q-170 -438 -245 -684zM510 1546q0 -34 19.5 -65.5t45 -43.5t50.5 -12q35 0 62 20.5t38.5 48.5t11.5 52q0 32 -17.5 62t-44 43.5t-50.5 13.5q-34 0 -62.5 -20t-40.5 -48 t-12 -51z" />
<glyph unicode="&#xc6;" horiz-adv-x="1864" d="M6 0q84 195 179.5 393.5t197.5 388.5q92 169 186.5 326.5t198.5 314.5h973v-170h-625v-405h537v-168h-537v-510h660v-170h-865v403h-514q-129 -268 -182 -403h-209zM481 569h430v699q-2 -2 -19 -7.5t-20 -7.5q-77 -119 -151.5 -245.5t-153.5 -274.5q-20 -38 -86 -164z " />
<glyph unicode="&#xc7;" horiz-adv-x="1184" d="M127 711q0 172 41.5 308t122 230.5t199 144.5t272.5 50q109 0 201 -21t133 -41v-184q-52 21 -104 37t-104.5 24.5t-103.5 8.5q-100 0 -175 -29.5t-128 -83.5q-71 -72 -102 -184.5t-31 -263.5q0 -280 111 -413.5t321 -133.5q106 0 178.5 17t120.5 36l64 -160 q-72 -31 -167.5 -52t-217.5 -21q-155 0 -273 49.5t-197.5 143t-120 229.5t-40.5 309zM434 -375l170 273h239l-204 -273h-205z" />
<glyph unicode="&#xc8;" horiz-adv-x="1141" d="M188 0v1423h830v-170h-625v-405h537v-168h-537v-510h660v-170h-865zM346 1810h239l181 -282h-205z" />
<glyph unicode="&#xc9;" horiz-adv-x="1141" d="M188 0v1423h830v-170h-625v-405h537v-168h-537v-510h660v-170h-865zM486 1528l180 282h240l-215 -282h-205z" />
<glyph unicode="&#xca;" horiz-adv-x="1141" d="M188 0v1423h830v-170h-625v-405h537v-168h-537v-510h660v-170h-865zM274 1528l236 282h176l235 -282h-198l-129 155l-127 -155h-193z" />
<glyph unicode="&#xcb;" horiz-adv-x="1141" d="M188 0v1423h830v-170h-625v-405h537v-168h-537v-510h660v-170h-865zM283 1669q0 50 34 83.5t87 33.5q42 0 71 -20.5t40.5 -46t11.5 -50.5q0 -37 -20 -64.5t-48.5 -39t-54.5 -11.5t-48.5 9t-38.5 25t-25 36.5t-9 44.5zM687 1669q0 36 19.5 65t47 40.5t53.5 11.5 q42 0 71 -20.5t40.5 -46t11.5 -50.5q0 -37 -20 -64.5t-48 -39t-55 -11.5q-26 0 -48 9t-38 25t-25 36.5t-9 44.5z" />
<glyph unicode="&#xcc;" horiz-adv-x="582" d="M-17 1810h239l181 -282h-205zM188 0v1423h205v-1423h-205z" />
<glyph unicode="&#xcd;" horiz-adv-x="582" d="M188 0v1423h205v-1423h-205zM190 1528l180 282h240l-215 -282h-205z" />
<glyph unicode="&#xce;" horiz-adv-x="582" d="M-32 1528l236 282h176l235 -282h-198l-129 155l-127 -155h-193zM188 0v1423h205v-1423h-205z" />
<glyph unicode="&#xcf;" horiz-adv-x="582" d="M-32 1669q0 50 34 83.5t87 33.5q42 0 71 -20.5t40.5 -46t11.5 -50.5q0 -37 -20 -64.5t-48.5 -39t-54.5 -11.5t-48.5 9t-38.5 25t-25 36.5t-9 44.5zM188 0v1423h205v-1423h-205zM372 1669q0 36 19.5 65t47 40.5t53.5 11.5q42 0 71 -20.5t40.5 -46t11.5 -50.5 q0 -37 -20 -64.5t-48 -39t-55 -11.5q-26 0 -48 9t-38 25t-25 36.5t-9 44.5z" />
<glyph unicode="&#xd0;" horiz-adv-x="1384" d="M49 662l2 145h137v616h420q152 0 272 -44.5t203.5 -134t127.5 -223t44 -310.5t-44.5 -310.5t-127.5 -222.5t-203.5 -133.5t-271.5 -44.5h-420v662h-139zM393 170h217q100 0 179 34t133.5 101.5t83 169t28.5 236.5t-28.5 236.5t-83 169.5t-133.5 102t-179 34h-217v-446 h273v-145h-273v-492z" />
<glyph unicode="&#xd1;" horiz-adv-x="1399" d="M188 0v1423h197q71 -101 152.5 -224t164 -256.5t162 -272t148.5 -269.5v1022h198v-1423h-184q-149 289 -307.5 571t-331.5 555v-1126h-199zM375 1599q32 106 83 151.5t117 45.5q35 0 72.5 -11t85.5 -42q56 -37 77 -44t42 -7t36.5 9t28 31t21.5 50l115 -39 q-26 -85 -61 -130.5t-72 -58t-70 -12.5q-38 0 -79 15t-79 38q-82 52 -117 52q-26 0 -47.5 -18t-40.5 -75z" />
<glyph unicode="&#xd2;" horiz-adv-x="1442" d="M129 711q0 177 41.5 315t119 232.5t187 144t244.5 49.5t244.5 -49.5t187.5 -144t120 -232.5t42 -315t-42 -315t-120 -232.5t-187.5 -143.5t-244.5 -49t-244.5 49t-187 143.5t-119 232.5t-41.5 315zM350 711q0 -136 24 -242t71.5 -179t116.5 -111t159 -38t159.5 38 t117 111t72 179t24.5 242q0 138 -24.5 244.5t-72 179t-117 110t-159.5 37.5q-89 0 -158.5 -37.5t-116.5 -110t-71.5 -179t-24.5 -244.5zM449 1810h239l181 -282h-205z" />
<glyph unicode="&#xd3;" horiz-adv-x="1442" d="M129 711q0 177 41.5 315t119 232.5t187 144t244.5 49.5t244.5 -49.5t187.5 -144t120 -232.5t42 -315t-42 -315t-120 -232.5t-187.5 -143.5t-244.5 -49t-244.5 49t-187 143.5t-119 232.5t-41.5 315zM350 711q0 -136 24 -242t71.5 -179t116.5 -111t159 -38t159.5 38 t117 111t72 179t24.5 242q0 138 -24.5 244.5t-72 179t-117 110t-159.5 37.5q-89 0 -158.5 -37.5t-116.5 -110t-71.5 -179t-24.5 -244.5zM592 1528l180 282h240l-215 -282h-205z" />
<glyph unicode="&#xd4;" horiz-adv-x="1442" d="M129 711q0 177 41.5 315t119 232.5t187 144t244.5 49.5t244.5 -49.5t187.5 -144t120 -232.5t42 -315t-42 -315t-120 -232.5t-187.5 -143.5t-244.5 -49t-244.5 49t-187 143.5t-119 232.5t-41.5 315zM350 711q0 -136 24 -242t71.5 -179t116.5 -111t159 -38t159.5 38 t117 111t72 179t24.5 242q0 138 -24.5 244.5t-72 179t-117 110t-159.5 37.5q-89 0 -158.5 -37.5t-116.5 -110t-71.5 -179t-24.5 -244.5zM403 1528l236 282h176l235 -282h-198l-129 155l-127 -155h-193z" />
<glyph unicode="&#xd5;" horiz-adv-x="1442" d="M129 711q0 177 41.5 315t119 232.5t187 144t244.5 49.5t244.5 -49.5t187.5 -144t120 -232.5t42 -315t-42 -315t-120 -232.5t-187.5 -143.5t-244.5 -49t-244.5 49t-187 143.5t-119 232.5t-41.5 315zM350 711q0 -136 24 -242t71.5 -179t116.5 -111t159 -38t159.5 38 t117 111t72 179t24.5 242q0 138 -24.5 244.5t-72 179t-117 110t-159.5 37.5q-89 0 -158.5 -37.5t-116.5 -110t-71.5 -179t-24.5 -244.5zM404 1599q32 106 83 151.5t117 45.5q35 0 72.5 -11t85.5 -42q56 -37 77 -44t42 -7t36.5 9t28 31t21.5 50l115 -39q-26 -85 -61 -130.5 t-72 -58t-70 -12.5q-38 0 -79 15t-79 38q-82 52 -117 52q-26 0 -47.5 -18t-40.5 -75z" />
<glyph unicode="&#xd6;" horiz-adv-x="1442" d="M129 711q0 177 41.5 315t119 232.5t187 144t244.5 49.5t244.5 -49.5t187.5 -144t120 -232.5t42 -315t-42 -315t-120 -232.5t-187.5 -143.5t-244.5 -49t-244.5 49t-187 143.5t-119 232.5t-41.5 315zM350 711q0 -136 24 -242t71.5 -179t116.5 -111t159 -38t159.5 38 t117 111t72 179t24.5 242q0 138 -24.5 244.5t-72 179t-117 110t-159.5 37.5q-89 0 -158.5 -37.5t-116.5 -110t-71.5 -179t-24.5 -244.5zM399 1669q0 50 34 83.5t87 33.5q42 0 71 -20.5t40.5 -46t11.5 -50.5q0 -37 -20 -64.5t-48.5 -39t-54.5 -11.5t-48.5 9t-38.5 25 t-25 36.5t-9 44.5zM803 1669q0 36 19.5 65t47 40.5t53.5 11.5q42 0 71 -20.5t40.5 -46t11.5 -50.5q0 -37 -20 -64.5t-48 -39t-55 -11.5q-26 0 -48 9t-38 25t-25 36.5t-9 44.5z" />
<glyph unicode="&#xd7;" d="M178 424l287 287l-281 280l127 125l281 -280l282 286l130 -127l-285 -286l278 -279l-125 -127l-280 281l-287 -289z" />
<glyph unicode="&#xd8;" horiz-adv-x="1440" d="M127 711q0 177 42 315t119 232.5t187 144t246 49.5q80 0 152.5 -18.5t134.5 -53.5l104 189l121 -66l-115 -209q93 -94 144 -239.5t51 -343.5q0 -177 -42 -315t-119.5 -232.5t-187 -143.5t-243.5 -49q-166 0 -293 74l-100 -182l-123 65l112 203q-91 94 -140.5 239 t-49.5 341zM348 711q0 -118 20 -214.5t58 -168.5l492 891q-79 63 -197 63q-90 0 -159.5 -37.5t-117 -110t-72 -179t-24.5 -244.5zM518 207q81 -66 203 -66q75 0 142 37t118 109t81 178.5t30 245.5q0 121 -20 220t-60 171z" />
<glyph unicode="&#xd9;" horiz-adv-x="1374" d="M176 487v936h205v-931q0 -90 22.5 -154t62.5 -104.5t96 -59t124 -18.5q67 0 123.5 18.5t96.5 59t62.5 104.5t22.5 154v931h207v-936q0 -131 -38 -227t-106 -159.5t-162 -94.5t-206 -31q-111 0 -205 31t-161.5 94.5t-105.5 159.5t-38 227zM408 1810h239l181 -282h-205z " />
<glyph unicode="&#xda;" horiz-adv-x="1374" d="M176 487v936h205v-931q0 -90 22.5 -154t62.5 -104.5t96 -59t124 -18.5q67 0 123.5 18.5t96.5 59t62.5 104.5t22.5 154v931h207v-936q0 -131 -38 -227t-106 -159.5t-162 -94.5t-206 -31q-111 0 -205 31t-161.5 94.5t-105.5 159.5t-38 227zM553 1528l180 282h240l-215 -282 h-205z" />
<glyph unicode="&#xdb;" horiz-adv-x="1374" d="M176 487v936h205v-931q0 -90 22.5 -154t62.5 -104.5t96 -59t124 -18.5q67 0 123.5 18.5t96.5 59t62.5 104.5t22.5 154v931h207v-936q0 -131 -38 -227t-106 -159.5t-162 -94.5t-206 -31q-111 0 -205 31t-161.5 94.5t-105.5 159.5t-38 227zM350 1528l236 282h176l235 -282 h-198l-129 155l-127 -155h-193z" />
<glyph unicode="&#xdc;" horiz-adv-x="1374" d="M176 487v936h205v-931q0 -90 22.5 -154t62.5 -104.5t96 -59t124 -18.5q67 0 123.5 18.5t96.5 59t62.5 104.5t22.5 154v931h207v-936q0 -131 -38 -227t-106 -159.5t-162 -94.5t-206 -31q-111 0 -205 31t-161.5 94.5t-105.5 159.5t-38 227zM348 1669q0 50 34 83.5t87 33.5 q42 0 71 -20.5t40.5 -46t11.5 -50.5q0 -37 -20 -64.5t-48.5 -39t-54.5 -11.5t-48.5 9t-38.5 25t-25 36.5t-9 44.5zM752 1669q0 36 19.5 65t47 40.5t53.5 11.5q42 0 71 -20.5t40.5 -46t11.5 -50.5q0 -37 -20 -64.5t-48 -39t-55 -11.5q-26 0 -48 9t-38 25t-25 36.5t-9 44.5z " />
<glyph unicode="&#xdd;" horiz-adv-x="1198" d="M12 1423h217q28 -54 63 -120t81 -142.5t103 -163.5t128 -184q135 187 214.5 323.5t156.5 286.5h211q-71 -145 -167.5 -310t-176.5 -280.5t-140 -191.5v-641h-206v639q-89 111 -189.5 264.5t-173.5 286t-121 233.5zM506 1528l180 282h240l-215 -282h-205z" />
<glyph unicode="&#xde;" horiz-adv-x="1194" d="M188 0v1423h201v-206h234q114 0 202.5 -25.5t149.5 -76.5t93 -127.5t32 -178.5q0 -91 -31.5 -175.5t-99.5 -149t-165 -93.5t-204 -29h-211v-362h-201zM389 530h191q79 0 136.5 19t95 54t55.5 84.5t18 111.5q0 101 -42.5 157.5t-114.5 74.5t-148 18h-191v-519z" />
<glyph unicode="&#xdf;" horiz-adv-x="1227" d="M168 0v1116q0 85 22 158.5t76.5 134t143 89t188.5 28.5q147 0 236.5 -46t118 -114t28.5 -129q0 -67 -27.5 -120t-62 -86t-60.5 -56q-40 -36 -60 -57.5t-27 -41t-7 -40.5q0 -23 9.5 -41t31 -36t57 -39.5t87.5 -51.5q85 -51 133.5 -99.5t70 -112t21.5 -130.5 q0 -81 -28 -145.5t-78 -109t-119 -68t-152 -23.5q-103 0 -169.5 19t-106.5 42l55 143q24 -15 55 -26t67.5 -17t71.5 -6q90 0 142.5 47.5t52.5 132.5q0 65 -42 116t-142 110q-59 34 -102 63t-71 60.5t-41.5 68.5t-13.5 86q0 72 35.5 126.5t93.5 105.5q42 37 69.5 67.5 t37.5 59t10 57.5q0 63 -44 104t-138 41q-67 0 -110 -20t-68 -56t-35 -84.5t-10 -105.5v-1114h-199z" />
<glyph unicode="&#xe0;" horiz-adv-x="1069" d="M96 293q0 118 54 194.5t159 118.5q59 23 132.5 34t164.5 13q4 0 19.5 0.5t32.5 0.5t32.5 0.5t20.5 0.5v56q0 78 -28.5 120.5t-87.5 58t-126 15.5q-84 0 -155 -17t-136 -40v162q84 22 122 29t97 12.5t111 5.5q103 0 178.5 -20t124.5 -62t72.5 -107t23.5 -155v-713h-188 l-4 88q-30 -30 -76.5 -54.5t-108 -39t-114.5 -14.5q-65 0 -123.5 17t-102 54.5t-69 97t-25.5 144.5zM256 1423h239l181 -282h-205zM295 301q0 -51 21 -92.5t63 -58.5t92 -17q53 0 106.5 17t84.5 38.5t49 40.5v281h-74q-87 0 -151 -10.5t-106.5 -35.5t-63.5 -65t-21 -98z" />
<glyph unicode="&#xe1;" horiz-adv-x="1069" d="M96 293q0 118 54 194.5t159 118.5q59 23 132.5 34t164.5 13q4 0 19.5 0.5t32.5 0.5t32.5 0.5t20.5 0.5v56q0 78 -28.5 120.5t-87.5 58t-126 15.5q-84 0 -155 -17t-136 -40v162q84 22 122 29t97 12.5t111 5.5q103 0 178.5 -20t124.5 -62t72.5 -107t23.5 -155v-713h-188 l-4 88q-30 -30 -76.5 -54.5t-108 -39t-114.5 -14.5q-65 0 -123.5 17t-102 54.5t-69 97t-25.5 144.5zM295 301q0 -51 21 -92.5t63 -58.5t92 -17q53 0 106.5 17t84.5 38.5t49 40.5v281h-74q-87 0 -151 -10.5t-106.5 -35.5t-63.5 -65t-21 -98zM389 1141l180 282h240l-215 -282 h-205z" />
<glyph unicode="&#xe2;" horiz-adv-x="1069" d="M96 293q0 118 54 194.5t159 118.5q59 23 132.5 34t164.5 13q4 0 19.5 0.5t32.5 0.5t32.5 0.5t20.5 0.5v56q0 78 -28.5 120.5t-87.5 58t-126 15.5q-84 0 -155 -17t-136 -40v162q84 22 122 29t97 12.5t111 5.5q103 0 178.5 -20t124.5 -62t72.5 -107t23.5 -155v-713h-188 l-4 88q-30 -30 -76.5 -54.5t-108 -39t-114.5 -14.5q-65 0 -123.5 17t-102 54.5t-69 97t-25.5 144.5zM201 1141l236 282h176l235 -282h-198l-129 155l-127 -155h-193zM295 301q0 -51 21 -92.5t63 -58.5t92 -17q53 0 106.5 17t84.5 38.5t49 40.5v281h-74q-87 0 -151 -10.5 t-106.5 -35.5t-63.5 -65t-21 -98z" />
<glyph unicode="&#xe3;" horiz-adv-x="1069" d="M96 293q0 118 54 194.5t159 118.5q59 23 132.5 34t164.5 13q4 0 19.5 0.5t32.5 0.5t32.5 0.5t20.5 0.5v56q0 78 -28.5 120.5t-87.5 58t-126 15.5q-84 0 -155 -17t-136 -40v162q84 22 122 29t97 12.5t111 5.5q103 0 178.5 -20t124.5 -62t72.5 -107t23.5 -155v-713h-188 l-4 88q-30 -30 -76.5 -54.5t-108 -39t-114.5 -14.5q-65 0 -123.5 17t-102 54.5t-69 97t-25.5 144.5zM193 1212q32 106 83 151.5t117 45.5q35 0 72.5 -11t85.5 -42q56 -37 77 -44t42 -7t36.5 9t28 31t21.5 50l115 -39q-26 -85 -61 -130.5t-72 -58t-70 -12.5q-38 0 -79 15 t-79 38q-82 52 -117 52q-26 0 -47.5 -18t-40.5 -75zM295 301q0 -51 21 -92.5t63 -58.5t92 -17q53 0 106.5 17t84.5 38.5t49 40.5v281h-74q-87 0 -151 -10.5t-106.5 -35.5t-63.5 -65t-21 -98z" />
<glyph unicode="&#xe4;" horiz-adv-x="1069" d="M96 293q0 118 54 194.5t159 118.5q59 23 132.5 34t164.5 13q4 0 19.5 0.5t32.5 0.5t32.5 0.5t20.5 0.5v56q0 78 -28.5 120.5t-87.5 58t-126 15.5q-84 0 -155 -17t-136 -40v162q84 22 122 29t97 12.5t111 5.5q103 0 178.5 -20t124.5 -62t72.5 -107t23.5 -155v-713h-188 l-4 88q-30 -30 -76.5 -54.5t-108 -39t-114.5 -14.5q-65 0 -123.5 17t-102 54.5t-69 97t-25.5 144.5zM192 1282q0 50 34 83.5t87 33.5q42 0 71 -20.5t40.5 -46t11.5 -50.5q0 -37 -20 -64.5t-48.5 -39t-54.5 -11.5t-48.5 9t-38.5 25t-25 36.5t-9 44.5zM295 301q0 -51 21 -92.5 t63 -58.5t92 -17q53 0 106.5 17t84.5 38.5t49 40.5v281h-74q-87 0 -151 -10.5t-106.5 -35.5t-63.5 -65t-21 -98zM596 1282q0 36 19.5 65t47 40.5t53.5 11.5q42 0 71 -20.5t40.5 -46t11.5 -50.5q0 -37 -20 -64.5t-48 -39t-55 -11.5q-26 0 -48 9t-38 25t-25 36.5t-9 44.5z" />
<glyph unicode="&#xe5;" horiz-adv-x="1069" d="M96 293q0 118 54 194.5t159 118.5q59 23 132.5 34t164.5 13q4 0 19.5 0.5t32.5 0.5t32.5 0.5t20.5 0.5v56q0 78 -28.5 120.5t-87.5 58t-126 15.5q-84 0 -155 -17t-136 -40v162q84 22 122 29t97 12.5t111 5.5q103 0 178.5 -20t124.5 -62t72.5 -107t23.5 -155v-713h-188 l-4 88q-30 -30 -76.5 -54.5t-108 -39t-114.5 -14.5q-65 0 -123.5 17t-102 54.5t-69 97t-25.5 144.5zM295 301q0 -51 21 -92.5t63 -58.5t92 -17q53 0 106.5 17t84.5 38.5t49 40.5v281h-74q-87 0 -151 -10.5t-106.5 -35.5t-63.5 -65t-21 -98zM311 1362q0 69 37.5 124t88 76 t96.5 21q70 0 123.5 -37t75.5 -87.5t22 -96.5q0 -71 -37 -124.5t-88 -75t-96 -21.5q-46 0 -86.5 17t-70.5 47t-47.5 70.5t-17.5 86.5zM420 1362q0 -24 8.5 -45.5t24 -38t36 -26t44.5 -9.5q35 0 61.5 19t38.5 47.5t12 52.5q0 32 -17 62.5t-44 44.5t-51 14q-35 0 -63.5 -21 t-39 -48.5t-10.5 -51.5z" />
<glyph unicode="&#xe6;" horiz-adv-x="1681" d="M96 295q0 119 53.5 193t153.5 114q63 25 137.5 36.5t165.5 14.5q4 0 19.5 0.5t32.5 0.5t32.5 0.5t20.5 0.5v56q0 77 -30.5 120.5t-87.5 58.5t-124 15q-84 0 -155 -17t-136 -40v162q84 22 122 29t97 12.5t111 5.5q125 0 209 -36t125 -112q34 50 88 86t115.5 51t119.5 15 q200 0 303 -122.5t103 -360.5q0 -32 -1 -63.5t-1 -57.5h-662q13 -157 89 -240.5t225 -83.5q68 0 135 10.5t112 22.5l39 -152q-65 -20 -141 -29.5t-176 -9.5q-122 0 -216 37.5t-151 108.5q-74 -62 -164.5 -101.5t-209.5 -39.5q-78 0 -142.5 17.5t-111.5 55t-73 97.5t-26 145z M295 301q0 -53 22.5 -93t65 -56.5t94.5 -16.5q69 0 140.5 24.5t134.5 78.5q-20 49 -32.5 107.5t-12.5 123.5v41h-70q-87 0 -151 -10.5t-106.5 -35.5t-63.5 -65t-21 -98zM903 600h461v47q0 128 -52 198t-161 70q-118 0 -180 -82.5t-68 -232.5z" />
<glyph unicode="&#xe7;" horiz-adv-x="944" d="M121 516q0 124 33 223.5t96 169.5t155 107t211 37q83 0 156.5 -13.5t97.5 -23.5v-164q-16 4 -40 10.5t-52.5 11.5t-60.5 9t-64 4q-157 0 -238 -89.5t-81 -279.5q0 -187 76.5 -276.5t228.5 -89.5q74 0 134 12t87 24l47 -155q-57 -20 -128.5 -34.5t-170.5 -14.5 q-117 0 -208 36.5t-153 105t-94 167t-32 223.5zM285 -375l170 273h239l-204 -273h-205z" />
<glyph unicode="&#xe8;" horiz-adv-x="1106" d="M121 516q0 121 30 221.5t88 172.5t144 111.5t197 39.5q207 0 312 -125t105 -358q0 -69 -4 -121h-661q12 -157 88 -240.5t225 -83.5q69 0 134 9.5t114 23.5l39 -152q-65 -20 -140.5 -29.5t-175.5 -9.5q-118 0 -210 38t-155.5 108.5t-96.5 170.5t-33 224zM326 1423h239 l181 -282h-205zM328 600h460v47q0 128 -51.5 198t-161.5 70q-116 0 -177 -83t-70 -232z" />
<glyph unicode="&#xe9;" horiz-adv-x="1106" d="M121 516q0 121 30 221.5t88 172.5t144 111.5t197 39.5q207 0 312 -125t105 -358q0 -69 -4 -121h-661q12 -157 88 -240.5t225 -83.5q69 0 134 9.5t114 23.5l39 -152q-65 -20 -140.5 -29.5t-175.5 -9.5q-118 0 -210 38t-155.5 108.5t-96.5 170.5t-33 224zM328 600h460v47 q0 128 -51.5 198t-161.5 70q-116 0 -177 -83t-70 -232zM459 1141l180 282h240l-215 -282h-205z" />
<glyph unicode="&#xea;" horiz-adv-x="1106" d="M121 516q0 121 30 221.5t88 172.5t144 111.5t197 39.5q207 0 312 -125t105 -358q0 -69 -4 -121h-661q12 -157 88 -240.5t225 -83.5q69 0 134 9.5t114 23.5l39 -152q-65 -20 -140.5 -29.5t-175.5 -9.5q-118 0 -210 38t-155.5 108.5t-96.5 170.5t-33 224zM264 1141l236 282 h176l235 -282h-198l-129 155l-127 -155h-193zM328 600h460v47q0 128 -51.5 198t-161.5 70q-116 0 -177 -83t-70 -232z" />
<glyph unicode="&#xeb;" horiz-adv-x="1106" d="M121 516q0 121 30 221.5t88 172.5t144 111.5t197 39.5q207 0 312 -125t105 -358q0 -69 -4 -121h-661q12 -157 88 -240.5t225 -83.5q69 0 134 9.5t114 23.5l39 -152q-65 -20 -140.5 -29.5t-175.5 -9.5q-118 0 -210 38t-155.5 108.5t-96.5 170.5t-33 224zM266 1282 q0 50 34 83.5t87 33.5q42 0 71 -20.5t40.5 -46t11.5 -50.5q0 -37 -20 -64.5t-48.5 -39t-54.5 -11.5t-48.5 9t-38.5 25t-25 36.5t-9 44.5zM328 600h460v47q0 128 -51.5 198t-161.5 70q-116 0 -177 -83t-70 -232zM670 1282q0 36 19.5 65t47 40.5t53.5 11.5q42 0 71 -20.5 t40.5 -46t11.5 -50.5q0 -37 -20 -64.5t-48 -39t-55 -11.5q-26 0 -48 9t-38 25t-25 36.5t-9 44.5z" />
<glyph unicode="&#xec;" horiz-adv-x="571" d="M-31 1423h239l181 -282h-205zM55 905v131h334v-1036h-199v889q-92 13 -135 16z" />
<glyph unicode="&#xed;" horiz-adv-x="571" d="M55 905v131h334v-1036h-199v889q-92 13 -135 16zM141 1141l180 282h240l-215 -282h-205z" />
<glyph unicode="&#xee;" horiz-adv-x="571" d="M-73 1141l236 282h176l235 -282h-198l-129 155l-127 -155h-193zM55 905v131h334v-1036h-199v889q-92 13 -135 16z" />
<glyph unicode="&#xef;" horiz-adv-x="571" d="M-63 1282q0 50 34 83.5t87 33.5q42 0 71 -20.5t40.5 -46t11.5 -50.5q0 -37 -20 -64.5t-48.5 -39t-54.5 -11.5t-48.5 9t-38.5 25t-25 36.5t-9 44.5zM55 905v131h334v-1036h-199v889q-92 13 -135 16zM341 1282q0 36 19.5 65t47 40.5t53.5 11.5q42 0 71 -20.5t40.5 -46 t11.5 -50.5q0 -37 -20 -64.5t-48 -39t-55 -11.5q-26 0 -48 9t-38 25t-25 36.5t-9 44.5z" />
<glyph unicode="&#xf0;" horiz-adv-x="1180" d="M121 485q0 113 29 206.5t84.5 160.5t136 104t182.5 37q48 0 88 -8.5t71 -22t52.5 -29t32.5 -30.5q-29 90 -85 178t-143 162l-129 -121l-84 84l115 111q-74 50 -166 84l55 125q65 -19 122.5 -44.5t111.5 -56.5l106 101l86 -84l-90 -86q144 -113 231 -274.5t110.5 -299.5 t23.5 -233q0 -128 -31.5 -233.5t-91.5 -181t-147.5 -117.5t-200.5 -42t-200.5 38.5t-147 107t-90.5 161.5t-31 203zM334 485q0 -73 13.5 -137t43.5 -112t79 -75.5t120 -27.5q102 0 161.5 56t78 139.5t18.5 156.5q0 118 -32.5 200.5t-93.5 117.5t-132 35t-120 -28.5 t-79 -76.5t-43.5 -112t-13.5 -136z" />
<glyph unicode="&#xf1;" horiz-adv-x="1186" d="M168 0v1036h190l4 -145q47 74 129.5 120t196.5 46q122 0 200 -51t107 -129.5t29 -157.5v-719h-199v662q0 117 -49 171t-149 54q-80 0 -145 -48t-90 -113t-25 -124v-602h-199zM254 1212q32 106 83 151.5t117 45.5q35 0 72.5 -11t85.5 -42q56 -37 77 -44t42 -7t36.5 9 t28 31t21.5 50l115 -39q-26 -85 -61 -130.5t-72 -58t-70 -12.5q-38 0 -79 15t-79 38q-82 52 -117 52q-26 0 -47.5 -18t-40.5 -75z" />
<glyph unicode="&#xf2;" horiz-adv-x="1180" d="M121 518q0 120 30 220t89 171.5t146.5 111.5t203.5 40q117 0 205 -40t147 -111.5t89 -171.5t30 -220q0 -115 -31.5 -214.5t-91.5 -172.5t-147.5 -114.5t-200.5 -41.5q-112 0 -199.5 41.5t-147.5 114.5t-91 172.5t-31 214.5zM326 1423h239l181 -282h-205zM334 518 q0 -81 13.5 -151t43.5 -122t79 -82t120 -30q102 0 161.5 61t78 152t18.5 172q0 129 -33 219.5t-93.5 128t-131.5 37.5t-120 -30t-79 -82.5t-43.5 -122.5t-13.5 -150z" />
<glyph unicode="&#xf3;" horiz-adv-x="1180" d="M121 518q0 120 30 220t89 171.5t146.5 111.5t203.5 40q117 0 205 -40t147 -111.5t89 -171.5t30 -220q0 -115 -31.5 -214.5t-91.5 -172.5t-147.5 -114.5t-200.5 -41.5q-112 0 -199.5 41.5t-147.5 114.5t-91 172.5t-31 214.5zM334 518q0 -81 13.5 -151t43.5 -122t79 -82 t120 -30q102 0 161.5 61t78 152t18.5 172q0 129 -33 219.5t-93.5 128t-131.5 37.5t-120 -30t-79 -82.5t-43.5 -122.5t-13.5 -150zM459 1141l180 282h240l-215 -282h-205z" />
<glyph unicode="&#xf4;" horiz-adv-x="1180" d="M121 518q0 120 30 220t89 171.5t146.5 111.5t203.5 40q117 0 205 -40t147 -111.5t89 -171.5t30 -220q0 -115 -31.5 -214.5t-91.5 -172.5t-147.5 -114.5t-200.5 -41.5q-112 0 -199.5 41.5t-147.5 114.5t-91 172.5t-31 214.5zM270 1141l236 282h176l235 -282h-198l-129 155 l-127 -155h-193zM334 518q0 -81 13.5 -151t43.5 -122t79 -82t120 -30q102 0 161.5 61t78 152t18.5 172q0 129 -33 219.5t-93.5 128t-131.5 37.5t-120 -30t-79 -82.5t-43.5 -122.5t-13.5 -150z" />
<glyph unicode="&#xf5;" horiz-adv-x="1180" d="M121 518q0 120 30 220t89 171.5t146.5 111.5t203.5 40q117 0 205 -40t147 -111.5t89 -171.5t30 -220q0 -115 -31.5 -214.5t-91.5 -172.5t-147.5 -114.5t-200.5 -41.5q-112 0 -199.5 41.5t-147.5 114.5t-91 172.5t-31 214.5zM254 1212q32 106 83 151.5t117 45.5 q35 0 72.5 -11t85.5 -42q56 -37 77 -44t42 -7t36.5 9t28 31t21.5 50l115 -39q-26 -85 -61 -130.5t-72 -58t-70 -12.5q-38 0 -79 15t-79 38q-82 52 -117 52q-26 0 -47.5 -18t-40.5 -75zM334 518q0 -81 13.5 -151t43.5 -122t79 -82t120 -30q102 0 161.5 61t78 152t18.5 172 q0 129 -33 219.5t-93.5 128t-131.5 37.5t-120 -30t-79 -82.5t-43.5 -122.5t-13.5 -150z" />
<glyph unicode="&#xf6;" horiz-adv-x="1180" d="M121 518q0 120 30 220t89 171.5t146.5 111.5t203.5 40q117 0 205 -40t147 -111.5t89 -171.5t30 -220q0 -115 -31.5 -214.5t-91.5 -172.5t-147.5 -114.5t-200.5 -41.5q-112 0 -199.5 41.5t-147.5 114.5t-91 172.5t-31 214.5zM268 1282q0 50 34 83.5t87 33.5q42 0 71 -20.5 t40.5 -46t11.5 -50.5q0 -37 -20 -64.5t-48.5 -39t-54.5 -11.5t-48.5 9t-38.5 25t-25 36.5t-9 44.5zM334 518q0 -81 13.5 -151t43.5 -122t79 -82t120 -30q102 0 161.5 61t78 152t18.5 172q0 129 -33 219.5t-93.5 128t-131.5 37.5t-120 -30t-79 -82.5t-43.5 -122.5t-13.5 -150 zM672 1282q0 36 19.5 65t47 40.5t53.5 11.5q42 0 71 -20.5t40.5 -46t11.5 -50.5q0 -37 -20 -64.5t-48 -39t-55 -11.5q-26 0 -48 9t-38 25t-25 36.5t-9 44.5z" />
<glyph unicode="&#xf7;" d="M104 627v176h971v-176h-971zM449 356q0 39 23.5 72t56 47t61.5 14q41 0 75.5 -22t49 -53t14.5 -58q0 -41 -23 -73t-55 -46t-61 -14t-55 11t-45 29t-30 42t-11 51zM449 1073q0 39 23.5 72t55.5 47t62 14q41 0 75.5 -22t49 -53t14.5 -58q0 -41 -24.5 -75t-55 -46t-59.5 -12 q-43 0 -78 22t-49 53t-14 58z" />
<glyph unicode="&#xf8;" horiz-adv-x="1180" d="M121 518q0 120 30 220t89 171.5t146.5 111.5t203.5 40q65 0 121 -13.5t104 -37.5l84 141l100 -53l-92 -154q76 -72 115 -180.5t39 -245.5q0 -115 -31.5 -214.5t-91.5 -172.5t-147.5 -114.5t-200.5 -41.5q-63 0 -120 14t-105 42l-82 -140l-103 52l92 155 q-74 73 -112.5 181t-38.5 239zM332 518q0 -69 11 -132.5t34 -113.5l352 592q-56 41 -139 41q-71 0 -120 -30.5t-80 -83t-44.5 -123t-13.5 -150.5zM451 174q27 -20 61 -31.5t78 -11.5q101 0 162 61t79.5 153t18.5 173q0 69 -11 133t-36 115z" />
<glyph unicode="&#xf9;" horiz-adv-x="1186" d="M162 322v714h198v-671q0 -116 48.5 -167t148.5 -51q55 0 103 22.5t83.5 61.5t55.5 90.5t20 110.5v604h199v-1036h-193l-2 145q-46 -75 -129.5 -120t-197.5 -45q-160 0 -247 85.5t-87 256.5zM316 1423h239l181 -282h-205z" />
<glyph unicode="&#xfa;" horiz-adv-x="1186" d="M162 322v714h198v-671q0 -116 48.5 -167t148.5 -51q55 0 103 22.5t83.5 61.5t55.5 90.5t20 110.5v604h199v-1036h-193l-2 145q-46 -75 -129.5 -120t-197.5 -45q-160 0 -247 85.5t-87 256.5zM469 1141l180 282h240l-215 -282h-205z" />
<glyph unicode="&#xfb;" horiz-adv-x="1186" d="M162 322v714h198v-671q0 -116 48.5 -167t148.5 -51q55 0 103 22.5t83.5 61.5t55.5 90.5t20 110.5v604h199v-1036h-193l-2 145q-46 -75 -129.5 -120t-197.5 -45q-160 0 -247 85.5t-87 256.5zM268 1141l236 282h176l235 -282h-198l-129 155l-127 -155h-193z" />
<glyph unicode="&#xfc;" horiz-adv-x="1186" d="M162 322v714h198v-671q0 -116 48.5 -167t148.5 -51q55 0 103 22.5t83.5 61.5t55.5 90.5t20 110.5v604h199v-1036h-193l-2 145q-46 -75 -129.5 -120t-197.5 -45q-160 0 -247 85.5t-87 256.5zM268 1282q0 50 34 83.5t87 33.5q42 0 71 -20.5t40.5 -46t11.5 -50.5 q0 -37 -20 -64.5t-48.5 -39t-54.5 -11.5t-48.5 9t-38.5 25t-25 36.5t-9 44.5zM672 1282q0 36 19.5 65t47 40.5t53.5 11.5q42 0 71 -20.5t40.5 -46t11.5 -50.5q0 -37 -20 -64.5t-48 -39t-55 -11.5q-26 0 -48 9t-38 25t-25 36.5t-9 44.5z" />
<glyph unicode="&#xfd;" horiz-adv-x="1028" d="M-37 -397l41 147q16 -6 46.5 -13t72.5 -7q83 0 141.5 51.5t108.5 157.5l61 129q-89 158 -178 352t-149.5 348t-98.5 268h213q25 -78 59 -170t75 -191.5t88 -202.5t98 -204q67 163 110 283t88.5 262.5t67.5 222.5h209q-72 -226 -143 -422t-136.5 -354t-118.5 -268 q-86 -176 -148 -262.5t-144.5 -125t-173.5 -38.5q-75 0 -122.5 13.5t-66.5 23.5zM404 1141l180 282h240l-215 -282h-205z" />
<glyph unicode="&#xfe;" horiz-adv-x="1196" d="M168 -414v1919h194v-620q27 52 76 93.5t109.5 60t124.5 18.5q144 0 239 -75.5t129.5 -199t34.5 -250.5q0 -131 -29 -234t-85.5 -173.5t-140 -107.5t-191.5 -37q-88 0 -152 22.5t-110 60.5v-477h-199zM367 238q45 -45 99 -71t122 -26q72 0 126.5 28t80.5 70t39 83 q14 45 21 97t7 109q0 123 -30 207.5t-88 119t-126 34.5q-60 0 -107 -28.5t-79 -79.5t-48.5 -122t-16.5 -155v-266z" />
<glyph unicode="&#xff;" horiz-adv-x="1028" d="M-37 -397l41 147q16 -6 46.5 -13t72.5 -7q83 0 141.5 51.5t108.5 157.5l61 129q-89 158 -178 352t-149.5 348t-98.5 268h213q25 -78 59 -170t75 -191.5t88 -202.5t98 -204q67 163 110 283t88.5 262.5t67.5 222.5h209q-72 -226 -143 -422t-136.5 -354t-118.5 -268 q-86 -176 -148 -262.5t-144.5 -125t-173.5 -38.5q-75 0 -122.5 13.5t-66.5 23.5zM199 1282q0 50 34 83.5t87 33.5q42 0 71 -20.5t40.5 -46t11.5 -50.5q0 -37 -20 -64.5t-48.5 -39t-54.5 -11.5t-48.5 9t-38.5 25t-25 36.5t-9 44.5zM603 1282q0 36 19.5 65t47 40.5t53.5 11.5 q42 0 71 -20.5t40.5 -46t11.5 -50.5q0 -37 -20 -64.5t-48 -39t-55 -11.5q-26 0 -48 9t-38 25t-25 36.5t-9 44.5z" />
<glyph unicode="&#x152;" horiz-adv-x="2046" d="M129 711q0 177 41.5 315t118 232.5t183.5 144t239 49.5q61 0 118.5 -11.5t107.5 -35.5t90.5 -61t68.5 -87v166h827v-170h-629v-405h541v-168h-541v-510h664v-170h-862v164q-62 -94 -164 -143.5t-223 -49.5q-131 0 -238 49t-183 143.5t-117.5 232.5t-41.5 315zM350 711 q0 -136 24 -242t71.5 -179t116.5 -111t159 -38t159.5 38t117 111t72 179t24.5 242q0 138 -24.5 244.5t-72 179t-117 110t-159.5 37.5q-89 0 -158.5 -37.5t-116.5 -110t-71.5 -179t-24.5 -244.5z" />
<glyph unicode="&#x153;" horiz-adv-x="1821" d="M121 514q0 121 30 222t88.5 173t145.5 112t201 40q246 0 362 -189q113 189 355 189q201 0 304 -125t103 -358q0 -32 -1 -63.5t-1 -57.5h-661q12 -157 88 -240.5t225 -83.5q69 0 131.5 9t116.5 24l39 -152q-65 -20 -141.5 -29.5t-176.5 -9.5q-127 0 -225 47.5t-158 149.5 q-52 -91 -145 -144t-221 -53q-108 0 -193.5 41t-144.5 113t-90 170.5t-31 214.5zM334 518q0 -81 13.5 -151t43.5 -122t79 -82t120 -30q102 0 161.5 61t78 152t18.5 172q0 129 -33 219.5t-93.5 128t-131.5 37.5t-120 -30t-79 -82.5t-43.5 -122.5t-13.5 -150zM1042 600h461v47 q0 128 -51.5 198t-161.5 70q-116 0 -177 -83t-71 -232z" />
<glyph unicode="&#x178;" horiz-adv-x="1198" d="M12 1423h217q28 -54 63 -120t81 -142.5t103 -163.5t128 -184q135 187 214.5 323.5t156.5 286.5h211q-71 -145 -167.5 -310t-176.5 -280.5t-140 -191.5v-641h-206v639q-89 111 -189.5 264.5t-173.5 286t-121 233.5zM287 1669q0 50 34 83.5t87 33.5q42 0 71 -20.5t40.5 -46 t11.5 -50.5q0 -37 -20 -64.5t-48.5 -39t-54.5 -11.5t-48.5 9t-38.5 25t-25 36.5t-9 44.5zM691 1669q0 36 19.5 65t47 40.5t53.5 11.5q42 0 71 -20.5t40.5 -46t11.5 -50.5q0 -37 -20 -64.5t-48 -39t-55 -11.5q-26 0 -48 9t-38 25t-25 36.5t-9 44.5z" />
<glyph unicode="&#x2c6;" horiz-adv-x="823" d="M88 1141l236 282h176l235 -282h-198l-129 155l-127 -155h-193z" />
<glyph unicode="&#x2dc;" horiz-adv-x="823" d="M72 1212q32 106 83 151.5t117 45.5q35 0 72.5 -11t85.5 -42q56 -37 77 -44t42 -7t36.5 9t28 31t21.5 50l115 -39q-26 -85 -61 -130.5t-72 -58t-70 -12.5q-38 0 -79 15t-79 38q-82 52 -117 52q-26 0 -47.5 -18t-40.5 -75z" />
<glyph unicode="&#x2000;" horiz-adv-x="905" />
<glyph unicode="&#x2001;" horiz-adv-x="1810" />
<glyph unicode="&#x2002;" horiz-adv-x="905" />
<glyph unicode="&#x2003;" horiz-adv-x="1810" />
<glyph unicode="&#x2004;" horiz-adv-x="603" />
<glyph unicode="&#x2005;" horiz-adv-x="452" />
<glyph unicode="&#x2006;" horiz-adv-x="301" />
<glyph unicode="&#x2007;" horiz-adv-x="301" />
<glyph unicode="&#x2008;" horiz-adv-x="226" />
<glyph unicode="&#x2009;" horiz-adv-x="362" />
<glyph unicode="&#x200a;" horiz-adv-x="100" />
<glyph unicode="&#x2010;" horiz-adv-x="737" d="M115 479v199h506v-199h-506z" />
<glyph unicode="&#x2011;" horiz-adv-x="737" d="M115 479v199h506v-199h-506z" />
<glyph unicode="&#x2012;" horiz-adv-x="737" d="M115 479v199h506v-199h-506z" />
<glyph unicode="&#x2013;" horiz-adv-x="1024" d="M0 451v161h1024v-161h-1024z" />
<glyph unicode="&#x2014;" horiz-adv-x="2048" d="M0 451v161h2048v-161h-2048z" />
<glyph unicode="&#x2018;" horiz-adv-x="506" d="M121 1157q0 59 16 115t40 104t53.5 86.5t56.5 63.5l104 -78q-22 -27 -40.5 -60.5t-31 -76t-12.5 -78.5q0 -101 70 -143l-15 -80h-215q-12 28 -19 67.5t-7 79.5z" />
<glyph unicode="&#x2019;" horiz-adv-x="506" d="M115 1067q27 39 41.5 64.5t28.5 70t14 80.5q0 50 -17.5 86t-54.5 57l16 80h213q13 -28 21 -67.5t8 -79.5q0 -81 -30.5 -160.5t-71 -132t-66.5 -76.5z" />
<glyph unicode="&#x201a;" horiz-adv-x="514" d="M125 -166q7 12 20 33t25.5 49t21.5 61t9 68q0 48 -18.5 84t-55.5 57l14 82h244q12 -32 18.5 -71.5t6.5 -71.5q0 -83 -31.5 -162t-72 -131.5t-70.5 -81.5z" />
<glyph unicode="&#x201c;" horiz-adv-x="862" d="M106 1157q0 80 30 159.5t69.5 132t66.5 77.5l105 -78q-18 -20 -38.5 -57t-33 -79.5t-12.5 -78.5q0 -50 17 -86t52 -57l-14 -80h-215q-12 28 -19.5 67.5t-7.5 79.5zM496 1157q0 59 16 115t40 104t53.5 86.5t56.5 63.5l104 -78q-18 -20 -38.5 -57t-33 -79.5t-12.5 -78.5 q0 -101 70 -143l-15 -80h-215q-12 28 -19 67.5t-7 79.5z" />
<glyph unicode="&#x201d;" horiz-adv-x="862" d="M98 1067q18 22 39.5 60.5t33 78.5t11.5 76q0 50 -17 86t-54 57l16 80h213q12 -28 20.5 -67.5t8.5 -79.5q0 -78 -31.5 -160t-71 -133.5t-65.5 -75.5zM487 1067q14 18 36 57t34 80.5t12 77.5q0 50 -16 86t-53 57l16 80h213q12 -28 20.5 -67.5t8.5 -79.5q0 -81 -30.5 -160.5 t-70.5 -131.5t-67 -77z" />
<glyph unicode="&#x201e;" horiz-adv-x="862" d="M98 -170q21 30 40 64.5t31.5 75t12.5 75.5q0 102 -71 143l16 80h213q12 -28 20.5 -67.5t8.5 -77.5q0 -77 -31 -157.5t-70.5 -134t-66.5 -79.5zM487 -170q17 24 36.5 59.5t32.5 78t13 77.5q0 51 -16 86.5t-53 56.5l16 80h213q12 -28 20.5 -67.5t8.5 -77.5 q0 -80 -29.5 -157.5t-70.5 -132.5t-68 -81z" />
<glyph unicode="&#x2022;" horiz-adv-x="866" d="M94 690q0 70 26.5 132t72.5 108t107.5 73t131.5 27q105 0 188.5 -57.5t117.5 -135t34 -147.5q0 -102 -56.5 -187t-134 -119t-147.5 -34q-71 0 -132.5 27t-108 73.5t-73 108t-26.5 131.5z" />
<glyph unicode="&#x2026;" horiz-adv-x="2068" d="M205 121q0 39 23 75t57.5 50t66.5 14q47 0 81.5 -22.5t50.5 -55.5t16 -61q0 -44 -24.5 -77.5t-59 -48.5t-64.5 -15q-32 0 -58.5 11.5t-46.5 30.5t-31 44.5t-11 54.5zM887 121q0 39 23 75t57.5 50t66.5 14q47 0 81.5 -22.5t50.5 -55.5t16 -61q0 -44 -24.5 -77.5 t-58.5 -48.5t-65 -15q-32 0 -58.5 11.5t-46.5 30.5t-31 44.5t-11 54.5zM1569 121q0 39 23 75t57.5 50t66.5 14q47 0 81.5 -22.5t50.5 -55.5t16 -61q0 -44 -24.5 -77.5t-58.5 -48.5t-65 -15q-32 0 -58.5 11.5t-46.5 30.5t-31 44.5t-11 54.5z" />
<glyph unicode="&#x202f;" horiz-adv-x="362" />
<glyph unicode="&#x2039;" horiz-adv-x="625" d="M74 522l268 412h209l-275 -412l275 -411h-209z" />
<glyph unicode="&#x203a;" horiz-adv-x="625" d="M74 111l274 411l-274 412h209l268 -412l-268 -411h-209z" />
<glyph unicode="&#x205f;" horiz-adv-x="452" />
<glyph unicode="&#x20ac;" horiz-adv-x="1198" d="M63 530l31 117h139q-2 23 -2 47v51q0 64 7 113h-175l31 117h164q27 120 82.5 208t130.5 146t165.5 86.5t188.5 28.5q113 0 188 -20.5t148 -49.5l-57 -164q-15 8 -63 24.5t-101 25t-100 8.5q-57 0 -113.5 -14t-106 -47.5t-89 -90t-62.5 -141.5h545l-33 -117h-535 q-8 -62 -8 -108q0 -70 4 -103h455l-33 -117h-407q16 -101 51.5 -171t85 -114.5t111.5 -64.5t131 -20q81 0 146.5 13.5t119.5 33.5l59 -164q-56 -23 -145.5 -43t-204.5 -20q-107 0 -200.5 33t-167.5 100.5t-125 171t-72 245.5h-183z" />
<glyph unicode="&#x2122;" horiz-adv-x="1847" d="M59 1290v133h660v-133h-252v-708h-156v708h-252zM795 582q0 150 7 328.5t14.5 292.5t19.5 220h165l216 -567l215 567h163q9 -95 22.5 -358.5t16.5 -482.5h-143q0 253 -14 608l-203 -543h-121l-201 537q-14 -483 -14 -602h-143z" />
<glyph unicode="&#x25fc;" horiz-adv-x="1035" d="M0 0v1035h1035v-1035h-1035z" />
<glyph unicode="&#xfb01;" horiz-adv-x="1145" d="M43 881v155h125v99q0 195 101.5 293t310.5 98q79 0 148 -11.5t128 -25.5v-158q-84 18 -140 26.5t-124 8.5q-64 0 -107 -15t-69.5 -44t-37.5 -72t-11 -100v-99h610v-1036h-199v881h-411v-881h-199v881h-125z" />
<glyph unicode="&#xfb02;" horiz-adv-x="1157" d="M43 881v155h125v90q0 116 36 193t95.5 123t135.5 65t157 19q103 0 201 -23t142.5 -43.5t55.5 -23.5v-1436h-198v1325q-24 10 -58 21.5t-73 18.5t-76 7q-88 0 -137.5 -32.5t-65.5 -91.5t-16 -128v-84h229v-155h-227v-881h-199v881h-127z" />
</font>
</defs>
</svg>
