<?xml version="1.0" standalone="no"?>
<!DOCTYPE svg PUBLIC "-//W3C//DTD SVG 1.1//EN" "http://www.w3.org/Graphics/SVG/1.1/DTD/svg11.dtd" >
<svg xmlns="http://www.w3.org/2000/svg">
<metadata></metadata>
<defs>
<font id="sparkasse_ltitalic" horiz-adv-x="1116" >
<font-face units-per-em="2048" ascent="1638" descent="-410" />
<missing-glyph horiz-adv-x="471" />
<glyph horiz-adv-x="0" />
<glyph unicode="&#xd;" horiz-adv-x="471" />
<glyph unicode=" "  horiz-adv-x="471" />
<glyph unicode="&#x09;" horiz-adv-x="471" />
<glyph unicode="&#xa0;" horiz-adv-x="471" />
<glyph unicode="!" horiz-adv-x="489" d="M145 98q0 33 20.5 63.5t48 43t50.5 12.5q33 0 62.5 -20.5t43 -48t13.5 -50.5q0 -33 -20.5 -62.5t-48 -42.5t-50.5 -13q-34 0 -64 20.5t-42.5 47.5t-12.5 50zM244 414l153 1009h148l-166 -1009h-135z" />
<glyph unicode="&#x22;" horiz-adv-x="768" d="M322 1061l69 444h146l-70 -444h-145zM635 1061l70 444h145l-70 -444h-145z" />
<glyph unicode="#" horiz-adv-x="1141" d="M152 453l16 104h223l90 311h-209l17 105h223l133 450h121l-133 -450h262l133 450h121l-133 -450h198l-16 -105h-213l-90 -311h199l-17 -104h-213l-133 -453h-121l133 453h-262l-133 -453h-121l133 453h-208zM512 557h262l90 311h-262z" />
<glyph unicode="$" horiz-adv-x="1044" d="M113 88l49 111q15 -10 44 -25.5t71 -29.5t95 -24.5t115 -10.5l91 577l-23 10q-51 23 -102 52.5t-91.5 69.5t-66 93.5t-25.5 124.5q0 126 66 218.5t166 130.5t196 45l15 96h96l-14 -94q75 -5 128 -16t88 -23t46 -15l-21 -125q-32 14 -62.5 24.5t-89 23t-108.5 14.5 l-86 -543q70 -31 124.5 -66t92 -77t57 -92.5t19.5 -112.5q0 -95 -32.5 -170.5t-89.5 -130t-133 -87t-163 -40.5l-18 -123h-96l18 119q-77 2 -137 14.5t-104 27.5t-72.5 30.5t-42.5 23.5zM403 1053q0 -39 10.5 -71.5t34 -61t61 -54.5t91.5 -51l78 498q-95 -10 -160 -51 t-90 -97t-25 -112zM584 115q79 10 143 54t91.5 106.5t27.5 127.5q0 84 -45 140.5t-133 101.5z" />
<glyph unicode="%" horiz-adv-x="1880" d="M303 952q0 99 24 203t79 192.5t132 129.5t158 41q99 0 158 -52t77.5 -125.5t18.5 -136.5q0 -106 -26 -209t-79 -188.5t-128 -126.5t-160 -41q-70 0 -118.5 25.5t-78.5 68t-43.5 99.5t-13.5 120zM418 0l1134 1505h148l-1135 -1505h-147zM428 961q0 -41 6.5 -80.5 t22.5 -70.5t44 -50t72 -19q59 0 106 40t76.5 101.5t44 123t20 111t5.5 79.5q0 70 -16 121.5t-51 75.5t-78 24q-71 0 -123.5 -54.5t-81.5 -137.5t-38 -148t-9 -116zM1167 301q0 100 25 206t80 192t131 126.5t158 40.5q99 0 158 -52t77.5 -125t18.5 -136q0 -103 -26 -207 t-79.5 -190t-128.5 -127t-160 -41q-70 0 -118.5 25.5t-78.5 68t-43.5 99.5t-13.5 120zM1292 309q0 -41 6.5 -80t23 -70t44.5 -50t72 -19q71 0 121 52t81 136t40.5 157t9.5 110q0 40 -6.5 80t-23 71t-44.5 50.5t-72 19.5q-71 0 -123.5 -54.5t-81.5 -137.5t-38 -148t-9 -117z " />
<glyph unicode="&#x26;" horiz-adv-x="1296" d="M162 338q0 97 35.5 169t93.5 128t131.5 99t150.5 81q-48 64 -77.5 119t-39.5 101.5t-10 92.5q0 111 54 186.5t136.5 103.5t160.5 28q99 0 169 -34.5t102 -94t32 -123.5q0 -113 -58 -193t-141 -130t-151 -85q79 -97 118 -149q81 -109 179 -270q43 65 66.5 137t25.5 143 h114q-4 -74 -24.5 -147.5t-52 -135t-64.5 -106.5q38 -68 70.5 -133.5t52.5 -124.5h-150q-28 67 -69 154q-67 -62 -143.5 -102t-155.5 -56t-150 -16q-85 0 -159 22t-128.5 66.5t-86 111.5t-31.5 158zM299 348q0 -65 20.5 -112.5t58.5 -78t91.5 -45t120.5 -14.5q108 0 202 44 t166 116q-79 137 -204 322q-29 42 -59 79t-56 72q-128 -67 -200 -123t-106 -123t-34 -137zM571 1137q0 -71 33 -137t80 -130q108 55 171 101.5t90.5 99t27.5 105.5q0 87 -51 128.5t-134 41.5q-73 0 -126 -34.5t-72 -82.5t-19 -92z" />
<glyph unicode="'" horiz-adv-x="465" d="M299 1061l70 444h145l-70 -444h-145z" />
<glyph unicode="(" horiz-adv-x="580" d="M205 393q0 225 61.5 445.5t160 387.5t198.5 279h135q-61 -69 -114.5 -151t-99 -172.5t-81.5 -187t-61 -195t-38.5 -196.5t-13.5 -191q0 -120 17.5 -240.5t50 -217.5t69.5 -161h-135q-78 136 -113.5 290t-35.5 310z" />
<glyph unicode=")" horiz-adv-x="580" d="M25 -207q90 104 165 235.5t129 275.5t83.5 293.5t29.5 289.5q0 119 -18 240t-50 216.5t-69 161.5h135q79 -136 114.5 -290t35.5 -310q0 -150 -28 -300t-82 -293.5t-132 -275t-178 -243.5h-135z" />
<glyph unicode="*" horiz-adv-x="795" d="M250 1210l37 103l248 -82v274h110v-274l248 82l37 -103l-252 -82l153 -210l-88 -66l-153 211l-154 -211l-88 66l154 210z" />
<glyph unicode="+" d="M170 651l20 127h416l68 428h133l-68 -428h414l-20 -127h-414l-68 -434h-133l68 434h-416z" />
<glyph unicode="," horiz-adv-x="463" d="M100 -150q31 32 52.5 58.5t39 69t17.5 85.5q0 31 -10 59t-39 50l16 59h193q8 -24 8 -67q0 -64 -17 -122t-46.5 -108.5t-68 -91.5t-81.5 -71z" />
<glyph unicode="-" horiz-adv-x="688" d="M203 469h430l24 158h-430z" />
<glyph unicode="." horiz-adv-x="463" d="M129 98q0 33 20.5 63.5t48 43t50.5 12.5q33 0 62.5 -20.5t43 -48t13.5 -50.5q0 -33 -20.5 -62.5t-48 -42.5t-50.5 -13q-34 0 -64 20.5t-42.5 47.5t-12.5 50z" />
<glyph unicode="/" horiz-adv-x="500" d="M0 0l610 1505h127l-610 -1505h-127z" />
<glyph unicode="0" d="M211 428q0 208 40.5 399t124 340t189 213t213.5 64q112 0 195 -55t120 -160.5t37 -233.5q0 -130 -16 -255.5t-48 -238t-79.5 -208t-110.5 -165.5t-141.5 -109t-171.5 -39q-67 0 -130 22t-112.5 74t-79.5 138t-30 214zM358 412q0 -59 8.5 -116.5t31 -103t62.5 -74 t103 -28.5q135 0 237 149.5t142.5 362.5t40.5 410q0 58 -8.5 115.5t-31.5 103t-63 74t-104 28.5q-60 0 -114 -32t-100.5 -90.5t-84 -141.5t-64 -185.5t-41 -221.5t-14.5 -250z" />
<glyph unicode="1" d="M238 0l16 109h242l184 1155q-31 -10 -139.5 -46t-139.5 -49l21 127l307 127h113l-209 -1314h241l-16 -109h-620z" />
<glyph unicode="2" d="M84 0l16 109q72 89 174.5 194t229.5 223q140 132 179.5 171t99 114.5t91 153t31.5 147.5q0 73 -29 122t-84.5 70t-125.5 21q-97 0 -180 -35t-126 -63l19 133q28 17 69 36t107 33.5t135 14.5q136 0 223.5 -54t115.5 -130t28 -140q0 -67 -19.5 -129t-51.5 -119.5 t-74 -110.5t-88 -101t-92.5 -91t-86.5 -80q-297 -276 -381 -370h674l-20 -119h-834z" />
<glyph unicode="3" d="M104 63l58 109q38 -23 74.5 -38t96 -25.5t124.5 -10.5q125 0 215 55t124.5 136t34.5 157q0 86 -32 141t-115 82t-201 27h-28l18 119h29q70 0 141.5 14.5t128.5 50t93 95.5t36 151q0 63 -27 110t-86 70t-137 23q-103 0 -184 -29.5t-133 -58.5l18 131q52 22 85.5 35t102 25 t136.5 12q138 0 226 -49.5t115 -118.5t27 -129q0 -87 -27.5 -152.5t-70 -113t-94.5 -77.5t-100 -46q70 -17 123.5 -60.5t78.5 -106t25 -132.5q0 -97 -35 -184t-102.5 -152.5t-165 -104t-223.5 -38.5q-84 0 -147 12t-106.5 26.5t-67 28t-28.5 16.5z" />
<glyph unicode="4" d="M121 346l16 111q180 252 378.5 492.5t412.5 473.5h133l-154 -968h148l-17 -109h-147l-55 -346h-134l56 346h-637zM270 455h504l125 786q-164 -187 -320 -384.5t-309 -401.5z" />
<glyph unicode="5" d="M147 70l60 108q24 -20 71.5 -40.5t96.5 -30t94 -9.5q127 0 222 65t135 173t40 225q0 91 -32.5 150t-100 85.5t-151.5 26.5q-63 0 -126 -10.5t-105 -21.5t-50 -13l145 645h635l-18 -118h-524l-88 -387q28 5 75 11.5t92 6.5q158 0 252 -65t119 -152t25 -156 q0 -119 -37.5 -225t-106 -185.5t-166 -126t-217.5 -46.5q-79 0 -139 11.5t-102 27t-66.5 30.5t-32.5 21z" />
<glyph unicode="6" d="M203 401q0 117 19.5 240t59 239t100.5 218.5t145 179.5t191 121.5t238 44.5q51 0 89 -5.5t49 -8.5l-19 -117q-63 14 -141 14q-87 0 -167 -29t-149 -94.5t-125.5 -170.5t-95.5 -257q40 59 96 98.5t118 55.5t124 16q133 0 213 -65t103.5 -151t23.5 -157q0 -131 -31.5 -240 t-93 -187.5t-153 -122t-211.5 -43.5q-74 0 -131.5 17.5t-100 48.5t-71.5 72t-47 87.5t-25.5 97t-7.5 98.5zM338 367q0 -24 3.5 -54t13.5 -60.5t27.5 -59.5t45.5 -51.5t68.5 -36t95.5 -13.5q81 0 143.5 34t106 95t66 146t22.5 186q0 84 -24 146.5t-80.5 97t-133.5 34.5 q-95 0 -162.5 -39t-110 -104t-62 -148.5t-19.5 -172.5z" />
<glyph unicode="7" d="M287 0q68 142 155.5 318.5t198.5 386.5q89 167 210 364t146 236h-696l18 118h834l-18 -118q-48 -73 -131 -209.5t-203 -354.5q-21 -38 -78.5 -146.5t-121 -233.5t-111.5 -222.5t-66 -138.5h-137z" />
<glyph unicode="8" d="M133 309q0 82 28.5 149.5t80 121t122.5 94t156 69.5q-100 56 -151 118t-61.5 113.5t-10.5 86.5q0 91 35 163t96 122t143 76t177 26q99 0 171.5 -25t120 -66t70.5 -94t23 -108q0 -69 -25 -129.5t-69.5 -112t-105.5 -94t-132 -74.5q104 -56 160 -121t71 -125.5t15 -105.5 q0 -95 -39 -172.5t-105.5 -132t-156 -84t-189.5 -29.5q-110 0 -190 28.5t-132 75t-77 106.5t-25 124zM274 319q0 -75 45 -131t112.5 -78t139.5 -22q101 0 181 45t114.5 116t34.5 148q0 66 -26.5 116t-91 95.5t-146.5 81.5q-88 -30 -155.5 -65.5t-113.5 -80.5t-70 -100.5 t-24 -124.5zM426 1083q0 -43 10.5 -80.5t39 -72t79 -67t131.5 -66.5q59 24 115 55.5t99 73.5t69 95.5t26 121.5q0 62 -36 109.5t-98 69t-130 21.5q-63 0 -118.5 -19t-97 -53.5t-65.5 -82t-24 -105.5z" />
<glyph unicode="9" d="M219 -8l29 114q40 -10 135 -10q87 0 167 29.5t149 95.5t125.5 173t95.5 263q-40 -59 -95.5 -98.5t-119 -55.5t-123.5 -16q-95 0 -159.5 30.5t-105 81.5t-58 118t-17.5 141q0 129 31.5 236.5t93 185.5t153 121t211.5 43q152 0 243.5 -76.5t115.5 -176t24 -175.5 q0 -116 -19.5 -237.5t-59 -236.5t-101 -217.5t-145 -179t-190.5 -121t-239 -44.5q-51 0 -86.5 3.5t-54.5 8.5zM383 870q0 -42 7.5 -89t32.5 -87t71.5 -66t123.5 -26q95 0 162.5 38t110 102t62.5 147t20 172q0 36 -8.5 82.5t-35.5 88.5t-77 70.5t-133 28.5q-81 0 -143.5 -34 t-105 -95t-65 -145.5t-22.5 -186.5z" />
<glyph unicode=":" horiz-adv-x="463" d="M129 98q0 33 20.5 63.5t48 43t50.5 12.5q33 0 62.5 -20.5t43 -48t13.5 -50.5q0 -33 -20.5 -62.5t-48 -42.5t-50.5 -13q-34 0 -64 20.5t-42.5 47.5t-12.5 50zM258 909q0 33 20.5 63.5t47.5 43t51 12.5q33 0 62.5 -20.5t43 -48.5t13.5 -50q0 -33 -20.5 -62.5t-48 -42.5 t-50.5 -13q-34 0 -64 20.5t-42.5 47.5t-12.5 50z" />
<glyph unicode=";" horiz-adv-x="463" d="M100 -150l64 -79q69 49 119.5 117.5t72 140t21.5 135.5q0 23 -3 42t-5 25h-193l-16 -59q29 -22 39 -50t10 -59q0 -56 -24.5 -103t-50.5 -74t-34 -36zM258 909q0 -23 10 -44t26.5 -37.5t38 -26.5t44.5 -10q33 0 63 20.5t43 47.5t13 50q0 33 -20.5 62.5t-48.5 43t-50 13.5 q-34 0 -63.5 -20.5t-42.5 -48t-13 -50.5z" />
<glyph unicode="&#x3c;" d="M188 653l19 123l1032 430l-22 -143l-861 -354l746 -361l-21 -131z" />
<glyph unicode="=" d="M147 449l21 126h962l-20 -126h-963zM211 854l20 127h963l-20 -127h-963z" />
<glyph unicode="&#x3e;" d="M100 217l23 143l860 355l-745 360l20 131l893 -436l-18 -123z" />
<glyph unicode="?" horiz-adv-x="975" d="M324 1241l20 131q40 22 95 41t114.5 29t114.5 10q105 0 189.5 -38t122.5 -104t38 -141q0 -104 -40 -177.5t-102.5 -124t-117.5 -87.5q-75 -49 -112 -89t-55.5 -87t-27.5 -100l-14 -88h-131l14 92q14 89 43 148.5t66.5 101t80 70.5t83.5 57q64 43 99.5 83t50.5 88t15 97 t-18.5 84t-49.5 57t-71.5 32.5t-83.5 10.5q-83 0 -168.5 -24.5t-154.5 -71.5zM326 98q0 33 20.5 63t47.5 43t50 13q33 0 62.5 -20.5t43 -48t13.5 -50.5q0 -33 -20.5 -62.5t-48 -42.5t-50.5 -13q-33 0 -63 20.5t-42.5 47.5t-12.5 50z" />
<glyph unicode="@" horiz-adv-x="1868" d="M231 430q0 152 49.5 293t143.5 255t213 185.5t228.5 96t213.5 24.5q118 0 221 -25t189 -71t153.5 -111t114.5 -145t71.5 -173t24.5 -194q0 -136 -39.5 -243.5t-103.5 -182.5t-144.5 -115t-162.5 -40q-57 0 -95 12.5t-62 32t-36.5 44t-19.5 48.5q-35 -44 -87.5 -78 t-103 -47.5t-94.5 -13.5q-69 0 -125 19t-95.5 59t-61 102t-21.5 147q0 139 41.5 247.5t108.5 182.5t151 113t168 39q78 0 135.5 -25t89.5 -71l15 77h114l-110 -616q-6 -36 -6 -72q0 -26 10 -42.5t25.5 -25.5t34 -12.5t36.5 -3.5q92 0 167.5 78.5t106.5 185t31 205.5 q0 125 -45.5 233.5t-129 188.5t-201 126t-261.5 46q-162 0 -302.5 -63t-235.5 -174.5t-135.5 -242.5t-40.5 -263q0 -171 55.5 -307t151.5 -231t225.5 -146t277.5 -51q127 0 240.5 29t204.5 75l49 -111q-71 -36 -154 -62t-168.5 -39t-154.5 -13q-201 0 -361.5 66.5 t-272.5 183t-171.5 275t-59.5 341.5zM739 315q0 -45 10.5 -85t33.5 -70.5t60 -48t91 -17.5q83 0 146.5 50t95.5 121t43 136l47 277q-26 33 -51.5 54.5t-66 34.5t-85.5 13q-60 0 -118 -32.5t-104 -92.5t-74 -146t-28 -194z" />
<glyph unicode="A" horiz-adv-x="1157" d="M10 0q67 164 162 366.5t193 394t194 361.5t180 301h127q37 -120 77 -284.5t74 -337.5t61 -334t43 -274t26 -193h-143q-19 173 -58 432h-608q-134 -299 -188 -432h-140zM393 545h535q-26 173 -61 358.5t-87 388.5q-114 -193 -211 -383t-176 -364z" />
<glyph unicode="B" horiz-adv-x="1212" d="M193 0l225 1423h385q116 0 187 -29t110 -72t52 -93t13 -92q0 -106 -47 -190t-108 -124t-109 -57q122 -25 188 -102t66 -205q0 -91 -31.5 -174t-96 -146.5t-162 -101t-228.5 -37.5h-444zM346 117h256q142 0 235 44t128.5 125t35.5 175q0 88 -44.5 142.5t-122.5 74.5 t-166 20h-230zM457 813h200q125 0 211.5 44t119 114t32.5 141q0 70 -23 112.5t-82 62.5t-139 20h-241z" />
<glyph unicode="C" horiz-adv-x="1118" d="M227 543q0 162 38 309t112.5 266.5t175.5 195.5t199.5 103t195.5 27q86 0 153.5 -14t104.5 -28.5t51 -21.5l-20 -129q-31 16 -84 31t-108.5 25t-102.5 10q-97 0 -176.5 -29.5t-142 -82.5t-108 -125.5t-75.5 -159.5t-44.5 -184t-14.5 -199q0 -95 19 -174t63.5 -136 t116.5 -89t178 -32q103 0 171 17t115 37l39 -117q-66 -27 -151 -45t-195 -18q-133 0 -229 39t-158.5 112t-92.5 177t-30 235z" />
<glyph unicode="D" horiz-adv-x="1315" d="M193 0l225 1423h360q147 0 248.5 -41.5t164.5 -113.5t91.5 -169t28.5 -208q0 -118 -20 -229.5t-59.5 -210.5t-98.5 -182t-138 -142.5t-178 -93t-217 -33.5h-407zM350 119h242q144 0 250 62t176 167t104.5 242.5t34.5 288.5q0 84 -17.5 161.5t-61 136t-116 93.5t-182.5 35 h-241z" />
<glyph unicode="E" horiz-adv-x="1090" d="M193 0l225 1423h768l-19 -118h-628l-76 -471h543l-19 -117h-541l-96 -598h662l-19 -119h-800z" />
<glyph unicode="F" horiz-adv-x="993" d="M193 0l225 1423h758l-19 -118h-618l-76 -471h532l-18 -117h-531l-114 -717h-139z" />
<glyph unicode="G" horiz-adv-x="1270" d="M229 557q0 159 38 301t113 261.5t180 196.5t206 103.5t201 26.5q105 0 175.5 -16.5t143.5 -40.5l-20 -132q-24 11 -81 27t-118.5 25.5t-118.5 9.5q-128 0 -232.5 -56.5t-178.5 -160.5t-114 -250.5t-40 -325.5q0 -91 22 -168.5t72 -134.5t130 -89t196 -32q75 0 126 6t66 9 l80 506h-248l19 120h389l-117 -741q-83 -7 -163.5 -12.5t-180.5 -5.5q-129 0 -230.5 35t-171 106t-106.5 178.5t-37 253.5z" />
<glyph unicode="H" horiz-adv-x="1333" d="M193 0l225 1423h139l-90 -573h670l90 573h139l-225 -1423h-140l115 729h-670l-114 -729h-139z" />
<glyph unicode="I" horiz-adv-x="524" d="M193 0l225 1423h139l-225 -1423h-139z" />
<glyph unicode="J" horiz-adv-x="918" d="M51 68l58 106q4 -3 22 -15.5t48.5 -26.5t72.5 -25t94 -11q69 0 122 19.5t91 56.5q43 42 68 107t41 161l155 983h140l-156 -987q-19 -114 -54 -199t-98 -147q-54 -53 -129 -84t-174 -31q-88 0 -163 24t-105 45t-33 24z" />
<glyph unicode="K" horiz-adv-x="1163" d="M193 0l225 1423h139l-98 -624l663 624h176l-708 -665q115 -108 235 -258.5t201.5 -281.5t126.5 -218h-166q-48 86 -107 179t-127.5 185.5t-146.5 179.5t-164 161l-110 -705h-139z" />
<glyph unicode="L" horiz-adv-x="975" d="M193 0l225 1423h139l-207 -1304h602l-18 -119h-741z" />
<glyph unicode="M" horiz-adv-x="1569" d="M180 0q29 178 64 369.5t74 387.5t74.5 357t72.5 309h172l207 -1099l557 1099h172q-6 -88 -16.5 -201t-24 -239.5t-29.5 -260.5t-32.5 -263t-33 -247t-30.5 -212h-139q12 73 25 164.5t27.5 195.5t29 217t29.5 228.5t29 230t28 221.5l-572 -1140h-106l-209 1151 q-26 -130 -94 -491.5t-138 -776.5h-137z" />
<glyph unicode="N" horiz-adv-x="1333" d="M193 0l225 1423h147q141 -275 259 -567t225 -584l182 1151h135l-225 -1423h-129q-109 314 -227 625.5t-261 611.5l-196 -1237h-135z" />
<glyph unicode="O" horiz-adv-x="1372" d="M229 508q0 213 52 387.5t143 298t214.5 191t266.5 67.5q126 0 214 -42.5t143.5 -116t80.5 -171t25 -207.5q0 -213 -52 -387.5t-143 -298t-214.5 -191t-266.5 -67.5q-126 0 -214 42.5t-143.5 116t-80.5 171t-25 207.5zM383 506q0 -41 4 -88t15.5 -93t32.5 -88.5t55.5 -75 t83.5 -52t116 -19.5q129 0 231.5 76t170 205t95 272t27.5 275q0 83 -14.5 156.5t-51.5 135t-101 92.5t-140 31q-128 0 -233 -77t-171.5 -207t-93 -271.5t-26.5 -271.5z" />
<glyph unicode="P" horiz-adv-x="1133" d="M193 0l225 1423h397q156 0 247 -51.5t116.5 -129t25.5 -150.5q0 -92 -31.5 -181t-95.5 -159t-161.5 -113t-229.5 -43h-264l-94 -596h-135zM440 713h230q130 0 222.5 55.5t126.5 142.5t34 176q0 84 -36 134.5t-105 68t-146 17.5h-231z" />
<glyph unicode="Q" horiz-adv-x="1372" d="M229 508q0 213 52 387.5t143 298t214.5 191t266.5 67.5q126 0 214 -42.5t143.5 -116t80.5 -171t25 -207.5q0 -197 -47.5 -369.5t-123 -278.5t-148.5 -165q43 -60 91.5 -117.5t94.5 -105.5l-86 -84q-60 63 -108 124t-89 118q-57 -32 -122.5 -49t-137.5 -17 q-126 0 -214 42.5t-143.5 116t-80.5 171t-25 207.5zM383 506q0 -41 4 -88t15.5 -93t32.5 -88.5t55.5 -75t83.5 -52t116 -19.5q51 0 98.5 12.5t92.5 38.5q-42 68 -72 123.5t-47 93.5l98 48q45 -98 113 -197q87 82 144 211.5t77 259.5t20 238q0 83 -14.5 156.5t-51.5 135 t-101 92.5t-140 31q-128 0 -233 -77t-171.5 -207t-93 -271.5t-26.5 -271.5z" />
<glyph unicode="R" horiz-adv-x="1223" d="M193 0l225 1423h389q154 0 244 -50t116.5 -126.5t26.5 -146.5q0 -120 -51.5 -218t-129.5 -153t-157 -80q53 -75 99 -158.5t84.5 -168t69.5 -167t54 -155.5h-157q-45 132 -96 249.5t-105.5 213.5t-97.5 153h-281l-98 -616h-135zM444 733h220q88 0 158 24t119 70t75 113.5 t26 155.5q0 78 -32 125.5t-90.5 66.5t-126.5 19h-258z" />
<glyph unicode="S" horiz-adv-x="1044" d="M92 74l53 112q27 -19 84.5 -41.5t127 -34.5t135.5 -12q175 0 272.5 74t97.5 223q0 75 -37 129t-101.5 89.5t-131.5 62.5q-59 23 -117.5 52.5t-106 71.5t-77 99t-29.5 135q0 142 79.5 241t198 136t232.5 37q103 0 176 -16.5t142 -38.5l-21 -127q-40 16 -87.5 30 t-106.5 23.5t-119 9.5q-77 0 -142.5 -18.5t-113 -53t-74.5 -84t-27 -112.5q0 -69 33.5 -117.5t99 -84t140.5 -64.5q130 -52 208 -110t107 -126t29 -139q0 -115 -40.5 -199t-110.5 -138.5t-164.5 -81t-202.5 -26.5q-88 0 -156.5 12t-119 28t-83 33t-47.5 26z" />
<glyph unicode="T" horiz-adv-x="1051" d="M248 1305l18 118h969l-18 -118h-416l-207 -1305h-139l207 1305h-414z" />
<glyph unicode="U" horiz-adv-x="1307" d="M250 360q0 85 16 187l140 876h139l-144 -905q-12 -84 -12 -137q0 -72 20 -125t57.5 -87.5t90.5 -51.5t119 -17q77 0 141 20t113.5 66.5t84 121.5t52.5 186l145 929h140l-150 -944q-21 -134 -68.5 -229t-116.5 -156.5t-159 -90t-196 -28.5q-91 0 -166.5 22.5t-130 70 t-85 120t-30.5 172.5z" />
<glyph unicode="V" horiz-adv-x="1137" d="M236 1423h145q43 -310 98 -619.5t121 -621.5q58 105 118.5 221t118.5 233t112.5 231.5t102 217t86 189.5t64.5 149h150q-45 -107 -101.5 -232.5t-120.5 -257.5t-131 -265t-132.5 -255.5t-126 -228.5t-109.5 -184h-127q-39 178 -75 352.5t-69.5 350t-64 354.5t-59.5 366z " />
<glyph unicode="W" horiz-adv-x="1659" d="M236 1423h139q15 -304 43 -605t65 -605l486 1171h161l115 -1163q138 280 240.5 529.5t158.5 412.5t85 260h145q-61 -186 -138.5 -386t-161.5 -397.5t-164.5 -364.5t-139.5 -275h-135l-111 1239l-502 -1239h-135q-51 358 -89.5 712t-61.5 711z" />
<glyph unicode="X" horiz-adv-x="1067" d="M20 0l553 713q-44 100 -85 195.5t-78 185t-67.5 172.5t-51.5 157h137q45 -144 97.5 -275t138.5 -329q87 118 204 290t203 314h139q-85 -145 -206 -325t-283 -393l323 -705h-153l-260 596l-457 -596h-154z" />
<glyph unicode="Y" horiz-adv-x="1081" d="M236 1423h135q35 -106 103 -274t183 -383q138 158 270.5 337.5t221.5 319.5h147q-52 -87 -122 -188.5t-147.5 -205t-158.5 -202t-155 -178.5l-103 -649h-139l102 651q-47 80 -95 177.5t-92.5 200t-83.5 204.5t-66 190z" />
<glyph unicode="Z" horiz-adv-x="1055" d="M68 0l18 119q15 22 130 181.5t204.5 277.5t171.5 221q106 133 235 285.5t191 220.5h-699l19 118h860l-18 -118q-50 -54 -89 -100.5t-160.5 -193t-234.5 -286.5q-81 -102 -180.5 -233t-181.5 -244.5t-92 -128.5h764l-19 -119h-919z" />
<glyph unicode="[" horiz-adv-x="621" d="M150 -207l270 1712h371l-17 -104h-235l-238 -1503h236l-17 -105h-370z" />
<glyph unicode="\" horiz-adv-x="500" d="M238 1505h127l135 -1505h-127z" />
<glyph unicode="]" horiz-adv-x="621" d="M35 -207l16 105h236l237 1503h-235l16 104h371l-270 -1712h-371z" />
<glyph unicode="^" horiz-adv-x="1096" d="M203 598l530 825h111l270 -825h-137l-213 662l-420 -662h-141z" />
<glyph unicode="_" horiz-adv-x="1024" d="M0 -332h1024v-102h-1024v102z" />
<glyph unicode="`" horiz-adv-x="756" d="M434 1423h156l135 -282h-135z" />
<glyph unicode="a" horiz-adv-x="1128" d="M195 377q0 145 42 272t120.5 223t168.5 136.5t174 40.5q70 0 125 -19.5t89.5 -47.5t52.5 -52l16 98h133l-112 -711q-11 -63 -11 -127q0 -55 15 -112.5t26 -77.5h-139q-15 33 -22.5 71t-10.5 81q-68 -92 -157.5 -132t-186.5 -40q-68 0 -127 23t-102.5 71t-68.5 123 t-25 180zM342 377q0 -68 11.5 -121.5t38 -90.5t68 -56t101.5 -19q96 0 172 62t113 151.5t49 169.5l53 340q-27 36 -57 62t-79.5 42.5t-100.5 16.5q-78 0 -145 -41.5t-117 -116t-78.5 -176.5t-28.5 -223z" />
<glyph unicode="b" horiz-adv-x="1133" d="M172 0l238 1505h133l-101 -635q38 55 92.5 97.5t119.5 62t126 19.5q130 0 205 -63.5t97 -150.5t22 -161q0 -151 -37.5 -278t-104.5 -219.5t-160.5 -144.5t-205.5 -52q-103 0 -170 33.5t-104 84.5l-17 -98h-133zM340 219q37 -60 93.5 -92.5t139.5 -32.5q101 0 178 54 t125 148t64 193.5t16 180.5q0 89 -25 150t-76.5 87.5t-113.5 26.5q-76 0 -136 -34.5t-105 -94t-74 -139.5t-43 -170z" />
<glyph unicode="c" horiz-adv-x="891" d="M197 393q0 139 37.5 258t108.5 206.5t173.5 137t231.5 49.5q78 0 129.5 -11.5t87.5 -22.5l-19 -121q-18 9 -54.5 18t-76.5 15t-76 6q-83 0 -145 -26t-105.5 -69t-71.5 -98.5t-44.5 -114.5t-22.5 -117t-6 -106q0 -68 16.5 -123t49.5 -93t82 -58.5t114 -20.5q60 0 111.5 11 t75.5 20.5t36 16.5l41 -109q-51 -22 -119 -39.5t-165 -17.5q-105 0 -178.5 33.5t-120.5 90t-68.5 130.5t-21.5 155z" />
<glyph unicode="d" horiz-adv-x="1126" d="M195 381q0 138 39.5 260t108.5 212.5t162 143t200 52.5q71 0 125.5 -19t91.5 -48.5t53 -53.5l92 577h133l-239 -1505h-134l25 152q-51 -72 -105.5 -109.5t-112.5 -50t-110 -12.5q-68 0 -128 23.5t-104.5 72.5t-70.5 124.5t-26 180.5zM342 377q0 -135 52 -207t171 -72 q67 0 124 28.5t100.5 79t72.5 119t41 148.5l53 340q-29 38 -61 63.5t-80 41.5t-100 16q-117 0 -209 -90.5t-128 -217.5t-36 -249z" />
<glyph unicode="e" horiz-adv-x="1034" d="M197 399q0 123 40 247t118.5 220.5t182.5 141.5t212 45q97 0 168.5 -33t102 -93.5t30.5 -129.5q0 -79 -35 -149t-124 -126t-233.5 -82t-318.5 -26v-33q0 -65 18 -118.5t53.5 -91.5t88 -58.5t121.5 -20.5q56 0 126.5 13t110.5 34l39 -112q-74 -26 -145 -39t-136 -13 q-117 0 -197 31.5t-129.5 88t-71 134t-21.5 170.5zM350 524q187 0 305.5 27.5t171.5 71t65.5 85.5t12.5 85q0 81 -46.5 119t-133.5 38q-88 0 -172.5 -57.5t-135 -156t-67.5 -212.5z" />
<glyph unicode="f" horiz-adv-x="567" d="M12 -291q71 43 118 100.5t71 128.5t35 146l120 840h-123l19 104h121l37 227q21 136 102.5 203.5t206.5 67.5q44 0 82.5 -6t61 -12t28.5 -7l-19 -106q-18 6 -58.5 15t-84.5 9q-70 0 -111.5 -28.5t-56.5 -72t-22 -87.5l-33 -203h235l-18 -104h-234l-116 -820 q-13 -91 -34 -160t-56.5 -124.5t-89.5 -101.5t-134 -91z" />
<glyph unicode="g" horiz-adv-x="1128" d="M197 385q0 144 44 271t120.5 220t169.5 133t176 40q71 0 125.5 -19t91.5 -49t53 -53l16 100h133l-174 -1091q-28 -177 -145.5 -274t-323.5 -97q-85 0 -142 10.5t-132 34.5l31 106q49 -18 111 -28.5t128 -10.5q154 0 236.5 64.5t105.5 206.5l33 207q-66 -94 -145.5 -133 t-184.5 -39q-68 0 -128 23.5t-104 72.5t-69.5 124.5t-25.5 180.5zM344 379q0 -135 52 -210t171 -75q98 0 175.5 63.5t114 151.5t48.5 168l53 336q-29 38 -61 63.5t-80.5 41.5t-99.5 16q-78 0 -146 -41t-118.5 -114.5t-79.5 -175.5t-29 -224z" />
<glyph unicode="h" horiz-adv-x="1118" d="M172 0l238 1505h133l-99 -624q47 59 105 97.5t119.5 54.5t122.5 16q96 0 163 -39.5t90 -98t23 -112.5q0 -70 -12 -152l-103 -647h-133l94 592q19 126 19 180q0 56 -23.5 93.5t-68 53t-92.5 15.5q-94 0 -175.5 -58.5t-122 -135.5t-51.5 -146l-94 -594h-133z" />
<glyph unicode="i" horiz-adv-x="520" d="M205 0l147 920q-50 9 -131 18l15 90h266l-164 -1028h-133zM360 1360q0 32 16 55.5t39 34t44 10.5q28 0 53 -17t35 -39.5t10 -43.5q0 -29 -17 -53t-39 -34.5t-42 -10.5q-21 0 -39 8t-31.5 21.5t-21 31t-7.5 37.5z" />
<glyph unicode="j" horiz-adv-x="520" d="M-139 -401l30 102q10 -5 41.5 -15t77.5 -10q72 0 114.5 45t59.5 148l168 1051q-50 9 -131 18l15 90h266l-189 -1184q-23 -142 -98.5 -210t-196.5 -68q-44 0 -91 11.5t-66 21.5zM360 1360q0 32 16 55.5t39 34t44 10.5q28 0 53 -17t35 -39.5t10 -43.5q0 -29 -17 -53 t-39 -34.5t-42 -10.5q-21 0 -39 8t-31.5 21.5t-21 31t-7.5 37.5z" />
<glyph unicode="k" horiz-adv-x="920" d="M172 0l238 1505h133l-142 -899l465 422h166l-502 -450q61 -63 120.5 -137.5t112 -151t97.5 -151t78 -138.5h-162q-68 115 -127.5 207t-129 180.5t-128.5 151.5l-86 -539h-133z" />
<glyph unicode="l" horiz-adv-x="487" d="M172 0l221 1397q-50 9 -131 18l14 90h267l-238 -1505h-133z" />
<glyph unicode="m" horiz-adv-x="1667" d="M172 0l164 1028h133l-25 -154q46 62 99.5 102.5t110 56.5t112.5 16q79 0 134 -31t80 -76t34 -88q62 93 151 144t191 51q95 0 157 -40.5t82.5 -98t20.5 -111.5q0 -82 -14 -166l-101 -633h-133l94 592q19 126 19 180q0 57 -20.5 95t-59 53.5t-82.5 15.5q-59 0 -112.5 -27.5 t-96.5 -74.5t-72.5 -109t-40.5 -131l-94 -594h-133l94 592q19 126 19 180q0 57 -20.5 95t-58.5 53.5t-83 15.5q-59 0 -112.5 -27.5t-96.5 -74.5t-72.5 -109t-40.5 -131l-94 -594h-133z" />
<glyph unicode="n" horiz-adv-x="1118" d="M172 0l164 1028h133l-25 -154q44 60 101.5 101t121 57.5t124.5 16.5q96 0 163 -39.5t90 -98t23 -112.5q0 -70 -12 -152l-103 -647h-133l94 592q19 126 19 180q0 56 -23.5 93.5t-68 53t-92.5 15.5q-94 0 -175.5 -58.5t-122 -135.5t-51.5 -146l-94 -594h-133z" />
<glyph unicode="o" horiz-adv-x="1118" d="M197 389q0 135 38 256t107 211.5t164.5 143.5t210.5 53q95 0 165 -29t115.5 -83t67.5 -130.5t22 -171.5q0 -135 -38 -255.5t-107 -211.5t-164.5 -144t-210.5 -53q-95 0 -165 29t-115.5 83t-67.5 130.5t-22 171.5zM344 371q0 -51 9.5 -101.5t34.5 -91.5t69 -66.5 t114 -25.5q96 0 170 53t120 147t62.5 193.5t16.5 177.5q0 90 -25 156.5t-79.5 98.5t-124.5 32q-96 0 -172 -56.5t-119.5 -148t-59.5 -186t-16 -182.5z" />
<glyph unicode="p" horiz-adv-x="1133" d="M106 -414l230 1442h133l-25 -158q39 57 93 99t118 61t125 19q130 0 205 -63.5t97 -150.5t22 -161q0 -151 -37.5 -278t-104.5 -219.5t-160.5 -144.5t-205.5 -52q-69 0 -131.5 17.5t-96 40.5t-51.5 42l-77 -494h-134zM338 199q37 -45 94.5 -75t140.5 -30q101 0 178 54 t125 148t64 193.5t16 180.5q0 89 -25 150t-76.5 87.5t-113.5 26.5q-76 0 -136 -34.5t-105 -94t-74 -139.5t-43 -170z" />
<glyph unicode="q" horiz-adv-x="1124" d="M195 381q0 138 39.5 260t108.5 212.5t162 143t200 52.5q51 0 93 -10t75.5 -27t58.5 -38.5t41 -45.5l16 100h133l-229 -1442h-133l90 566q-51 -72 -106 -109.5t-111.5 -50t-108.5 -12.5q-68 0 -128 23.5t-104.5 72.5t-70.5 124.5t-26 180.5zM342 377q0 -135 52 -207 t171 -72q67 0 123.5 28.5t99.5 79t72 119t41 148.5l53 340q-28 37 -59 63t-79.5 42t-100.5 16q-117 0 -209 -90.5t-128 -217.5t-36 -249z" />
<glyph unicode="r" horiz-adv-x="692" d="M172 0l164 1028h133l-31 -188q40 63 93 107t112.5 64.5t112.5 20.5q43 0 67 -6l-20 -131q-19 6 -60 6q-73 0 -133 -30.5t-105 -77.5t-72.5 -102.5t-35.5 -106.5l-92 -584h-133z" />
<glyph unicode="s" horiz-adv-x="891" d="M113 47l43 103q45 -22 88 -35t89.5 -19t100.5 -6q136 0 206.5 52t70.5 149q0 66 -52 104.5t-165 79.5q-59 21 -107.5 44t-82.5 53.5t-52.5 69.5t-18.5 91q0 103 56.5 179.5t146.5 106.5t185 30q72 0 147 -13t121 -28l-21 -111q-19 7 -54 17.5t-91.5 19t-101.5 8.5 q-120 0 -189.5 -45t-69.5 -137q0 -30 10.5 -53t35 -43t65 -38t100.5 -38q109 -36 170.5 -80.5t83 -96.5t21.5 -104q0 -87 -32.5 -148.5t-88.5 -101.5t-131 -58.5t-160 -18.5q-71 0 -126.5 8.5t-96 19.5t-65.5 22.5t-35 16.5z" />
<glyph unicode="t" horiz-adv-x="643" d="M201 924l18 104h164l37 242q73 27 143 59l-47 -301h262l-18 -104h-262l-95 -600q-10 -58 -10 -95v-26q0 -54 31 -81.5t102 -27.5q44 0 73.5 8.5t41.5 14.5l33 -105q-31 -12 -83 -22t-106 -10q-118 0 -173.5 52.5t-55.5 151.5q0 55 12 125l97 615h-164z" />
<glyph unicode="u" horiz-adv-x="1118" d="M213 229q0 80 12 152l103 647h133l-94 -592q-19 -127 -19 -180q0 -74 43 -118t141 -44q63 0 121.5 27t105.5 73.5t79 108.5t43 131l94 594h133l-164 -1028h-133l25 154q-47 -63 -103.5 -102t-120 -55.5t-123.5 -16.5q-67 0 -118.5 18.5t-86.5 51.5t-53 79t-18 100z" />
<glyph unicode="v" horiz-adv-x="909" d="M174 1028h137q37 -223 78.5 -443.5t87.5 -443.5q83 140 176 324.5t159 327t106 235.5h145q-82 -185 -235 -480.5t-302 -547.5h-147q-57 260 -108.5 515t-96.5 513z" />
<glyph unicode="w" horiz-adv-x="1356" d="M174 1028h129q5 -87 14.5 -193.5t22.5 -223t29 -237.5t34 -237l373 864h139l80 -862q115 223 206 441.5t173 447.5h131q-81 -232 -194.5 -492.5t-270.5 -535.5h-145l-80 821l-354 -821h-148q-57 277 -90 536t-49 492z" />
<glyph unicode="x" horiz-adv-x="885" d="M16 0l439 522q-37 69 -96.5 193.5t-87 191t-46.5 121.5h133q37 -109 91 -225t92 -187q85 102 175 221t138 191h131q-61 -94 -167.5 -234.5t-223.5 -277.5l272 -516h-145l-215 420l-344 -420h-146z" />
<glyph unicode="y" horiz-adv-x="938" d="M-94 -391l41 100q12 -8 32.5 -15t36 -10t35.5 -3q52 0 96.5 24.5t86.5 71.5t83 104q31 45 58 88t55 86q-69 246 -133 487.5t-123 485.5h137q48 -208 101 -415.5t112 -415.5q101 175 217 403t205 428h146q-100 -214 -189.5 -388.5t-184.5 -345.5t-171 -292 q-110 -176 -182 -266t-148.5 -130t-153.5 -40q-60 0 -103.5 15.5t-53.5 27.5z" />
<glyph unicode="z" horiz-adv-x="905" d="M68 0l16 104q84 107 181.5 226.5t211.5 247.5q110 125 193 212t127 134h-553l18 104h709l-19 -104q-40 -46 -156 -170.5t-216 -239.5q-90 -99 -188.5 -217t-155.5 -193h598l-17 -104h-749z" />
<glyph unicode="{" horiz-adv-x="614" d="M162 596l16 106q71 0 115 56t61.5 124t24.5 109l45 285q12 82 44.5 135.5t82.5 73.5t104 20h129l-16 -104h-86q-47 0 -74.5 -23t-35 -53t-11.5 -55l-51 -330q-15 -85 -40.5 -141.5t-66 -92.5t-90.5 -59q59 -34 83 -83.5t24 -106.5q0 -8 -3 -54.5t-9 -87.5l-37 -231 q-11 -77 -11 -98q0 -55 28.5 -71.5t86.5 -16.5h55l-16 -105h-94q-79 0 -125 24t-59 60.5t-13 69.5q0 26 13 121l36 239q13 75 13 148q0 40 -14 72.5t-43 49.5t-66 19z" />
<glyph unicode="|" horiz-adv-x="549" d="M193 -207l270 1712h98l-270 -1712h-98z" />
<glyph unicode="}" horiz-adv-x="614" d="M29 -209l16 105h86q46 0 72 21.5t35.5 52.5t13.5 57l51 329q12 76 36 133t67.5 97t93.5 63q-59 34 -83 84t-24 107q0 66 13 141l36 231q11 67 11 99q0 54 -28.5 71t-86.5 17h-55l16 104h94q78 0 123 -23.5t59.5 -60t14.5 -69.5q0 -37 -12 -121l-37 -240q-13 -76 -13 -147 q0 -21 5 -45t19 -45t37.5 -35.5t61.5 -16.5l-16 -106q-53 0 -88.5 -29.5t-58 -73.5t-35 -94t-19.5 -92l-45 -285q-13 -86 -46 -137.5t-82 -71.5t-103 -20h-129z" />
<glyph unicode="~" horiz-adv-x="1298" d="M143 410q55 96 113 154t120.5 82t121.5 24q55 0 116 -26.5t121 -61.5t115.5 -58.5t101.5 -23.5t87 19t77.5 62.5t71.5 100.5l104 -59q-34 -59 -71.5 -107.5t-80 -82.5t-91 -52.5t-103.5 -18.5q-60 0 -125 24.5t-125 59.5q-62 38 -114.5 62t-100.5 24t-85.5 -19t-75 -62.5 t-72.5 -100.5z" />
<glyph unicode="&#xa1;" horiz-adv-x="489" d="M158 0l166 1010h135l-154 -1010h-147zM322 1333q0 33 20.5 63t47 43t50.5 13q33 0 62.5 -20.5t43 -48t13.5 -50.5q0 -34 -20.5 -63.5t-48 -42.5t-50.5 -13t-44 10t-37.5 26.5t-26.5 38t-10 44.5z" />
<glyph unicode="&#xa2;" horiz-adv-x="895" d="M223 590q0 126 31 236t90.5 195t145.5 140.5t196 73.5l31 188h102l-28 -182q85 -2 136.5 -16t63.5 -19l-18 -121q-30 13 -84 25t-117 14l-131 -825q82 2 137.5 19t77.5 28l41 -108q-50 -22 -116 -39t-158 -19l-29 -180h-102l30 188q-80 14 -136.5 51.5t-92.5 91.5 t-53 120.5t-17 138.5zM371 594q0 -109 42.5 -183t127.5 -100l127 801q-94 -23 -156 -86.5t-93 -149t-39.5 -158t-8.5 -124.5z" />
<glyph unicode="&#xa3;" horiz-adv-x="1040" d="M76 0l18 113q49 6 97 47.5t78.5 102t45.5 120.5l74 299h-166l41 113h152l67 258q27 101 73.5 175t110 122t142 71t170.5 23q79 0 142 -14t93.5 -27.5t34.5 -16.5l-16 -118q-13 7 -59.5 23.5t-96.5 26t-98 9.5q-68 0 -125.5 -16.5t-103.5 -54.5t-81 -101t-59 -156 l-53 -204h381l-41 -113h-367l-67 -270q-18 -73 -53 -141t-68.5 -103t-58.5 -45h729l-21 -123h-915z" />
<glyph unicode="&#xa4;" d="M178 313l137 138q-43 54 -65.5 119.5t-22.5 140.5q0 74 22.5 140t65.5 122l-137 135l92 92l138 -137q54 43 119.5 65.5t140.5 22.5q72 0 138.5 -22t123.5 -64l135 135l92 -92l-137 -137q43 -54 65.5 -120t22.5 -140q0 -73 -22 -139t-64 -121l135 -138l-92 -92l-137 137 q-54 -43 -120 -65.5t-140 -22.5q-73 0 -139 22.5t-121 65.5l-138 -137zM365 711q0 -65 24 -122t65 -100.5t96.5 -68.5t117.5 -25q91 0 166.5 53t106 125.5t30.5 137.5q0 94 -51 172.5t-121 110.5t-131 32q-62 0 -117.5 -25t-96.5 -68t-65 -100.5t-24 -121.5z" />
<glyph unicode="&#xa5;" horiz-adv-x="1042" d="M195 301l34 100h291l29 183h-309l34 100h275q-69 115 -138 272.5t-106 270t-59 196.5h129q23 -90 67.5 -215t94 -236t102.5 -210q146 170 269 346.5t204 314.5h139q-84 -142 -179.5 -282.5t-189 -258.5t-165.5 -198h289l-35 -100h-291l-29 -183h310l-35 -100h-291 l-47 -301h-131l47 301h-309z" />
<glyph unicode="&#xa6;" horiz-adv-x="549" d="M193 -207l90 572h98l-90 -572h-98zM373 934l90 571h98l-90 -571h-98z" />
<glyph unicode="&#xa7;" horiz-adv-x="909" d="M125 51l41 101q27 -14 76 -30t97.5 -24t96.5 -8q101 0 167 31t85 75t19 83q0 58 -33.5 91t-87 54t-103.5 39q-60 21 -108.5 42.5t-82.5 50t-52.5 67.5t-18.5 96q0 81 37 144t89 98.5t95 52.5q-45 25 -75.5 54t-46 70t-15.5 89q0 101 60 173.5t147.5 99t169.5 26.5 q109 0 180 -15.5t105 -29.5l-23 -107q-38 14 -104 29.5t-160 15.5q-79 0 -138.5 -24.5t-83.5 -64.5t-24 -85q0 -33 12 -57.5t36.5 -44t62 -35.5t88.5 -31q107 -33 168 -64t94 -83t33 -115q0 -87 -44 -159.5t-92.5 -104t-76.5 -41.5q59 -32 95 -82.5t36 -122.5 q0 -80 -32.5 -140.5t-87.5 -101.5t-126 -62t-147 -21q-75 0 -133.5 9.5t-99.5 22t-64.5 24t-30.5 15.5zM348 745q0 -42 19.5 -71t55 -50.5t84.5 -39t109 -35.5q60 25 101.5 62t60.5 83.5t19 93.5q0 69 -59 112t-177 71q-60 -10 -113 -47.5t-76.5 -84.5t-23.5 -94z" />
<glyph unicode="&#xa8;" horiz-adv-x="750" d="M287 1282q0 42 28 71t70 29q28 0 53 -17t35 -39.5t10 -43.5q0 -29 -17 -53t-39 -34.5t-42 -10.5q-21 0 -38.5 8t-31 21.5t-21 31t-7.5 37.5zM672 1282q0 30 17 55t38.5 35t42.5 10q42 0 70 -29t28 -71q0 -30 -16.5 -53.5t-38.5 -34t-43 -10.5q-29 0 -54 17t-34.5 39 t-9.5 42z" />
<glyph unicode="&#xa9;" horiz-adv-x="1690" d="M217 711q0 135 46 257.5t128.5 219.5t187.5 159.5t198 83.5t179 21q129 0 252.5 -45.5t222.5 -129.5t160.5 -189t83 -199t21.5 -178q0 -158 -64.5 -300.5t-178 -246.5t-245.5 -148.5t-252 -44.5q-102 0 -196 26.5t-176.5 74.5t-150 116t-115.5 150t-74.5 176.5 t-26.5 196.5zM348 711q0 -86 22 -165t61.5 -148t95.5 -125.5t123.5 -97.5t145 -63t160.5 -22q130 0 248 54.5t203 151t121.5 204t36.5 211.5q0 128 -48 241.5t-131 198t-194 133.5t-236 49t-235.5 -49t-193.5 -133.5t-131 -198t-48 -241.5zM584 711q0 103 25.5 185 t75.5 139.5t123.5 88.5t168.5 31q54 0 91.5 -8t69 -19.5t44.5 -15.5v-113q-54 22 -101.5 35t-101.5 13q-113 0 -176.5 -57.5t-78.5 -133.5t-15 -143q0 -173 67.5 -254.5t204.5 -81.5q52 0 94.5 8t89.5 27l41 -99q-49 -20 -104 -32.5t-133 -12.5q-95 0 -166.5 30.5t-120.5 88 t-73.5 139.5t-24.5 185z" />
<glyph unicode="&#xaa;" horiz-adv-x="766" d="M264 1092q0 90 26.5 169.5t73 138t110.5 92.5t138 34q63 0 104.5 -22t67.5 -50l11 57h98l-74 -464q-6 -32 -6 -84q0 -32 8.5 -69.5t18.5 -53.5h-109q-8 17 -13.5 38.5t-8.5 47.5q-26 -36 -63 -60t-72.5 -32.5t-61.5 -8.5q-56 0 -102 15t-78.5 47.5t-50 83t-17.5 121.5z M381 1098q0 -90 33.5 -136.5t111.5 -46.5q59 0 107 36.5t69 88.5t29 101l35 233q-10 14 -33 29.5t-54 25t-63 9.5q-48 0 -91 -25t-75 -70t-50.5 -107.5t-18.5 -137.5z" />
<glyph unicode="&#xab;" horiz-adv-x="922" d="M164 530l319 404h154l-328 -412l199 -411h-143zM516 522l326 412h153l-336 -422l195 -401h-141z" />
<glyph unicode="&#xac;" d="M203 854l20 127h963l-84 -532h-133l63 405h-829z" />
<glyph unicode="&#xad;" horiz-adv-x="688" d="M203 469h430l24 158h-430z" />
<glyph unicode="&#xae;" horiz-adv-x="1690" d="M217 711q0 135 46 257.5t128.5 219.5t187.5 159.5t198 83.5t179 21q129 0 252.5 -45.5t222.5 -129.5t160.5 -189t83 -199t21.5 -178q0 -158 -64.5 -300.5t-178 -246.5t-245.5 -148.5t-252 -44.5q-102 0 -196 26.5t-176.5 74.5t-150 116t-115.5 150t-74.5 176.5 t-26.5 196.5zM348 711q0 -86 22 -165t61.5 -148t95.5 -125.5t123.5 -97.5t145 -63t160.5 -22q130 0 248 54.5t203 151t121.5 204t36.5 211.5q0 128 -48 241.5t-131 198t-194 133.5t-236 49t-235.5 -49t-193.5 -133.5t-131 -198t-48 -241.5zM670 283v860h262 q142 0 214.5 -61.5t72.5 -174.5q0 -56 -19.5 -103.5t-56 -80t-78.5 -51.5q57 -68 103 -135.5t84 -137t61 -116.5h-127q-47 87 -90 154t-83.5 119.5t-74.5 86.5h-158v-360h-110zM780 743h123q100 0 146.5 42t46.5 114q0 60 -24.5 91t-71.5 41.5t-97 10.5h-123v-299z" />
<glyph unicode="&#xaf;" horiz-adv-x="748" d="M289 1225h559l16 112h-559z" />
<glyph unicode="&#xb0;" horiz-adv-x="631" d="M248 1241q0 78 44 144t105 93t115 27t102 -21t84 -57t57 -84t21 -102q0 -82 -45.5 -147t-105 -91t-113.5 -26t-102 21t-84 57t-57 84t-21 102zM362 1241q0 -32 11.5 -61t32 -51.5t47.5 -36t59 -13.5q45 0 82 27.5t52.5 65t15.5 69.5q0 47 -24 86t-59.5 57.5t-66.5 18.5 q-32 0 -59 -13.5t-47.5 -36t-32 -52t-11.5 -60.5z" />
<glyph unicode="&#xb1;" d="M90 90l21 127h962l-20 -127h-963zM186 692l19 127h416l61 387h133l-61 -387h413l-18 -127h-414l-63 -393h-133l63 393h-416z" />
<glyph unicode="&#xb2;" horiz-adv-x="930" d="M260 651l14 94q40 45 258 230q78 66 109.5 94.5t68 69t57.5 87.5t21 81q0 37 -16 63t-50.5 37.5t-74.5 11.5q-57 0 -111.5 -18.5t-79 -34t-30.5 -18.5l18 116q7 3 26 12t48.5 18.5t67 16.5t82.5 7q97 0 156.5 -32.5t76.5 -79.5t17 -89q0 -80 -53 -157t-119.5 -135.5 t-112.5 -96.5q-187 -159 -207 -174h426l-16 -103h-576z" />
<glyph unicode="&#xb3;" horiz-adv-x="930" d="M264 698l49 99q7 -6 41 -21.5t77.5 -24t84.5 -8.5q100 0 160.5 47t60.5 134q0 42 -22 72.5t-69.5 44.5t-106.5 14h-39l14 100h23q112 0 176.5 42t64.5 120q0 36 -18 60t-51.5 34t-71.5 10q-60 0 -119.5 -19t-83.5 -32t-28 -16l16 110q35 17 56.5 25t73 18.5t103.5 10.5 q98 0 154.5 -30t74 -73.5t17.5 -79.5q0 -64 -36 -119t-77.5 -78.5t-68.5 -31.5q47 -13 80.5 -36.5t50 -59t16.5 -76.5q0 -60 -23 -113.5t-66.5 -94t-106.5 -64t-144 -23.5q-63 0 -111 8.5t-81 19.5t-50.5 20t-19.5 11z" />
<glyph unicode="&#xb4;" horiz-adv-x="756" d="M395 1141l207 282h164l-225 -282h-146z" />
<glyph unicode="&#xb6;" horiz-adv-x="1198" d="M238 985q0 111 38.5 193t102.5 136.5t146.5 81.5t170.5 27h541l-260 -1638h-129l242 1524h-256l-242 -1524h-129l139 870q-95 0 -163.5 25.5t-113 70t-66 104.5t-21.5 130z" />
<glyph unicode="&#xb7;" horiz-adv-x="463" d="M225 713q0 -23 10 -44.5t26.5 -38t38 -26.5t44.5 -10q33 0 63.5 20.5t43 48t12.5 50.5q0 34 -21 63t-48 42t-50 13q-34 0 -64 -21t-42.5 -47.5t-12.5 -49.5z" />
<glyph unicode="&#xb8;" horiz-adv-x="756" d="M166 -375l184 273h170l-205 -273h-149z" />
<glyph unicode="&#xb9;" horiz-adv-x="930" d="M352 651l17 94h157l101 644q-22 -9 -94.5 -30.5t-83.5 -25.5l16 97l197 75h98l-119 -760h160l-17 -94h-432z" />
<glyph unicode="&#xba;" horiz-adv-x="770" d="M268 1094q0 88 25 166.5t71 137.5t110.5 93.5t143.5 34.5q97 0 156 -40t78.5 -104t19.5 -125q0 -88 -25 -166.5t-71 -137.5t-110.5 -93.5t-143.5 -34.5q-67 0 -115 19t-79 54t-45.5 84.5t-14.5 111.5zM385 1087q0 -29 6 -58.5t21.5 -53.5t42.5 -39.5t69 -15.5 q85 0 140.5 57t73.5 136.5t18 148.5q0 52 -16 91.5t-50 60t-76 20.5q-59 0 -102 -28t-71.5 -76t-42 -111t-13.5 -132z" />
<glyph unicode="&#xbb;" horiz-adv-x="922" d="M92 111l336 421l-195 402h142l196 -412l-325 -411h-154zM451 111l327 411l-198 412h143l201 -420l-320 -403h-153z" />
<glyph unicode="&#xbc;" horiz-adv-x="1880" d="M332 651l16 94h158l100 644q-25 -10 -97.5 -31.5t-80.5 -24.5l16 97l197 75h98l-118 -760h159l-16 -94h-432zM420 0l1134 1505h148l-1135 -1505h-147zM1069 193l14 96q155 185 265.5 304t257.5 261h114l-90 -567h90l-14 -94h-90l-31 -193h-112l30 193h-434zM1202 287h316 l67 422q-102 -103 -197.5 -209.5t-185.5 -212.5z" />
<glyph unicode="&#xbd;" horiz-adv-x="1880" d="M322 651l16 94h158l100 644q-30 -12 -95.5 -31t-82.5 -25l16 97l197 75h98l-119 -760h160l-16 -94h-432zM387 0l1135 1505h147l-1134 -1505h-148zM1112 0l14 94q45 50 111.5 105.5t146.5 124.5q20 17 46.5 39t55 47.5t56.5 55t49.5 60.5t35 63.5t13.5 65.5 q0 37 -16.5 63.5t-50.5 38t-74 11.5q-72 0 -130 -24.5t-91 -47.5l18 117q46 20 68.5 28t66.5 16.5t89 8.5q97 0 155.5 -32t76 -79t17.5 -89q0 -80 -54.5 -159.5t-118.5 -135.5t-111 -95q-42 -34 -207 -174h426l-16 -102h-576z" />
<glyph unicode="&#xbe;" horiz-adv-x="1880" d="M287 698l49 99q9 -8 42 -23t76.5 -23t84.5 -8q100 0 160.5 47t60.5 134q0 42 -22 72.5t-69.5 44.5t-107.5 14h-39l15 100h22q113 0 177.5 42t64.5 120q0 36 -18 60t-52 34t-72 10q-58 0 -118 -18.5t-84.5 -32t-28.5 -16.5l16 110q35 17 56 25t73.5 18.5t104.5 10.5 q98 0 154.5 -30t74 -73.5t17.5 -79.5q0 -66 -37 -120.5t-78 -77.5t-68 -31q45 -12 80 -35.5t51.5 -59.5t16.5 -77q0 -60 -23 -113.5t-66.5 -94t-106.5 -64t-144 -23.5q-63 0 -111 8.5t-81 19.5t-50.5 20t-19.5 11zM430 0l1135 1505h147l-1134 -1505h-148zM1079 193l15 96 q142 171 258.5 297t263.5 268h115l-91 -567h91l-15 -94h-90l-31 -193h-112l30 193h-434zM1212 287h316l67 422q-102 -103 -197.5 -209.5t-185.5 -212.5z" />
<glyph unicode="&#xbf;" horiz-adv-x="975" d="M162 262q0 103 39 177t102 124t119 88q69 46 109 87t58 88.5t27 101.5l15 88h131l-14 -92q-20 -124 -70.5 -198t-106.5 -113t-96 -66q-65 -44 -102.5 -86t-50.5 -87.5t-13 -94.5q0 -50 19 -85t50 -57t71 -32.5t83 -10.5q84 0 169.5 25t154.5 71l-20 -131 q-41 -23 -92 -40.5t-114.5 -28t-117.5 -10.5q-63 0 -125.5 15.5t-112.5 49.5t-81 87.5t-31 129.5zM616 1333q0 33 20.5 63.5t47.5 43t51 12.5q33 0 62.5 -20.5t43 -48t13.5 -50.5q0 -34 -20.5 -63.5t-48 -42.5t-50.5 -13t-44.5 10t-38 26.5t-26.5 38t-10 44.5z" />
<glyph unicode="&#xc0;" horiz-adv-x="1157" d="M10 0q67 164 162 366.5t193 394t194 361.5t180 301h127q37 -120 77 -284.5t74 -337.5t61 -334t43 -274t26 -193h-143q-19 173 -58 432h-608q-134 -299 -188 -432h-140zM393 545h535q-26 173 -61 358.5t-87 388.5q-114 -193 -211 -383t-176 -364zM577 1810h156l135 -282 h-135z" />
<glyph unicode="&#xc1;" horiz-adv-x="1157" d="M10 0q67 164 162 366.5t193 394t194 361.5t180 301h127q37 -120 77 -284.5t74 -337.5t61 -334t43 -274t26 -193h-143q-19 173 -58 432h-608q-134 -299 -188 -432h-140zM393 545h535q-26 173 -61 358.5t-87 388.5q-114 -193 -211 -383t-176 -364zM739 1528l207 282h164 l-225 -282h-146z" />
<glyph unicode="&#xc2;" horiz-adv-x="1157" d="M10 0q67 164 162 366.5t193 394t194 361.5t180 301h127q37 -120 77 -284.5t74 -337.5t61 -334t43 -274t26 -193h-143q-19 173 -58 432h-608q-134 -299 -188 -432h-140zM393 545h535q-26 173 -61 358.5t-87 388.5q-114 -193 -211 -383t-176 -364zM543 1528l246 282h125 l157 -282h-131l-102 176l-160 -176h-135z" />
<glyph unicode="&#xc3;" horiz-adv-x="1157" d="M10 0q67 164 162 366.5t193 394t194 361.5t180 301h127q37 -120 77 -284.5t74 -337.5t61 -334t43 -274t26 -193h-143q-19 173 -58 432h-608q-134 -299 -188 -432h-140zM393 545h535q-26 173 -61 358.5t-87 388.5q-114 -193 -211 -383t-176 -364zM524 1612q26 65 63 102 t68.5 47t57.5 10q34 0 69 -13t72 -36q41 -26 65 -36.5t44 -10.5q25 0 47 17.5t45 70.5l84 -37q-31 -67 -65.5 -103t-66.5 -46t-59 -10q-35 0 -70 12.5t-69 34.5q-44 28 -68 36.5t-43 8.5q-20 0 -43.5 -17.5t-46.5 -66.5z" />
<glyph unicode="&#xc4;" horiz-adv-x="1157" d="M10 0q67 164 162 366.5t193 394t194 361.5t180 301h127q37 -120 77 -284.5t74 -337.5t61 -334t43 -274t26 -193h-143q-19 173 -58 432h-608q-134 -299 -188 -432h-140zM393 545h535q-26 173 -61 358.5t-87 388.5q-114 -193 -211 -383t-176 -364zM543 1669q0 42 28 71 t70 29q28 0 53 -17t35 -39.5t10 -43.5q0 -29 -17 -53t-39 -34.5t-42 -10.5q-21 0 -38.5 8t-31 21.5t-21 31t-7.5 37.5zM928 1669q0 30 17 55t38.5 35t42.5 10q42 0 70 -29t28 -71q0 -30 -16.5 -53.5t-38.5 -34t-43 -10.5q-29 0 -54 17t-34.5 39t-9.5 42z" />
<glyph unicode="&#xc5;" horiz-adv-x="1157" d="M10 0q66 162 165 373.5t197 401.5t179.5 334.5t153.5 260.5q-47 25 -75 71.5t-28 102.5q0 62 34 111.5t79 69.5t88 20q59 0 109 -33t71 -79.5t21 -88.5q0 -60 -33.5 -108.5t-85.5 -73.5q27 -95 54 -205t51.5 -227.5t47.5 -239.5t43 -241.5t36.5 -233.5t29.5 -215h-143 q-19 173 -58 432h-608q-134 -299 -188 -432h-140zM393 545h535q-26 173 -61 358.5t-87 388.5q-114 -193 -211 -383t-176 -364zM692 1544q0 -23 8.5 -44.5t23.5 -38t35.5 -26.5t43.5 -10q32 0 59 19.5t39 48t12 51.5q0 32 -17.5 62.5t-43.5 43.5t-49 13q-35 0 -63 -22 t-38 -48t-10 -49z" />
<glyph unicode="&#xc6;" horiz-adv-x="1767" d="M6 0q106 192 227.5 392t251.5 392q136 200 265.5 374t203.5 265h912l-19 -118h-628l-76 -471h543l-19 -117h-541l-96 -598h662l-19 -119h-801l68 430h-534q-190 -306 -256 -430h-144zM481 547h477l123 772h-53q-72 -83 -203 -263t-178 -251q-53 -77 -166 -258z" />
<glyph unicode="&#xc7;" horiz-adv-x="1118" d="M227 543q0 162 38 309t112.5 266.5t175.5 195.5t199.5 103t195.5 27q86 0 153.5 -14t104.5 -28.5t51 -21.5l-20 -129q-31 16 -84 31t-108.5 25t-102.5 10q-97 0 -176.5 -29.5t-142 -82.5t-108 -125.5t-75.5 -159.5t-44.5 -184t-14.5 -199q0 -95 19 -174t63.5 -136 t116.5 -89t178 -32q103 0 171 17t115 37l39 -117q-66 -27 -151 -45t-195 -18q-133 0 -229 39t-158.5 112t-92.5 177t-30 235zM432 -375l184 273h170l-205 -273h-149z" />
<glyph unicode="&#xc8;" horiz-adv-x="1090" d="M193 0l225 1423h768l-19 -118h-628l-76 -471h543l-19 -117h-541l-96 -598h662l-19 -119h-800zM659 1810h156l135 -282h-135z" />
<glyph unicode="&#xc9;" horiz-adv-x="1090" d="M193 0l225 1423h768l-19 -118h-628l-76 -471h543l-19 -117h-541l-96 -598h662l-19 -119h-800zM723 1528l207 282h164l-225 -282h-146z" />
<glyph unicode="&#xca;" horiz-adv-x="1090" d="M193 0l225 1423h768l-19 -118h-628l-76 -471h543l-19 -117h-541l-96 -598h662l-19 -119h-800zM547 1528l246 282h125l157 -282h-131l-102 176l-160 -176h-135z" />
<glyph unicode="&#xcb;" horiz-adv-x="1090" d="M193 0l225 1423h768l-19 -118h-628l-76 -471h543l-19 -117h-541l-96 -598h662l-19 -119h-800zM533 1669q0 42 28 71t70 29q28 0 53 -17t35 -39.5t10 -43.5q0 -29 -17 -53t-39 -34.5t-42 -10.5q-21 0 -38.5 8t-31 21.5t-21 31t-7.5 37.5zM918 1669q0 30 17 55t38.5 35 t42.5 10q42 0 70 -29t28 -71q0 -30 -16.5 -53.5t-38.5 -34t-43 -10.5q-29 0 -54 17t-34.5 39t-9.5 42z" />
<glyph unicode="&#xcc;" horiz-adv-x="524" d="M193 0l225 1423h139l-225 -1423h-139zM271 1810h156l135 -282h-135z" />
<glyph unicode="&#xcd;" horiz-adv-x="524" d="M193 0l225 1423h139l-225 -1423h-139zM424 1528l207 282h164l-225 -282h-146z" />
<glyph unicode="&#xce;" horiz-adv-x="524" d="M193 0l225 1423h139l-225 -1423h-139zM233 1528l246 282h125l157 -282h-131l-102 176l-160 -176h-135z" />
<glyph unicode="&#xcf;" horiz-adv-x="524" d="M193 0l225 1423h139l-225 -1423h-139zM218 1669q0 42 28 71t70 29q28 0 53 -17t35 -39.5t10 -43.5q0 -29 -17 -53t-39 -34.5t-42 -10.5q-21 0 -38.5 8t-31 21.5t-21 31t-7.5 37.5zM603 1669q0 30 17 55t38.5 35t42.5 10q42 0 70 -29t28 -71q0 -30 -16.5 -53.5t-38.5 -34 t-43 -10.5q-29 0 -54 17t-34.5 39t-9.5 42z" />
<glyph unicode="&#xd0;" horiz-adv-x="1315" d="M158 680l16 115h143l101 628h360q147 0 248.5 -41.5t164.5 -113.5t91.5 -169t28.5 -208q0 -118 -20 -229.5t-59.5 -210.5t-98.5 -182t-138 -142.5t-178 -93t-217 -33.5h-407l108 680h-143zM350 119h242q144 0 250 62t176 167t104.5 242.5t34.5 288.5q0 84 -17.5 161.5 t-61 136t-116 93.5t-182.5 35h-241l-82 -510h305l-17 -115h-305z" />
<glyph unicode="&#xd1;" horiz-adv-x="1333" d="M193 0l225 1423h147q141 -275 259 -567t225 -584l182 1151h135l-225 -1423h-129q-109 314 -227 625.5t-261 611.5l-196 -1237h-135zM618 1612q26 65 63 102t68.5 47t57.5 10q34 0 69 -13t72 -36q41 -26 65 -36.5t44 -10.5q25 0 47 17.5t45 70.5l84 -37 q-31 -67 -65.5 -103t-66.5 -46t-59 -10q-35 0 -70 12.5t-69 34.5q-44 28 -68 36.5t-43 8.5q-20 0 -43.5 -17.5t-46.5 -66.5z" />
<glyph unicode="&#xd2;" horiz-adv-x="1372" d="M229 508q0 213 52 387.5t143 298t214.5 191t266.5 67.5q126 0 214 -42.5t143.5 -116t80.5 -171t25 -207.5q0 -213 -52 -387.5t-143 -298t-214.5 -191t-266.5 -67.5q-126 0 -214 42.5t-143.5 116t-80.5 171t-25 207.5zM383 506q0 -41 4 -88t15.5 -93t32.5 -88.5t55.5 -75 t83.5 -52t116 -19.5q129 0 231.5 76t170 205t95 272t27.5 275q0 83 -14.5 156.5t-51.5 135t-101 92.5t-140 31q-128 0 -233 -77t-171.5 -207t-93 -271.5t-26.5 -271.5zM762 1810h156l135 -282h-135z" />
<glyph unicode="&#xd3;" horiz-adv-x="1372" d="M229 508q0 213 52 387.5t143 298t214.5 191t266.5 67.5q126 0 214 -42.5t143.5 -116t80.5 -171t25 -207.5q0 -213 -52 -387.5t-143 -298t-214.5 -191t-266.5 -67.5q-126 0 -214 42.5t-143.5 116t-80.5 171t-25 207.5zM383 506q0 -41 4 -88t15.5 -93t32.5 -88.5t55.5 -75 t83.5 -52t116 -19.5q129 0 231.5 76t170 205t95 272t27.5 275q0 83 -14.5 156.5t-51.5 135t-101 92.5t-140 31q-128 0 -233 -77t-171.5 -207t-93 -271.5t-26.5 -271.5zM846 1528l207 282h164l-225 -282h-146z" />
<glyph unicode="&#xd4;" horiz-adv-x="1372" d="M229 508q0 213 52 387.5t143 298t214.5 191t266.5 67.5q126 0 214 -42.5t143.5 -116t80.5 -171t25 -207.5q0 -213 -52 -387.5t-143 -298t-214.5 -191t-266.5 -67.5q-126 0 -214 42.5t-143.5 116t-80.5 171t-25 207.5zM383 506q0 -41 4 -88t15.5 -93t32.5 -88.5t55.5 -75 t83.5 -52t116 -19.5q129 0 231.5 76t170 205t95 272t27.5 275q0 83 -14.5 156.5t-51.5 135t-101 92.5t-140 31q-128 0 -233 -77t-171.5 -207t-93 -271.5t-26.5 -271.5zM701 1528l246 282h125l157 -282h-131l-102 176l-160 -176h-135z" />
<glyph unicode="&#xd5;" horiz-adv-x="1372" d="M229 508q0 213 52 387.5t143 298t214.5 191t266.5 67.5q126 0 214 -42.5t143.5 -116t80.5 -171t25 -207.5q0 -213 -52 -387.5t-143 -298t-214.5 -191t-266.5 -67.5q-126 0 -214 42.5t-143.5 116t-80.5 171t-25 207.5zM383 506q0 -41 4 -88t15.5 -93t32.5 -88.5t55.5 -75 t83.5 -52t116 -19.5q129 0 231.5 76t170 205t95 272t27.5 275q0 83 -14.5 156.5t-51.5 135t-101 92.5t-140 31q-128 0 -233 -77t-171.5 -207t-93 -271.5t-26.5 -271.5zM659 1612q26 65 63 102t68.5 47t57.5 10q34 0 69 -13t72 -36q41 -26 65 -36.5t44 -10.5q25 0 47 17.5 t45 70.5l84 -37q-31 -67 -65.5 -103t-66.5 -46t-59 -10q-35 0 -70 12.5t-69 34.5q-44 28 -68 36.5t-43 8.5q-20 0 -43.5 -17.5t-46.5 -66.5z" />
<glyph unicode="&#xd6;" horiz-adv-x="1372" d="M229 508q0 213 52 387.5t143 298t214.5 191t266.5 67.5q126 0 214 -42.5t143.5 -116t80.5 -171t25 -207.5q0 -213 -52 -387.5t-143 -298t-214.5 -191t-266.5 -67.5q-126 0 -214 42.5t-143.5 116t-80.5 171t-25 207.5zM383 506q0 -41 4 -88t15.5 -93t32.5 -88.5t55.5 -75 t83.5 -52t116 -19.5q129 0 231.5 76t170 205t95 272t27.5 275q0 83 -14.5 156.5t-51.5 135t-101 92.5t-140 31q-128 0 -233 -77t-171.5 -207t-93 -271.5t-26.5 -271.5zM676 1669q0 42 28 71t70 29q28 0 53 -17t35 -39.5t10 -43.5q0 -29 -17 -53t-39 -34.5t-42 -10.5 q-21 0 -38.5 8t-31 21.5t-21 31t-7.5 37.5zM1061 1669q0 30 17 55t38.5 35t42.5 10q42 0 70 -29t28 -71q0 -30 -16.5 -53.5t-38.5 -34t-43 -10.5q-29 0 -54 17t-34.5 39t-9.5 42z" />
<glyph unicode="&#xd7;" d="M221 403l365 312l-244 293l96 86l244 -297l352 305l82 -94l-356 -306l244 -292l-97 -86l-243 297l-361 -312z" />
<glyph unicode="&#xd8;" horiz-adv-x="1372" d="M182 -76l148 213q-53 72 -77 167.5t-24 203.5q0 213 52 387.5t143 298t214.5 191t266.5 67.5q87 0 156 -21t123 -59l133 193l106 -66l-151 -219q51 -72 73.5 -165t22.5 -200q0 -213 -52 -387.5t-143 -298t-214.5 -191t-266.5 -67.5q-85 0 -152.5 20.5t-119.5 55.5 l-131 -188zM383 506q0 -54 7 -116.5t32 -121.5l686 994q-34 32 -83 51.5t-118 19.5q-128 0 -233 -77t-171.5 -207t-93 -271.5t-26.5 -271.5zM496 158q34 -31 81 -49.5t113 -18.5q129 0 231.5 76t170 205t95 272t27.5 275q0 52 -6.5 113t-27.5 118z" />
<glyph unicode="&#xd9;" horiz-adv-x="1307" d="M250 360q0 85 16 187l140 876h139l-144 -905q-12 -84 -12 -137q0 -72 20 -125t57.5 -87.5t90.5 -51.5t119 -17q77 0 141 20t113.5 66.5t84 121.5t52.5 186l145 929h140l-150 -944q-21 -134 -68.5 -229t-116.5 -156.5t-159 -90t-196 -28.5q-91 0 -166.5 22.5t-130 70 t-85 120t-30.5 172.5zM700 1810h156l135 -282h-135z" />
<glyph unicode="&#xda;" horiz-adv-x="1307" d="M250 360q0 85 16 187l140 876h139l-144 -905q-12 -84 -12 -137q0 -72 20 -125t57.5 -87.5t90.5 -51.5t119 -17q77 0 141 20t113.5 66.5t84 121.5t52.5 186l145 929h140l-150 -944q-21 -134 -68.5 -229t-116.5 -156.5t-159 -90t-196 -28.5q-91 0 -166.5 22.5t-130 70 t-85 120t-30.5 172.5zM790 1528l207 282h164l-225 -282h-146z" />
<glyph unicode="&#xdb;" horiz-adv-x="1307" d="M250 360q0 85 16 187l140 876h139l-144 -905q-12 -84 -12 -137q0 -72 20 -125t57.5 -87.5t90.5 -51.5t119 -17q77 0 141 20t113.5 66.5t84 121.5t52.5 186l145 929h140l-150 -944q-21 -134 -68.5 -229t-116.5 -156.5t-159 -90t-196 -28.5q-91 0 -166.5 22.5t-130 70 t-85 120t-30.5 172.5zM619 1528l246 282h125l157 -282h-131l-102 176l-160 -176h-135z" />
<glyph unicode="&#xdc;" horiz-adv-x="1307" d="M250 360q0 85 16 187l140 876h139l-144 -905q-12 -84 -12 -137q0 -72 20 -125t57.5 -87.5t90.5 -51.5t119 -17q77 0 141 20t113.5 66.5t84 121.5t52.5 186l145 929h140l-150 -944q-21 -134 -68.5 -229t-116.5 -156.5t-159 -90t-196 -28.5q-91 0 -166.5 22.5t-130 70 t-85 120t-30.5 172.5zM615 1669q0 42 28 71t70 29q28 0 53 -17t35 -39.5t10 -43.5q0 -29 -17 -53t-39 -34.5t-42 -10.5q-21 0 -38.5 8t-31 21.5t-21 31t-7.5 37.5zM1000 1669q0 30 17 55t38.5 35t42.5 10q42 0 70 -29t28 -71q0 -30 -16.5 -53.5t-38.5 -34t-43 -10.5 q-29 0 -54 17t-34.5 39t-9.5 42z" />
<glyph unicode="&#xdd;" horiz-adv-x="1081" d="M236 1423h135q35 -106 103 -274t183 -383q138 158 270.5 337.5t221.5 319.5h147q-52 -87 -122 -188.5t-147.5 -205t-158.5 -202t-155 -178.5l-103 -649h-139l102 651q-47 80 -95 177.5t-92.5 200t-83.5 204.5t-66 190zM682 1528l207 282h164l-225 -282h-146z" />
<glyph unicode="&#xde;" horiz-adv-x="1133" d="M193 0l225 1423h135l-37 -241h262q156 0 247 -51.5t116.5 -129t25.5 -151.5q0 -92 -31.5 -181t-95.5 -159t-161.5 -113t-229.5 -43h-264l-57 -354h-135zM403 471h230q87 0 158 25t121 73t77 118t27 159q0 85 -36.5 134.5t-104.5 67t-146 17.5h-231z" />
<glyph unicode="&#xdf;" horiz-adv-x="1147" d="M-41 -291q69 42 115.5 99t71 129t36.5 147l172 1073q10 64 36 129.5t74.5 118.5t123 87t182.5 34q135 0 207.5 -42.5t90 -99t17.5 -98.5q0 -73 -44 -139t-91 -103t-65 -53q-78 -65 -98.5 -84.5t-34 -45.5t-13.5 -54q0 -24 10 -41t32 -34t56.5 -37t82.5 -50 q78 -51 116 -93t55 -95.5t17 -108.5q0 -78 -31.5 -145.5t-87.5 -117t-132.5 -77.5t-166.5 -28q-80 0 -144 14t-91 28.5t-33 18.5l41 100q13 -12 51 -25t79 -19.5t85 -6.5q89 0 157 34.5t95.5 89.5t27.5 110q0 56 -15 92.5t-47.5 66.5t-73 58t-80 51t-70.5 49t-49.5 59.5 t-18.5 81.5q0 60 24 107.5t68 88.5t90 79q56 44 91 82t50 74t15 69q0 44 -20 76.5t-63 48.5t-97 16q-67 0 -115 -22t-80.5 -59t-51.5 -85t-28 -100l-168 -1053q-23 -144 -61.5 -230t-105.5 -144t-146 -103z" />
<glyph unicode="&#xe0;" horiz-adv-x="1128" d="M195 377q0 145 42 272t120.5 223t168.5 136.5t174 40.5q70 0 125 -19.5t89.5 -47.5t52.5 -52l16 98h133l-112 -711q-11 -63 -11 -127q0 -55 15 -112.5t26 -77.5h-139q-15 33 -22.5 71t-10.5 81q-68 -92 -157.5 -132t-186.5 -40q-68 0 -127 23t-102.5 71t-68.5 123 t-25 180zM342 377q0 -68 11.5 -121.5t38 -90.5t68 -56t101.5 -19q96 0 172 62t113 151.5t49 169.5l53 340q-27 36 -57 62t-79.5 42.5t-100.5 16.5q-78 0 -145 -41.5t-117 -116t-78.5 -176.5t-28.5 -223zM618 1423h156l135 -282h-135z" />
<glyph unicode="&#xe1;" horiz-adv-x="1128" d="M195 377q0 145 42 272t120.5 223t168.5 136.5t174 40.5q70 0 125 -19.5t89.5 -47.5t52.5 -52l16 98h133l-112 -711q-11 -63 -11 -127q0 -55 15 -112.5t26 -77.5h-139q-15 33 -22.5 71t-10.5 81q-68 -92 -157.5 -132t-186.5 -40q-68 0 -127 23t-102.5 71t-68.5 123 t-25 180zM342 377q0 -68 11.5 -121.5t38 -90.5t68 -56t101.5 -19q96 0 172 62t113 151.5t49 169.5l53 340q-27 36 -57 62t-79.5 42.5t-100.5 16.5q-78 0 -145 -41.5t-117 -116t-78.5 -176.5t-28.5 -223zM682 1141l207 282h164l-225 -282h-146z" />
<glyph unicode="&#xe2;" horiz-adv-x="1128" d="M195 377q0 145 42 272t120.5 223t168.5 136.5t174 40.5q70 0 125 -19.5t89.5 -47.5t52.5 -52l16 98h133l-112 -711q-11 -63 -11 -127q0 -55 15 -112.5t26 -77.5h-139q-15 33 -22.5 71t-10.5 81q-68 -92 -157.5 -132t-186.5 -40q-68 0 -127 23t-102.5 71t-68.5 123 t-25 180zM342 377q0 -68 11.5 -121.5t38 -90.5t68 -56t101.5 -19q96 0 172 62t113 151.5t49 169.5l53 340q-27 36 -57 62t-79.5 42.5t-100.5 16.5q-78 0 -145 -41.5t-117 -116t-78.5 -176.5t-28.5 -223zM516 1141l246 282h125l157 -282h-131l-102 176l-160 -176h-135z" />
<glyph unicode="&#xe3;" horiz-adv-x="1128" d="M195 377q0 145 42 272t120.5 223t168.5 136.5t174 40.5q70 0 125 -19.5t89.5 -47.5t52.5 -52l16 98h133l-112 -711q-11 -63 -11 -127q0 -55 15 -112.5t26 -77.5h-139q-15 33 -22.5 71t-10.5 81q-68 -92 -157.5 -132t-186.5 -40q-68 0 -127 23t-102.5 71t-68.5 123 t-25 180zM342 377q0 -68 11.5 -121.5t38 -90.5t68 -56t101.5 -19q96 0 172 62t113 151.5t49 169.5l53 340q-27 36 -57 62t-79.5 42.5t-100.5 16.5q-78 0 -145 -41.5t-117 -116t-78.5 -176.5t-28.5 -223zM475 1225q26 65 63 102t68.5 47t57.5 10q34 0 69 -13t72 -36 q41 -26 65 -36.5t44 -10.5q25 0 47 17.5t45 70.5l84 -37q-31 -67 -65.5 -103t-66.5 -46t-59 -10q-35 0 -70 12.5t-69 34.5q-44 28 -68 36.5t-43 8.5q-20 0 -43.5 -17.5t-46.5 -66.5z" />
<glyph unicode="&#xe4;" horiz-adv-x="1128" d="M195 377q0 145 42 272t120.5 223t168.5 136.5t174 40.5q70 0 125 -19.5t89.5 -47.5t52.5 -52l16 98h133l-112 -711q-11 -63 -11 -127q0 -55 15 -112.5t26 -77.5h-139q-15 33 -22.5 71t-10.5 81q-68 -92 -157.5 -132t-186.5 -40q-68 0 -127 23t-102.5 71t-68.5 123 t-25 180zM342 377q0 -68 11.5 -121.5t38 -90.5t68 -56t101.5 -19q96 0 172 62t113 151.5t49 169.5l53 340q-27 36 -57 62t-79.5 42.5t-100.5 16.5q-78 0 -145 -41.5t-117 -116t-78.5 -176.5t-28.5 -223zM506 1282q0 42 28 71t70 29q28 0 53 -17t35 -39.5t10 -43.5 q0 -29 -17 -53t-39 -34.5t-42 -10.5q-21 0 -38.5 8t-31 21.5t-21 31t-7.5 37.5zM891 1282q0 30 17 55t38.5 35t42.5 10q42 0 70 -29t28 -71q0 -30 -16.5 -53.5t-38.5 -34t-43 -10.5q-29 0 -54 17t-34.5 39t-9.5 42z" />
<glyph unicode="&#xe5;" horiz-adv-x="1128" d="M195 377q0 145 42 272t120.5 223t168.5 136.5t174 40.5q70 0 125 -19.5t89.5 -47.5t52.5 -52l16 98h133l-112 -711q-11 -63 -11 -127q0 -55 15 -112.5t26 -77.5h-139q-15 33 -22.5 71t-10.5 81q-68 -92 -157.5 -132t-186.5 -40q-68 0 -127 23t-102.5 71t-68.5 123 t-25 180zM342 377q0 -68 11.5 -121.5t38 -90.5t68 -56t101.5 -19q96 0 172 62t113 151.5t49 169.5l53 340q-27 36 -57 62t-79.5 42.5t-100.5 16.5q-78 0 -145 -41.5t-117 -116t-78.5 -176.5t-28.5 -223zM594 1341q0 62 34 111.5t79 69.5t88 20q59 0 109 -33t71 -79.5 t21 -88.5q0 -63 -35 -111.5t-80.5 -68.5t-85.5 -20q-64 0 -113.5 35t-68.5 79.5t-19 85.5zM684 1341q0 -34 19 -64.5t44 -42t48 -11.5q32 0 58.5 19t39 47.5t12.5 51.5q0 32 -17.5 62.5t-43.5 43.5t-49 13q-35 0 -63 -22t-38 -48t-10 -49z" />
<glyph unicode="&#xe6;" horiz-adv-x="1720" d="M195 377q0 145 42 272t120.5 223t168.5 136.5t174 40.5q72 0 134.5 -20.5t95 -46.5t47.5 -44l18 90h125l-22 -121q65 69 149.5 107.5t188.5 38.5q97 0 168.5 -33t102 -93.5t30.5 -129.5q0 -79 -35 -149t-124 -126t-233 -82t-319 -26v-33q0 -65 18 -118.5t53.5 -91.5 t88 -58.5t121.5 -20.5q56 0 126.5 13t110.5 34l39 -112q-74 -26 -144.5 -39t-135.5 -13q-82 0 -145.5 15.5t-111 44.5t-80 70t-51.5 92q-48 -79 -110 -129.5t-133 -69t-140 -18.5q-74 0 -135.5 23t-106.5 71t-70 123t-25 180zM342 377q0 -68 11.5 -121.5t38 -90.5t68 -56 t101.5 -19q96 0 172 62t113 151.5t49 169.5l53 340q-27 36 -57 62t-79.5 42.5t-100.5 16.5q-78 0 -145 -41.5t-117 -116t-78.5 -176.5t-28.5 -223zM1026 381v14v-14zM1036 524q187 0 305.5 27.5t171.5 71t65.5 85.5t12.5 85q0 81 -46.5 119t-133.5 38q-53 0 -113.5 -24.5 t-114.5 -76.5t-94.5 -132.5t-52.5 -192.5z" />
<glyph unicode="&#xe7;" horiz-adv-x="891" d="M197 393q0 139 37.5 258t108.5 206.5t173.5 137t231.5 49.5q78 0 129.5 -11.5t87.5 -22.5l-19 -121q-18 9 -54.5 18t-76.5 15t-76 6q-83 0 -145 -26t-105.5 -69t-71.5 -98.5t-44.5 -114.5t-22.5 -117t-6 -106q0 -68 16.5 -123t49.5 -93t82 -58.5t114 -20.5q60 0 111.5 11 t75.5 20.5t36 16.5l41 -109q-51 -22 -119 -39.5t-165 -17.5q-105 0 -178.5 33.5t-120.5 90t-68.5 130.5t-21.5 155zM299 -375l184 273h170l-205 -273h-149z" />
<glyph unicode="&#xe8;" horiz-adv-x="1034" d="M197 399q0 123 40 247t118.5 220.5t182.5 141.5t212 45q97 0 168.5 -33t102 -93.5t30.5 -129.5q0 -79 -35 -149t-124 -126t-233.5 -82t-318.5 -26v-33q0 -65 18 -118.5t53.5 -91.5t88 -58.5t121.5 -20.5q56 0 126.5 13t110.5 34l39 -112q-74 -26 -145 -39t-136 -13 q-117 0 -197 31.5t-129.5 88t-71 134t-21.5 170.5zM350 524q187 0 305.5 27.5t171.5 71t65.5 85.5t12.5 85q0 81 -46.5 119t-133.5 38q-88 0 -172.5 -57.5t-135 -156t-67.5 -212.5zM577 1423h156l135 -282h-135z" />
<glyph unicode="&#xe9;" horiz-adv-x="1034" d="M197 399q0 123 40 247t118.5 220.5t182.5 141.5t212 45q97 0 168.5 -33t102 -93.5t30.5 -129.5q0 -79 -35 -149t-124 -126t-233.5 -82t-318.5 -26v-33q0 -65 18 -118.5t53.5 -91.5t88 -58.5t121.5 -20.5q56 0 126.5 13t110.5 34l39 -112q-74 -26 -145 -39t-136 -13 q-117 0 -197 31.5t-129.5 88t-71 134t-21.5 170.5zM350 524q187 0 305.5 27.5t171.5 71t65.5 85.5t12.5 85q0 81 -46.5 119t-133.5 38q-88 0 -172.5 -57.5t-135 -156t-67.5 -212.5zM651 1141l207 282h164l-225 -282h-146z" />
<glyph unicode="&#xea;" horiz-adv-x="1034" d="M197 399q0 123 40 247t118.5 220.5t182.5 141.5t212 45q97 0 168.5 -33t102 -93.5t30.5 -129.5q0 -79 -35 -149t-124 -126t-233.5 -82t-318.5 -26v-33q0 -65 18 -118.5t53.5 -91.5t88 -58.5t121.5 -20.5q56 0 126.5 13t110.5 34l39 -112q-74 -26 -145 -39t-136 -13 q-117 0 -197 31.5t-129.5 88t-71 134t-21.5 170.5zM350 524q187 0 305.5 27.5t171.5 71t65.5 85.5t12.5 85q0 81 -46.5 119t-133.5 38q-88 0 -172.5 -57.5t-135 -156t-67.5 -212.5zM475 1141l246 282h125l157 -282h-131l-102 176l-160 -176h-135z" />
<glyph unicode="&#xeb;" horiz-adv-x="1034" d="M197 399q0 123 40 247t118.5 220.5t182.5 141.5t212 45q97 0 168.5 -33t102 -93.5t30.5 -129.5q0 -79 -35 -149t-124 -126t-233.5 -82t-318.5 -26v-33q0 -65 18 -118.5t53.5 -91.5t88 -58.5t121.5 -20.5q56 0 126.5 13t110.5 34l39 -112q-74 -26 -145 -39t-136 -13 q-117 0 -197 31.5t-129.5 88t-71 134t-21.5 170.5zM350 524q187 0 305.5 27.5t171.5 71t65.5 85.5t12.5 85q0 81 -46.5 119t-133.5 38q-88 0 -172.5 -57.5t-135 -156t-67.5 -212.5zM471 1282q0 42 28 71t70 29q28 0 53 -17t35 -39.5t10 -43.5q0 -29 -17 -53t-39 -34.5 t-42 -10.5q-21 0 -38.5 8t-31 21.5t-21 31t-7.5 37.5zM856 1282q0 30 17 55t38.5 35t42.5 10q42 0 70 -29t28 -71q0 -30 -16.5 -53.5t-38.5 -34t-43 -10.5q-29 0 -54 17t-34.5 39t-9.5 42z" />
<glyph unicode="&#xec;" horiz-adv-x="520" d="M205 0l147 920q-50 9 -131 18l15 90h266l-164 -1028h-133zM220 1423h156l135 -282h-135z" />
<glyph unicode="&#xed;" horiz-adv-x="520" d="M205 0l147 920q-50 9 -131 18l15 90h266l-164 -1028h-133zM365 1141l207 282h164l-225 -282h-146z" />
<glyph unicode="&#xee;" horiz-adv-x="520" d="M140 1141l246 282h125l157 -282h-131l-102 176l-160 -176h-135zM205 0l147 920q-50 9 -131 18l15 90h266l-164 -1028h-133z" />
<glyph unicode="&#xef;" horiz-adv-x="520" d="M124 1282q0 42 28 71t70 29q28 0 53 -17t35 -39.5t10 -43.5q0 -29 -17 -53t-39 -34.5t-42 -10.5q-21 0 -38.5 8t-31 21.5t-21 31t-7.5 37.5zM205 0l147 920q-50 9 -131 18l15 90h266l-164 -1028h-133zM509 1282q0 30 17 55t38.5 35t42.5 10q42 0 70 -29t28 -71 q0 -30 -16.5 -53.5t-38.5 -34t-43 -10.5q-29 0 -54 17t-34.5 39t-9.5 42z" />
<glyph unicode="&#xf0;" horiz-adv-x="1143" d="M193 375q0 130 36.5 245.5t102.5 202.5t157 138t199 51q72 0 127 -19.5t83.5 -45.5t41.5 -44q-17 76 -40 139t-61.5 124.5t-84.5 109.5l-123 -119l-72 70l119 116q-64 50 -143 87l49 96q109 -48 180 -101l102 101l72 -70l-98 -94q85 -81 137 -180.5t75 -195.5t29 -171 t6 -137q0 -158 -38.5 -287.5t-107.5 -221.5t-165 -143t-211 -51q-95 0 -165 28t-116 80.5t-68.5 126t-22.5 165.5zM340 358q0 -48 9.5 -97.5t35 -89t70 -64.5t114.5 -25q97 0 170 51.5t117 139.5t60 182t16 176q0 87 -26 150.5t-80.5 94.5t-125.5 31q-99 0 -170.5 -52 t-114.5 -138.5t-59 -182.5t-16 -176z" />
<glyph unicode="&#xf1;" horiz-adv-x="1118" d="M172 0l164 1028h133l-25 -154q44 60 101.5 101t121 57.5t124.5 16.5q96 0 163 -39.5t90 -98t23 -112.5q0 -70 -12 -152l-103 -647h-133l94 592q19 126 19 180q0 56 -23.5 93.5t-68 53t-92.5 15.5q-94 0 -175.5 -58.5t-122 -135.5t-51.5 -146l-94 -594h-133zM475 1225 q26 65 63 102t68.5 47t57.5 10q34 0 69 -13t72 -36q41 -26 65 -36.5t44 -10.5q25 0 47 17.5t45 70.5l84 -37q-31 -67 -65.5 -103t-66.5 -46t-59 -10q-35 0 -70 12.5t-69 34.5q-44 28 -68 36.5t-43 8.5q-20 0 -43.5 -17.5t-46.5 -66.5z" />
<glyph unicode="&#xf2;" horiz-adv-x="1118" d="M197 389q0 135 38 256t107 211.5t164.5 143.5t210.5 53q95 0 165 -29t115.5 -83t67.5 -130.5t22 -171.5q0 -135 -38 -255.5t-107 -211.5t-164.5 -144t-210.5 -53q-95 0 -165 29t-115.5 83t-67.5 130.5t-22 171.5zM344 371q0 -51 9.5 -101.5t34.5 -91.5t69 -66.5 t114 -25.5q96 0 170 53t120 147t62.5 193.5t16.5 177.5q0 90 -25 156.5t-79.5 98.5t-124.5 32q-96 0 -172 -56.5t-119.5 -148t-59.5 -186t-16 -182.5zM598 1423h156l135 -282h-135z" />
<glyph unicode="&#xf3;" horiz-adv-x="1118" d="M197 389q0 135 38 256t107 211.5t164.5 143.5t210.5 53q95 0 165 -29t115.5 -83t67.5 -130.5t22 -171.5q0 -135 -38 -255.5t-107 -211.5t-164.5 -144t-210.5 -53q-95 0 -165 29t-115.5 83t-67.5 130.5t-22 171.5zM344 371q0 -51 9.5 -101.5t34.5 -91.5t69 -66.5 t114 -25.5q96 0 170 53t120 147t62.5 193.5t16.5 177.5q0 90 -25 156.5t-79.5 98.5t-124.5 32q-96 0 -172 -56.5t-119.5 -148t-59.5 -186t-16 -182.5zM651 1141l207 282h164l-225 -282h-146z" />
<glyph unicode="&#xf4;" horiz-adv-x="1118" d="M197 389q0 135 38 256t107 211.5t164.5 143.5t210.5 53q95 0 165 -29t115.5 -83t67.5 -130.5t22 -171.5q0 -135 -38 -255.5t-107 -211.5t-164.5 -144t-210.5 -53q-95 0 -165 29t-115.5 83t-67.5 130.5t-22 171.5zM344 371q0 -51 9.5 -101.5t34.5 -91.5t69 -66.5 t114 -25.5q96 0 170 53t120 147t62.5 193.5t16.5 177.5q0 90 -25 156.5t-79.5 98.5t-124.5 32q-96 0 -172 -56.5t-119.5 -148t-59.5 -186t-16 -182.5zM516 1141l246 282h125l157 -282h-131l-102 176l-160 -176h-135z" />
<glyph unicode="&#xf5;" horiz-adv-x="1118" d="M197 389q0 135 38 256t107 211.5t164.5 143.5t210.5 53q95 0 165 -29t115.5 -83t67.5 -130.5t22 -171.5q0 -135 -38 -255.5t-107 -211.5t-164.5 -144t-210.5 -53q-95 0 -165 29t-115.5 83t-67.5 130.5t-22 171.5zM344 371q0 -51 9.5 -101.5t34.5 -91.5t69 -66.5 t114 -25.5q96 0 170 53t120 147t62.5 193.5t16.5 177.5q0 90 -25 156.5t-79.5 98.5t-124.5 32q-96 0 -172 -56.5t-119.5 -148t-59.5 -186t-16 -182.5zM454 1225q26 65 63 102t68.5 47t57.5 10q34 0 69 -13t72 -36q41 -26 65 -36.5t44 -10.5q25 0 47 17.5t45 70.5l84 -37 q-31 -67 -65.5 -103t-66.5 -46t-59 -10q-35 0 -70 12.5t-69 34.5q-44 28 -68 36.5t-43 8.5q-20 0 -43.5 -17.5t-46.5 -66.5z" />
<glyph unicode="&#xf6;" horiz-adv-x="1118" d="M197 389q0 135 38 256t107 211.5t164.5 143.5t210.5 53q95 0 165 -29t115.5 -83t67.5 -130.5t22 -171.5q0 -135 -38 -255.5t-107 -211.5t-164.5 -144t-210.5 -53q-95 0 -165 29t-115.5 83t-67.5 130.5t-22 171.5zM344 371q0 -51 9.5 -101.5t34.5 -91.5t69 -66.5 t114 -25.5q96 0 170 53t120 147t62.5 193.5t16.5 177.5q0 90 -25 156.5t-79.5 98.5t-124.5 32q-96 0 -172 -56.5t-119.5 -148t-59.5 -186t-16 -182.5zM482 1282q0 42 28 71t70 29q28 0 53 -17t35 -39.5t10 -43.5q0 -29 -17 -53t-39 -34.5t-42 -10.5q-21 0 -38.5 8t-31 21.5 t-21 31t-7.5 37.5zM867 1282q0 30 17 55t38.5 35t42.5 10q42 0 70 -29t28 -71q0 -30 -16.5 -53.5t-38.5 -34t-43 -10.5q-29 0 -54 17t-34.5 39t-9.5 42z" />
<glyph unicode="&#xf7;" d="M178 651l21 127h962l-20 -127h-963zM506 377q0 29 20 57t45 40.5t45 12.5q30 0 56.5 -19.5t40.5 -45t14 -45.5q0 -30 -20.5 -58t-45.5 -40.5t-45 -12.5q-29 0 -59 21.5t-40.5 45.5t-10.5 44zM612 1053q0 28 20.5 56.5t45.5 41t45 12.5q30 0 56.5 -19.5t40.5 -45t14 -45.5 q0 -30 -22 -60t-45.5 -40.5t-43.5 -10.5q-31 0 -58.5 19.5t-40 45.5t-12.5 46z" />
<glyph unicode="&#xf8;" horiz-adv-x="1118" d="M162 -53l112 155q-40 54 -58.5 125.5t-18.5 161.5q0 135 38 256t107 211.5t164.5 143.5t210.5 53q66 0 119.5 -15t95.5 -41l106 146l84 -60l-114 -155q40 -53 59.5 -125.5t19.5 -163.5q0 -135 -38 -255.5t-107 -211.5t-164.5 -144t-210.5 -53q-66 0 -120.5 15t-96.5 41 l-104 -144zM344 371q0 -37 5 -74.5t18 -71.5l491 672q-26 22 -62 34.5t-85 12.5q-96 0 -172 -56.5t-119.5 -148t-59.5 -186t-16 -182.5zM426 133q26 -22 61 -34.5t84 -12.5q96 0 170 53t120 147t62.5 193.5t16.5 177.5q0 38 -5 76t-17 72z" />
<glyph unicode="&#xf9;" horiz-adv-x="1118" d="M213 229q0 80 12 152l103 647h133l-94 -592q-19 -127 -19 -180q0 -74 43 -118t141 -44q63 0 121.5 27t105.5 73.5t79 108.5t43 131l94 594h133l-164 -1028h-133l25 154q-47 -63 -103.5 -102t-120 -55.5t-123.5 -16.5q-67 0 -118.5 18.5t-86.5 51.5t-53 79t-18 100z M534 1423h156l135 -282h-135z" />
<glyph unicode="&#xfa;" horiz-adv-x="1118" d="M213 229q0 80 12 152l103 647h133l-94 -592q-19 -127 -19 -180q0 -74 43 -118t141 -44q63 0 121.5 27t105.5 73.5t79 108.5t43 131l94 594h133l-164 -1028h-133l25 154q-47 -63 -103.5 -102t-120 -55.5t-123.5 -16.5q-67 0 -118.5 18.5t-86.5 51.5t-53 79t-18 100z M661 1141l207 282h164l-225 -282h-146z" />
<glyph unicode="&#xfb;" horiz-adv-x="1118" d="M213 229q0 80 12 152l103 647h133l-94 -592q-19 -127 -19 -180q0 -74 43 -118t141 -44q63 0 121.5 27t105.5 73.5t79 108.5t43 131l94 594h133l-164 -1028h-133l25 154q-47 -63 -103.5 -102t-120 -55.5t-123.5 -16.5q-67 0 -118.5 18.5t-86.5 51.5t-53 79t-18 100z M455 1141l246 282h125l157 -282h-131l-102 176l-160 -176h-135z" />
<glyph unicode="&#xfc;" horiz-adv-x="1118" d="M213 229q0 80 12 152l103 647h133l-94 -592q-19 -127 -19 -180q0 -74 43 -118t141 -44q63 0 121.5 27t105.5 73.5t79 108.5t43 131l94 594h133l-164 -1028h-133l25 154q-47 -63 -103.5 -102t-120 -55.5t-123.5 -16.5q-67 0 -118.5 18.5t-86.5 51.5t-53 79t-18 100z M461 1282q0 42 28 71t70 29q28 0 53 -17t35 -39.5t10 -43.5q0 -29 -17 -53t-39 -34.5t-42 -10.5q-21 0 -38.5 8t-31 21.5t-21 31t-7.5 37.5zM846 1282q0 30 17 55t38.5 35t42.5 10q42 0 70 -29t28 -71q0 -30 -16.5 -53.5t-38.5 -34t-43 -10.5q-29 0 -54 17t-34.5 39t-9.5 42 z" />
<glyph unicode="&#xfd;" horiz-adv-x="938" d="M-94 -391l41 100q12 -8 32.5 -15t36 -10t35.5 -3q52 0 96.5 24.5t86.5 71.5t83 104q31 45 58 88t55 86q-69 246 -133 487.5t-123 485.5h137q48 -208 101 -415.5t112 -415.5q101 175 217 403t205 428h146q-100 -214 -189.5 -388.5t-184.5 -345.5t-171 -292 q-110 -176 -182 -266t-148.5 -130t-153.5 -40q-60 0 -103.5 15.5t-53.5 27.5zM579 1141l207 282h164l-225 -282h-146z" />
<glyph unicode="&#xfe;" horiz-adv-x="1133" d="M106 -414l306 1919h133l-101 -635q39 57 93 99t118 61t125 19q130 0 205 -63.5t97 -150.5t22 -161q0 -151 -37.5 -278t-104.5 -219.5t-160.5 -144.5t-205.5 -52q-69 0 -131.5 17.5t-96 40.5t-51.5 42l-77 -494h-134zM338 199q37 -45 94.5 -75t140.5 -30q101 0 178 54 t125 148t64 193.5t16 180.5q0 89 -25 150t-76.5 87.5t-113.5 26.5q-76 0 -136 -34.5t-105 -94t-74 -139.5t-43 -170z" />
<glyph unicode="&#xff;" horiz-adv-x="938" d="M-94 -391l41 100q12 -8 32.5 -15t36 -10t35.5 -3q52 0 96.5 24.5t86.5 71.5t83 104q31 45 58 88t55 86q-69 246 -133 487.5t-123 485.5h137q48 -208 101 -415.5t112 -415.5q101 175 217 403t205 428h146q-100 -214 -189.5 -388.5t-184.5 -345.5t-171 -292 q-110 -176 -182 -266t-148.5 -130t-153.5 -40q-60 0 -103.5 15.5t-53.5 27.5zM373 1282q0 42 28 71t70 29q28 0 53 -17t35 -39.5t10 -43.5q0 -29 -17 -53t-39 -34.5t-42 -10.5q-21 0 -38.5 8t-31 21.5t-21 31t-7.5 37.5zM758 1282q0 30 17 55t38.5 35t42.5 10q42 0 70 -29 t28 -71q0 -30 -16.5 -53.5t-38.5 -34t-43 -10.5q-29 0 -54 17t-34.5 39t-9.5 42z" />
<glyph unicode="&#x152;" horiz-adv-x="1985" d="M229 508q0 213 52 387.5t143 298t214.5 191t266.5 67.5q113 0 196.5 -39t123.5 -95t55 -106l33 211h768l-19 -118h-635l-75 -471h549l-19 -117h-547l-96 -598h668l-19 -119h-801l31 195q-85 -119 -194.5 -171.5t-231.5 -52.5q-126 0 -214 42.5t-143.5 116t-80.5 171 t-25 207.5zM383 506q0 -41 4 -88t15.5 -93t32.5 -88.5t55.5 -75t83.5 -52t116 -19.5q129 0 231.5 76t170 205t95 272t27.5 275q0 83 -14.5 156.5t-51.5 135t-101 92.5t-140 31q-128 0 -233 -77t-171.5 -207t-93 -271.5t-26.5 -271.5z" />
<glyph unicode="&#x153;" horiz-adv-x="1759" d="M197 389q0 135 38 256t107 211.5t164.5 143.5t210.5 53q134 0 216.5 -57.5t119.5 -170.5q53 79 123 132t148.5 74.5t150.5 21.5q97 0 168.5 -33t102 -93.5t30.5 -129.5q0 -79 -35 -149t-124 -126t-233.5 -82t-318.5 -26v-33q0 -65 18 -118.5t53.5 -91.5t88 -58.5 t121.5 -20.5q56 0 126.5 13t110.5 34l39 -112q-74 -26 -145 -39t-136 -13q-81 0 -144 16t-109.5 45.5t-79 71t-52.5 93.5q-66 -107 -166.5 -166.5t-222.5 -59.5q-95 0 -165 29t-115.5 83t-67.5 130.5t-22 171.5zM344 371q0 -51 9.5 -101.5t34.5 -91.5t69 -66.5t114 -25.5 q96 0 170 53t120 147t62.5 193.5t16.5 177.5q0 90 -25 156.5t-79.5 98.5t-124.5 32q-96 0 -172 -56.5t-119.5 -148t-59.5 -186t-16 -182.5zM1075 524q187 0 305.5 27.5t171.5 71t65.5 85.5t12.5 85q0 81 -46.5 119t-133.5 38q-88 0 -172.5 -57.5t-135 -156t-67.5 -212.5z " />
<glyph unicode="&#x178;" horiz-adv-x="1081" d="M236 1423h135q35 -106 103 -274t183 -383q138 158 270.5 337.5t221.5 319.5h147q-52 -87 -122 -188.5t-147.5 -205t-158.5 -202t-155 -178.5l-103 -649h-139l102 651q-47 80 -95 177.5t-92.5 200t-83.5 204.5t-66 190zM512 1669q0 42 28 71t70 29q28 0 53 -17t35 -39.5 t10 -43.5q0 -29 -17 -53t-39 -34.5t-42 -10.5q-21 0 -38.5 8t-31 21.5t-21 31t-7.5 37.5zM897 1669q0 30 17 55t38.5 35t42.5 10q42 0 70 -29t28 -71q0 -30 -16.5 -53.5t-38.5 -34t-43 -10.5q-29 0 -54 17t-34.5 39t-9.5 42z" />
<glyph unicode="&#x2c6;" horiz-adv-x="750" d="M291 1141l246 282h125l157 -282h-131l-102 176l-160 -176h-135z" />
<glyph unicode="&#x2dc;" horiz-adv-x="748" d="M270 1225q26 65 63 102t68.5 47t57.5 10q34 0 69 -13t72 -36q41 -26 65 -36.5t44 -10.5q25 0 47 17.5t45 70.5l84 -37q-31 -67 -65.5 -103t-66.5 -46t-59 -10q-35 0 -70 12.5t-69 34.5q-44 28 -68 36.5t-43 8.5q-20 0 -43.5 -17.5t-46.5 -66.5z" />
<glyph unicode="&#x2000;" horiz-adv-x="905" />
<glyph unicode="&#x2001;" horiz-adv-x="1810" />
<glyph unicode="&#x2002;" horiz-adv-x="905" />
<glyph unicode="&#x2003;" horiz-adv-x="1810" />
<glyph unicode="&#x2004;" horiz-adv-x="603" />
<glyph unicode="&#x2005;" horiz-adv-x="452" />
<glyph unicode="&#x2006;" horiz-adv-x="301" />
<glyph unicode="&#x2007;" horiz-adv-x="301" />
<glyph unicode="&#x2008;" horiz-adv-x="226" />
<glyph unicode="&#x2009;" horiz-adv-x="362" />
<glyph unicode="&#x200a;" horiz-adv-x="100" />
<glyph unicode="&#x2010;" horiz-adv-x="688" d="M203 469h430l24 158h-430z" />
<glyph unicode="&#x2011;" horiz-adv-x="688" d="M203 469h430l24 158h-430z" />
<glyph unicode="&#x2012;" horiz-adv-x="688" d="M203 469h430l24 158h-430z" />
<glyph unicode="&#x2013;" horiz-adv-x="1024" d="M76 473l18 117h1024l-18 -117h-1024z" />
<glyph unicode="&#x2014;" horiz-adv-x="2048" d="M76 473l18 117h2048l-18 -117h-2048z" />
<glyph unicode="&#x2018;" horiz-adv-x="463" d="M311 1135q0 93 32 171.5t80 132.5t91 87l64 -74q-9 -10 -27.5 -29t-36.5 -46.5t-31.5 -63t-13.5 -78.5q0 -31 10 -59t39 -50l-16 -59h-183q-8 24 -8 68z" />
<glyph unicode="&#x2019;" horiz-adv-x="463" d="M295 1120q41 46 57.5 67t33.5 64t17 86q0 31 -10 59t-39 50l17 59h182q8 -24 8 -67q0 -95 -34.5 -176t-80 -131.5t-88.5 -83.5z" />
<glyph unicode="&#x201a;" horiz-adv-x="463" d="M100 -154q9 10 27.5 29t36.5 46.5t31.5 63t13.5 78.5q0 31 -10 59t-39 50l16 59h182q2 -6 5.5 -25t3.5 -42q0 -94 -32.5 -172t-80 -131.5t-90.5 -87.5z" />
<glyph unicode="&#x201c;" horiz-adv-x="764" d="M297 1135q0 93 32 171.5t79.5 132t91.5 87.5l63 -74q-45 -50 -62 -72.5t-31.5 -62t-14.5 -82.5q0 -31 10 -59t39 -50l-17 -59h-182q-8 24 -8 68zM641 1135q0 93 32 171.5t80 132.5t91 87l63 -74q-45 -50 -62 -72.5t-31.5 -62t-14.5 -82.5q0 -31 10 -59t39 -50l-17 -59 h-182q-8 24 -8 68z" />
<glyph unicode="&#x201d;" horiz-adv-x="764" d="M274 1120q9 10 27.5 29t36.5 46.5t31.5 63t13.5 78.5q0 31 -10 59t-39 50l16 59h182q2 -6 5.5 -25t3.5 -42q0 -95 -34.5 -176t-80.5 -131.5t-88 -83.5zM618 1120q9 10 27.5 29t36.5 46.5t31.5 63t13.5 78.5q0 31 -10 59t-39 50l16 59h183q8 -24 8 -67q0 -95 -34.5 -176 t-80.5 -131.5t-88 -83.5z" />
<glyph unicode="&#x201e;" horiz-adv-x="764" d="M78 -154q9 10 27 29t36 46.5t31.5 63t13.5 78.5q0 31 -10 59t-39 50l17 59h182q8 -24 8 -67q0 -94 -32.5 -172t-80.5 -132t-90 -87zM422 -154q9 10 27 29t36 46.5t31.5 63t13.5 78.5q0 31 -10 59t-39 50l17 59h182q8 -24 8 -67q0 -94 -32.5 -172t-80 -131.5t-90.5 -87.5z " />
<glyph unicode="&#x2022;" horiz-adv-x="821" d="M199 690q0 98 52.5 177t126.5 112t142 33q67 0 125.5 -25.5t102 -69t69 -102t25.5 -125.5q0 -100 -54.5 -179t-127.5 -110.5t-140 -31.5t-125.5 25t-102 68.5t-68.5 102t-25 125.5z" />
<glyph unicode="&#x2026;" horiz-adv-x="2048" d="M223 98q0 33 20.5 63.5t48 43t50.5 12.5q33 0 62.5 -20.5t43 -48.5t13.5 -50q0 -33 -20.5 -62.5t-48 -42.5t-50.5 -13t-44.5 10t-38 26.5t-26.5 37.5t-10 44zM905 98q0 33 20.5 63.5t48 43t50.5 12.5q33 0 62.5 -20.5t43 -48t13.5 -50.5q0 -33 -20.5 -62.5t-48 -42.5 t-50.5 -13q-34 0 -64 20.5t-42.5 47.5t-12.5 50zM1587 98q0 33 20.5 63.5t48 43t50.5 12.5q33 0 62.5 -20.5t43 -48t13.5 -50.5q0 -33 -20.5 -62.5t-48 -42.5t-50.5 -13q-34 0 -64 20.5t-42.5 47.5t-12.5 50z" />
<glyph unicode="&#x202f;" horiz-adv-x="362" />
<glyph unicode="&#x2039;" horiz-adv-x="569" d="M164 522l325 412h154l-336 -422l195 -401h-142z" />
<glyph unicode="&#x203a;" horiz-adv-x="569" d="M92 111l336 421l-195 402h142l196 -412l-325 -411h-154z" />
<glyph unicode="&#x205f;" horiz-adv-x="452" />
<glyph unicode="&#x20ac;" horiz-adv-x="1133" d="M135 530l39 113h141q18 149 37 219h-164l39 113h162q37 108 99 194.5t141.5 147.5t173 94t194.5 33q100 0 187.5 -21.5t128.5 -46.5l-47 -114q-29 12 -68 24.5t-95.5 23.5t-101.5 11q-161 0 -279 -90.5t-187 -255.5h598l-39 -113h-596q-14 -49 -23 -104t-14 -115h522 l-39 -113h-487q0 -92 19.5 -169.5t63 -134t111.5 -88.5t166 -32q88 0 152.5 17t111.5 37l45 -117q-65 -26 -144 -44.5t-181 -18.5q-123 0 -215 38.5t-153 109.5t-91.5 172t-30.5 226v4h-176z" />
<glyph unicode="&#x2122;" horiz-adv-x="1823" d="M252 1319v104h637v-104h-260v-756h-117v756h-260zM967 563q2 215 12.5 468.5t26.5 391.5h135l229 -624l229 624h134q9 -99 16.5 -248t13.5 -293t9 -319h-113q0 105 -1.5 160.5t-7.5 249t-10 274.5l-223 -616h-98l-221 612q-12 -269 -15.5 -446.5t-3.5 -233.5h-112z" />
<glyph unicode="&#x25fc;" horiz-adv-x="1030" d="M0 0v1030h1030v-1030h-1030z" />
<glyph unicode="&#xfb01;" horiz-adv-x="1126" d="M12 -291q71 43 118 100.5t71 128.5t35 146l120 840h-123l19 104h121l18 117q31 193 134 287t292 94q74 0 134 -12t96 -23l-17 -113q-28 10 -83 22.5t-146 12.5q-94 0 -154.5 -39.5t-86 -104t-36.5 -128.5l-18 -113h598l-164 -1028h-133l147 924h-465l-116 -820 q-13 -91 -34 -160t-56.5 -124.5t-89.5 -101.5t-134 -91z" />
<glyph unicode="&#xfb02;" horiz-adv-x="1122" d="M12 -291q71 43 118 100.5t71 128.5t35 146l120 840h-123l19 104h121l22 137q24 149 100.5 234t166.5 106t161 21q94 0 175 -20.5t120.5 -40t48.5 -23.5l-227 -1442h-129l217 1372q-50 19 -65 24.5t-60.5 14t-91.5 8.5q-63 0 -111.5 -15t-83.5 -47.5t-57.5 -83.5 t-34.5 -124l-18 -121h235l-18 -104h-234l-116 -820q-13 -91 -34 -160t-56.5 -124.5t-89.5 -101.5t-134 -91z" />
</font>
</defs>
</svg>
