<?xml version="1.0" standalone="no"?>
<!DOCTYPE svg PUBLIC "-//W3C//DTD SVG 1.1//EN" "http://www.w3.org/Graphics/SVG/1.1/DTD/svg11.dtd" >
<svg xmlns="http://www.w3.org/2000/svg">
<metadata></metadata>
<defs>
<font id="sparkasse_ltregular" horiz-adv-x="1116" >
<font-face units-per-em="2048" ascent="1638" descent="-410" />
<missing-glyph horiz-adv-x="471" />
<glyph horiz-adv-x="0" />
<glyph unicode="&#xd;" horiz-adv-x="471" />
<glyph unicode=" "  horiz-adv-x="471" />
<glyph unicode="&#x09;" horiz-adv-x="471" />
<glyph unicode="&#xa0;" horiz-adv-x="471" />
<glyph unicode="!" horiz-adv-x="496" d="M129 98q0 33 20.5 63.5t48 43t50.5 12.5q33 0 62.5 -20.5t43 -48t13.5 -50.5q0 -33 -20.5 -62.5t-48 -42.5t-50.5 -13q-34 0 -64 20.5t-42.5 47.5t-12.5 50zM174 1423h150l-9 -1009h-133z" />
<glyph unicode="&#x22;" horiz-adv-x="782" d="M156 1061v444h145v-444h-145zM479 1061v444h146v-444h-146z" />
<glyph unicode="#" horiz-adv-x="1171" d="M80 451v108h231l43 307h-217v109h232l63 448h121l-64 -448h275l63 448h121l-63 -448h207v-109h-222l-43 -307h207v-108h-221l-63 -451h-121l63 451h-274l-64 -451h-121l64 451h-217zM432 559h275l43 307h-275z" />
<glyph unicode="$" horiz-adv-x="1069" d="M111 78l43 110q28 -16 92.5 -38t122 -30.5t114.5 -8.5v573q-33 12 -72.5 27t-79.5 36t-77.5 48.5t-66.5 65.5t-46.5 87t-17.5 113q0 75 24.5 138t70.5 110t113 76.5t152 39.5v101h99v-96q75 -2 144.5 -13.5t102 -23t50.5 -17.5v-119q-49 20 -123 38t-174 22v-531 q76 -28 144 -59t119 -76t81 -109.5t30 -160.5q0 -83 -26 -149.5t-75 -115.5t-118 -79t-155 -39v-125h-99v121q-74 1 -131.5 10t-102.5 21t-79 26.5t-59 26.5zM254 1071q0 -48 14.5 -84.5t43.5 -65.5t71.5 -52.5t99.5 -45.5v490q-51 -7 -93.5 -25.5t-72.5 -49t-46.5 -72 t-16.5 -95.5zM582 119q63 10 106.5 34.5t71 59t39.5 77.5t12 91q0 79 -35 131.5t-90 82.5t-104 50v-526z" />
<glyph unicode="%" horiz-adv-x="1929" d="M143 1077q0 108 23 190.5t65 138t101.5 84t132.5 28.5t132 -28.5t101 -84t65 -138t23 -190.5q0 -161 -50.5 -264.5t-124 -138.5t-146.5 -35t-132.5 28t-101.5 83t-65 137t-23 190zM270 1077q0 -76 13 -138t38 -106t61.5 -68t82.5 -24q67 0 114 51t63.5 130t16.5 155 q0 120 -29 199.5t-74.5 110t-90.5 30.5q-71 0 -117 -52.5t-62 -131t-16 -156.5zM426 0l934 1505h143l-934 -1505h-143zM1143 426q0 108 23 190.5t65 138t101 83.5t132 28q111 0 187.5 -63.5t105.5 -166t29 -210.5q0 -161 -50.5 -264.5t-124.5 -138.5t-147 -35t-132 28 t-101 83t-65 137t-23 190zM1270 426q0 -76 13 -138t38 -106t61 -68t82 -24q68 0 115 51t63.5 130t16.5 155q0 120 -28.5 199t-75 110t-91.5 31q-70 0 -116 -52.5t-62 -131t-16 -156.5z" />
<glyph unicode="&#x26;" horiz-adv-x="1323" d="M109 352q0 84 23.5 152.5t76.5 122.5q42 44 96 85t152 95q-67 66 -109 126.5t-55.5 113.5t-13.5 104q0 92 51.5 164t127.5 101.5t154 29.5q118 0 193.5 -45.5t103 -112.5t27.5 -129q0 -60 -21 -112t-59 -99q-29 -34 -81.5 -76.5t-121.5 -83.5q30 -30 94.5 -103t125 -146 t112.5 -136q25 56 41 119t23 125h125q-7 -81 -31 -172.5t-74 -179.5q59 -75 112 -151t95 -144h-170q-46 74 -119 178q-60 -67 -134 -113t-152.5 -65.5t-149.5 -19.5q-108 0 -191 28.5t-138.5 79t-84 118.5t-28.5 146zM248 367q0 -64 22.5 -113.5t63.5 -83.5t97 -52t124 -18 q90 0 167.5 33t120.5 72.5t68 70.5q-46 61 -95.5 122.5t-98 120t-95.5 111.5t-87 95q-64 -35 -116.5 -72t-90.5 -79.5t-59 -93t-21 -113.5zM408 1161q0 -50 21 -99t46 -79t45 -51q14 -16 29 -31.5t29 -32.5q69 39 105.5 68t57.5 55q32 38 47 81.5t15 88.5q0 40 -13 73.5 t-38 57.5t-60 37.5t-80 13.5q-41 0 -78 -12t-65 -35t-44.5 -57t-16.5 -78z" />
<glyph unicode="'" horiz-adv-x="469" d="M162 1061v444h145v-444h-145z" />
<glyph unicode="(" horiz-adv-x="592" d="M123 647q0 143 22.5 268.5t60.5 233.5t87 197t102 159h140q-50 -67 -97.5 -162t-84.5 -207.5t-59 -237.5t-22 -251t22 -250.5t59 -236.5t84.5 -206.5t97.5 -160.5h-140q-53 70 -102 159t-87 196t-60.5 232t-22.5 267z" />
<glyph unicode=")" horiz-adv-x="592" d="M57 -207q78 104 143 262.5t92 312t27 279.5q0 179 -45 360.5t-106 306t-111 191.5h140q91 -121 153 -263.5t90.5 -297t28.5 -297.5q0 -142 -22.5 -267t-60.5 -232t-87 -196t-102 -159h-140z" />
<glyph unicode="*" horiz-adv-x="795" d="M57 1210l37 103l250 -82v274h107v-274l249 82l37 -103l-252 -82l154 -210l-88 -66l-154 211l-153 -211l-88 66l153 210z" />
<glyph unicode="+" d="M76 651v127h416v428h131v-428h415v-127h-415v-434h-131v434h-416z" />
<glyph unicode="," horiz-adv-x="469" d="M129 -162q19 26 34.5 54.5t28.5 66t13 72.5q0 49 -20 84t-52 57l12 59h195q11 -27 15.5 -61.5t4.5 -65.5q0 -92 -39 -179.5t-114 -153.5z" />
<glyph unicode="-" horiz-adv-x="700" d="M123 475h455v146h-455v-146z" />
<glyph unicode="." horiz-adv-x="469" d="M117 98q0 33 20.5 63.5t48 43t50.5 12.5q34 0 63 -21t42 -48t13 -50q0 -33 -21 -63t-47.5 -42t-49.5 -13q-23 0 -44.5 10t-38 26.5t-26.5 37.5t-10 44z" />
<glyph unicode="/" horiz-adv-x="516" d="M0 0l385 1505h131l-385 -1505h-131z" />
<glyph unicode="0" d="M113 711q0 368 114.5 550.5t331.5 182.5t331 -182.5t114 -550.5q0 -369 -114 -550t-331 -181t-331.5 181t-114.5 550zM258 711q0 -143 17.5 -258t54.5 -195.5t94 -124t135 -43.5q114 0 183.5 93t92.5 239t23 289q0 145 -17.5 260.5t-54 195.5t-93 123t-134.5 43t-135 -43 t-94 -123t-54.5 -195.5t-17.5 -260.5z" />
<glyph unicode="1" d="M217 1182v114l297 127h113v-1314h252v-109h-641v109h251v1163q-81 -24 -272 -90z" />
<glyph unicode="2" d="M94 0v109q117 177 367 436q74 78 119 129.5t89 118t70.5 138t26.5 132.5q0 126 -68.5 195t-214.5 69q-76 0 -147 -22t-109.5 -45t-46.5 -29v127q39 23 83.5 42t108 31.5t134.5 12.5q205 0 307 -98.5t102 -278.5q0 -116 -63 -232t-141.5 -202.5t-132.5 -143.5 q-234 -246 -326 -370h702v-119h-860z" />
<glyph unicode="3" d="M88 66l51 114q33 -22 85.5 -42.5t107 -30t114.5 -9.5q116 0 199 41.5t117.5 116.5t34.5 162q0 54 -17.5 104.5t-63 89t-124 61.5t-199.5 23h-31v119h31q121 0 205 31.5t121 96.5t37 147q0 79 -38.5 135t-107 80t-145.5 24q-87 0 -159 -23.5t-110.5 -45.5t-45.5 -27v125 q31 19 81 39.5t115.5 33.5t140.5 13q158 0 254.5 -54.5t127 -133.5t30.5 -154q0 -100 -41.5 -176t-94 -111t-95.5 -53q77 -15 142 -62.5t99.5 -123.5t34.5 -162q0 -91 -30.5 -170t-90.5 -137.5t-150 -92.5t-210 -34q-84 0 -147.5 10t-109 24t-74.5 28.5t-44 23.5z" />
<glyph unicode="4" d="M76 346v109q143 251 311 493t350 475h133v-968h152v-109h-152v-346h-133v346h-661zM203 455h534v796q-143 -190 -276 -389t-258 -407z" />
<glyph unicode="5" d="M117 68l55 110q32 -22 81.5 -41.5t101.5 -29t98 -9.5q64 0 125.5 18.5t110 62.5t78.5 118.5t30 185.5q0 66 -16 126.5t-56.5 107t-108.5 74.5t-172 28q-45 0 -131 -14t-141 -29l43 647h655v-118h-546l-25 -390q35 8 81.5 14.5t104.5 6.5q116 -1 202.5 -34t143.5 -92.5 t85 -141t28 -179.5q0 -119 -32.5 -213.5t-94 -160t-150 -100.5t-200.5 -35q-100 0 -179.5 18.5t-117.5 38.5t-53 31z" />
<glyph unicode="6" d="M125 604q0 90 12 187t40.5 190.5t75.5 177.5t116.5 147t164.5 100.5t220 37.5q52 0 87 -3.5t54 -6.5v-121q-19 5 -56.5 8.5t-103.5 3.5q-84 0 -160 -29.5t-137 -95t-103.5 -171t-58.5 -257.5q42 79 127.5 126.5t200.5 47.5q146 0 244.5 -68.5t134 -181t35.5 -231.5 q0 -116 -30.5 -206t-89 -152t-143 -94.5t-192.5 -32.5q-213 0 -325.5 153t-112.5 471zM268 459q0 -73 17.5 -139.5t54 -117t92 -80.5t131.5 -30q119 0 192 59.5t95 146t22 165.5q0 128 -38 212t-108 119t-153 35q-117 0 -190 -61t-94 -146t-21 -163z" />
<glyph unicode="7" d="M104 1305v118h859v-118q-38 -73 -102.5 -209.5t-151.5 -354.5q-25 -61 -52 -132.5t-53.5 -145t-51.5 -145t-46.5 -133.5t-37.5 -110.5t-24 -74.5h-133q150 451 248 705q65 169 157 370t107 230h-719z" />
<glyph unicode="8" d="M82 348q0 81 25 144t69 110.5t103.5 81t128.5 57.5q-83 41 -137 83t-85.5 86.5t-44 92.5t-12.5 101q0 112 65 196t166.5 116t210.5 32q150 0 249.5 -51.5t136 -128t36.5 -144.5q0 -120 -67.5 -214.5t-204.5 -159.5q123 -58 193 -125t92 -134.5t22 -128.5q0 -87 -32 -158 t-93 -122t-149.5 -79t-200.5 -28q-111 0 -198.5 29t-148 79t-92.5 118.5t-32 146.5zM223 360q0 -64 26 -114t71.5 -84.5t108 -53t136.5 -18.5q110 0 184 42t102 106.5t28 126.5q0 83 -38 140.5t-118.5 102t-175.5 80.5q-128 -47 -203.5 -101.5t-98 -112.5t-22.5 -114z M260 1100q0 -76 47 -135t124 -97.5t159 -68.5q100 39 159.5 88.5t83 107t23.5 115.5q0 80 -44 134.5t-113.5 76.5t-137.5 22q-74 0 -130 -18.5t-94 -51.5t-57.5 -77.5t-19.5 -95.5z" />
<glyph unicode="9" d="M98 963q0 116 30.5 205.5t89 151t143 93t192.5 31.5q214 0 326 -153.5t112 -471.5q0 -90 -12 -186.5t-40.5 -190t-75.5 -177.5t-116.5 -147t-165 -100.5t-219.5 -37.5q-52 0 -92 3.5t-59 8.5l20 114q39 -8 125 -8q92 0 174 30.5t146.5 98.5t107.5 177t58 266 q-21 -42 -54 -76t-75.5 -58t-93.5 -37.5t-109 -13.5q-195 0 -303.5 119.5t-108.5 358.5zM240 965q0 -79 15 -145.5t50 -115t92 -75.5t140 -27q114 0 185 59t94.5 145t23.5 163q0 117 -39.5 201.5t-109 122.5t-144.5 38q-84 0 -142 -27.5t-95 -76.5t-53.5 -116t-16.5 -146z " />
<glyph unicode=":" horiz-adv-x="469" d="M117 98q0 33 20.5 63.5t48 43t50.5 12.5q34 0 63 -21t42 -48t13 -50q0 -33 -21 -63t-47.5 -42t-49.5 -13q-23 0 -44.5 10t-38 26.5t-26.5 37.5t-10 44zM117 909q0 33 20.5 63.5t47.5 43t51 12.5q34 0 63 -21t42 -48t13 -50q0 -33 -21 -63t-48 -42.5t-49 -12.5 q-34 0 -64 20.5t-42.5 47.5t-12.5 50z" />
<glyph unicode=";" horiz-adv-x="469" d="M117 909q0 -23 10 -44t26.5 -37.5t38 -26.5t44.5 -10q34 0 63 21t42 47.5t13 49.5q0 33 -21 63t-48 43t-49 13q-34 0 -63.5 -20.5t-42.5 -48t-13 -50.5zM129 -162l78 -67q75 66 114 153.5t39 179.5q0 31 -4.5 65.5t-15.5 61.5h-195l-12 -59q32 -22 52 -57t20 -84 q0 -35 -9.5 -65.5t-22 -56t-25 -44t-19.5 -27.5z" />
<glyph unicode="&#x3c;" d="M76 653v123l962 430v-137l-796 -354l796 -361v-137z" />
<glyph unicode="=" d="M76 449v126h962v-126h-962zM76 854v127h962v-127h-962z" />
<glyph unicode="&#x3e;" d="M76 217v137l796 361l-796 354v137l962 -430v-123z" />
<glyph unicode="?" horiz-adv-x="991" d="M123 1241v131q27 17 69 34.5t113.5 31.5t145.5 14q147 0 240.5 -51.5t127 -130.5t33.5 -154q0 -73 -22.5 -126.5t-54.5 -93t-68 -67t-64 -47.5q-70 -52 -103.5 -94t-43 -88.5t-9.5 -95.5v-88h-129v92q0 95 24 164t68 112t91 76q67 48 99 78.5t50.5 78t18.5 101.5 q0 75 -35.5 124.5t-97 70t-127.5 20.5q-94 0 -173 -23t-113 -44t-40 -25zM303 98q0 33 20.5 63.5t48 43t50.5 12.5q33 0 62.5 -20.5t43 -48t13.5 -50.5q0 -33 -20.5 -62.5t-48 -42.5t-50.5 -13q-34 0 -64 20.5t-42.5 47.5t-12.5 50z" />
<glyph unicode="@" horiz-adv-x="1868" d="M123 430q0 116 28.5 224.5t82 203.5t129 173.5t170 134.5t205 87t233.5 31q118 0 221 -25t189 -71t153.5 -111t114.5 -145t71.5 -173t24.5 -194q0 -138 -42.5 -251.5t-115.5 -192t-148.5 -108t-135.5 -29.5q-81 0 -132 25t-67 56.5t-23 55.5q-35 -44 -87.5 -78 t-103 -47.5t-93.5 -13.5q-69 0 -125 19t-95.5 59t-61 102t-21.5 147q0 144 45 256.5t118.5 188t154.5 106.5t151 31q77 0 135 -25t90 -71l14 77h115l-111 -618q-6 -40 -6 -70q0 -37 20.5 -56t45.5 -22.5t45 -3.5q59 0 113.5 36t96 98.5t66.5 148t25 184.5q0 125 -45.5 233.5 t-129 188.5t-201 126t-261.5 46q-163 0 -303.5 -63t-235.5 -174.5t-135.5 -242.5t-40.5 -263q0 -171 55.5 -307t151.5 -231t225.5 -146t278.5 -51q127 0 240 29t204 75l49 -111q-73 -36 -154 -62t-167.5 -39t-155.5 -13q-201 0 -361 66.5t-272 183t-171.5 275t-59.5 341.5z M631 315q0 -45 10 -85t33 -70.5t60 -48t91 -17.5q83 0 148.5 51.5t95.5 121t41 134.5l47 277q-26 33 -51.5 54.5t-66 34.5t-85.5 13q-60 0 -117.5 -32.5t-103.5 -92.5t-74 -146t-28 -194z" />
<glyph unicode="A" horiz-adv-x="1192" d="M10 0q45 169 109.5 372.5t142.5 414.5t144 366.5t124 269.5h132q48 -95 97 -207.5t97.5 -235t94.5 -251t88 -255t78 -247t65 -227.5h-150q-49 184 -125 432h-635q-101 -340 -125 -432h-137zM311 545h561q-57 176 -125.5 360.5t-156.5 388.5q-195 -476 -279 -749z" />
<glyph unicode="B" horiz-adv-x="1241" d="M193 0v1423h421q161 0 256 -59.5t119.5 -140.5t24.5 -152q0 -75 -31.5 -142t-81 -103.5t-96.5 -53.5q66 -12 122 -38t96.5 -69.5t63.5 -106t23 -148.5q0 -80 -27 -154t-84.5 -131t-146.5 -91t-213 -34h-446zM328 117h254q190 0 282 71.5t92 221.5q0 117 -56.5 182 t-151.5 85.5t-195 20.5h-225v-581zM328 813h204q120 0 201 39.5t108 99.5t27 117q0 91 -36.5 144.5t-109 73.5t-159.5 20h-235v-494z" />
<glyph unicode="C" horiz-adv-x="1147" d="M131 711q0 172 41 308t120 230.5t195 144.5t267 50q100 0 181 -20.5t132 -45.5v-131q-73 29 -112.5 41t-94.5 21.5t-102 9.5q-106 0 -186.5 -31.5t-139.5 -91.5q-74 -75 -110.5 -193.5t-36.5 -289.5q0 -305 117 -457t358 -152q76 0 144.5 11t103 23t47.5 18l47 -113 q-55 -23 -112.5 -36.5t-120 -20t-126.5 -6.5q-150 0 -264 49.5t-191.5 143t-117 229.5t-39.5 309z" />
<glyph unicode="D" horiz-adv-x="1346" d="M193 0v1423h391q147 0 263.5 -44.5t197.5 -134t124 -223t43 -310.5t-43 -310.5t-124 -222.5t-197.5 -133.5t-263.5 -44.5h-391zM332 119h256q114 0 201.5 39t147.5 114.5t91 186t31 252.5t-31 252.5t-91 186.5t-147.5 115.5t-201.5 39.5h-256v-1186z" />
<glyph unicode="E" horiz-adv-x="1112" d="M193 0v1423h790v-118h-651v-471h563v-117h-563v-598h686v-119h-825z" />
<glyph unicode="F" horiz-adv-x="1026" d="M193 0v1423h780v-118h-641v-471h553v-117h-553v-717h-139z" />
<glyph unicode="G" horiz-adv-x="1298" d="M133 709q0 172 41.5 308.5t122.5 231.5t199.5 146t273.5 51q98 0 189 -21.5t139 -44.5v-131q-69 27 -114 40t-104 22.5t-106 9.5q-242 0 -364.5 -154.5t-122.5 -455.5q0 -303 125 -456t389 -153q77 0 132 5t77 8v508h-262v120h401v-743q-192 -16 -361 -16 q-163 0 -285.5 48.5t-204.5 141t-123.5 227.5t-41.5 308z" />
<glyph unicode="H" horiz-adv-x="1362" d="M193 0v1423h139v-573h698v573h139v-1423h-139v729h-698v-729h-139z" />
<glyph unicode="I" horiz-adv-x="524" d="M193 0v1423h139v-1423h-139z" />
<glyph unicode="J" horiz-adv-x="950" d="M41 66l55 106q11 -8 33 -21t53 -25.5t70 -22t84 -9.5q60 0 113 17t94 57q32 30 52.5 74t28 100.5t7.5 116.5v964h139v-944q0 -107 -18.5 -189.5t-48 -130t-60.5 -77.5q-54 -53 -127 -80t-166 -27q-66 0 -118.5 11.5t-91.5 27t-64 30.5t-35 22z" />
<glyph unicode="K" horiz-adv-x="1190" d="M193 0v1423h139v-626l604 626h174l-637 -661q106 -78 207.5 -174t192.5 -198t169 -202.5t138 -187.5h-176q-65 86 -141 179t-161 185.5t-178 179.5t-192 161v-705h-139z" />
<glyph unicode="L" horiz-adv-x="997" d="M193 0v1423h139v-1304h624v-119h-763z" />
<glyph unicode="M" horiz-adv-x="1610" d="M172 0q0 104 2.5 225.5t6.5 250t9.5 259.5t12 254.5t14.5 234.5t16 199h181l393 -1108l393 1108h176q8 -88 16 -201t14.5 -239.5t12 -260.5t10 -263t6 -247t3.5 -212h-138q0 77 -1.5 172.5t-4 201.5t-6 219.5t-7.5 226t-9 221.5t-10 206l-404 -1130h-108l-400 1122 q-4 -76 -9 -174.5t-9 -209.5t-8 -228t-7 -229.5t-6 -214.5t-2 -183h-137z" />
<glyph unicode="N" horiz-adv-x="1362" d="M193 0v1423h147q192 -278 364 -563t330 -579v1142h135v-1423h-129q-164 317 -340.5 621t-371.5 604v-1225h-135z" />
<glyph unicode="O" horiz-adv-x="1411" d="M133 711q0 180 41 318.5t116.5 232.5t181.5 142t235 48q128 0 233.5 -48t180.5 -142t116 -232.5t41 -318.5q0 -181 -41 -319t-116 -231.5t-180.5 -141.5t-233.5 -48q-129 0 -235 48t-181.5 141.5t-116.5 231.5t-41 319zM287 711q0 -139 26 -253.5t78 -196t131 -126.5 t185 -45q105 0 183.5 45t130 126.5t77.5 196t26 253.5q0 141 -26 256t-78 196t-130.5 125.5t-182.5 44.5q-105 0 -184 -44.5t-131.5 -125.5t-78.5 -196t-26 -256z" />
<glyph unicode="P" horiz-adv-x="1155" d="M193 0v1423h409q226 0 340.5 -97.5t114.5 -295.5q0 -78 -24 -155.5t-79.5 -139.5t-147 -100.5t-226.5 -38.5h-252v-596h-135zM328 713h235q87 0 151.5 22t106.5 62t63 96.5t21 126.5q0 120 -49 185t-133 83.5t-170 18.5h-225v-594z" />
<glyph unicode="Q" horiz-adv-x="1411" d="M133 711q0 180 41 318.5t116.5 232.5t181.5 142t235 48q128 0 233.5 -48t180.5 -142t116 -232.5t41 -318.5q0 -209 -54.5 -361t-154.5 -246q48 -52 103 -105t120 -110l-80 -94q-114 99 -243 240q-113 -64 -262 -64q-129 0 -235 48t-181.5 141.5t-116.5 231.5t-41 319z M287 711q0 -139 26 -253.5t78 -196t131 -126.5t185 -45q101 0 178 41q-75 88 -162 221l96 60q35 -55 77 -108t83 -97q74 80 109.5 209.5t35.5 294.5q0 141 -26 256t-78 196t-130.5 125.5t-182.5 44.5q-105 0 -184 -44.5t-131.5 -125.5t-78.5 -196t-26 -256z" />
<glyph unicode="R" horiz-adv-x="1255" d="M193 0v1423h409q224 0 334.5 -99t110.5 -280q0 -96 -34.5 -178t-98 -134.5t-140.5 -80.5l4 -4q95 -108 177 -227.5t143.5 -233.5t93.5 -186h-164q-71 137 -140.5 250.5t-142.5 210.5t-131 155h-286v-616h-135zM328 733h225q126 0 207.5 46t108 114.5t26.5 136.5 q0 113 -47 176t-127.5 82t-167.5 19h-225v-574z" />
<glyph unicode="S" horiz-adv-x="1073" d="M63 66l48 114q18 -9 53 -23t83.5 -27t108 -22.5t125.5 -9.5q134 0 213.5 42t104 107t24.5 126q0 93 -52 152t-131 91t-146 58q-64 23 -133.5 50.5t-128 71t-96.5 109t-38 164.5q0 86 31 156t90 119.5t144.5 76.5t193.5 27q93 0 166 -11t112 -23.5t60 -18.5v-127 q-59 19 -106 31t-114 21t-128 9q-68 0 -125 -15.5t-98 -47t-64.5 -78.5t-23.5 -109q0 -57 20.5 -97t61.5 -71t102.5 -57t142.5 -55q90 -32 166 -65.5t131 -80t86 -113.5t31 -167q0 -95 -33.5 -169t-96.5 -125t-152.5 -77.5t-200.5 -26.5q-115 0 -211 19t-144 38.5t-76 33.5z " />
<glyph unicode="T" horiz-adv-x="1081" d="M41 1305v118h999v-118h-430v-1305h-139v1305h-430z" />
<glyph unicode="U" horiz-adv-x="1337" d="M180 479v944h139v-946q0 -98 25 -169.5t71 -117.5t110.5 -68t142.5 -22q122 0 205 51t114 139.5t31 186.5v946h139v-944q0 -130 -36 -225t-100.5 -157t-154.5 -92t-198 -30t-197.5 30t-154 92t-100.5 157t-36 225z" />
<glyph unicode="V" horiz-adv-x="1171" d="M10 1423h154q27 -101 64.5 -232.5t89 -289t119 -340.5t153.5 -387q146 351 246 655.5t178 593.5h147q-58 -213 -144 -477.5t-183 -515.5t-183 -430h-131q-58 117 -142.5 325.5t-160.5 429.5t-122 371.5t-85 296.5z" />
<glyph unicode="W" horiz-adv-x="1712" d="M10 1423h152q18 -96 43 -222t62 -278.5t86.5 -330.5t115.5 -379l303 1171h180l303 -1171q100 285 166 540.5t96 413.5t44 256h141q-26 -145 -58 -289.5t-79.5 -328t-89.5 -322.5t-86 -268.5t-78 -214.5h-140l-315 1243l-315 -1243h-140q-35 95 -72 207.5t-73.5 235 t-71.5 251t-66.5 255t-59 247t-48.5 227.5z" />
<glyph unicode="X" horiz-adv-x="1098" d="M20 0l455 715q-65 103 -123.5 197t-109.5 181t-94.5 169t-79.5 161h147q60 -130 145.5 -274.5t190.5 -314.5q254 411 336 589h129q-50 -111 -109.5 -222t-139.5 -244t-146 -236l456 -721h-164l-368 590l-377 -590h-148z" />
<glyph unicode="Y" horiz-adv-x="1114" d="M10 1423h146q26 -54 61.5 -123t84.5 -152t113 -179.5t146 -204.5q137 183 238.5 355t165.5 304h139q-62 -134 -155 -297t-176 -282t-146 -197v-647h-140v645q-65 79 -132.5 177.5t-130.5 202.5t-118.5 207t-95.5 191z" />
<glyph unicode="Z" horiz-adv-x="1083" d="M68 0v119q79 144 179 318t220 360q178 272 352 508h-735v118h889v-118q-62 -83 -195.5 -279.5t-202.5 -302.5q-59 -90 -165.5 -264.5t-146.5 -245t-54 -94.5h807v-119h-948z" />
<glyph unicode="[" horiz-adv-x="631" d="M182 -207v1712h381v-104h-241v-1503h241v-105h-381z" />
<glyph unicode="\" horiz-adv-x="516" d="M0 1505h131l385 -1505h-131z" />
<glyph unicode="]" horiz-adv-x="631" d="M68 -102h241v1503h-241v104h381v-1712h-381v105z" />
<glyph unicode="^" horiz-adv-x="1096" d="M78 598l411 825h115l414 -825h-148l-327 662l-326 -662h-139z" />
<glyph unicode="_" horiz-adv-x="1024" d="M0 -332h1024v-102h-1024v102z" />
<glyph unicode="`" horiz-adv-x="766" d="M209 1423h168l178 -282h-147z" />
<glyph unicode="a" horiz-adv-x="1032" d="M100 291q0 105 46.5 179t142.5 116q65 29 150.5 42t197.5 13h98v68q0 92 -33.5 144t-97 69.5t-139.5 17.5q-77 0 -144.5 -15.5t-136.5 -39.5v119q64 19 134.5 32t168.5 13q150 0 236.5 -44t114.5 -123.5t28 -166.5v-713h-127l-2 94q-39 -37 -91 -63t-111.5 -39.5 t-112.5 -13.5q-65 0 -123.5 16.5t-102.5 53.5t-70 96t-26 145zM240 289q0 -39 10.5 -74.5t35 -63.5t65.5 -44.5t102 -16.5q92 0 164 36t118 87v319h-98q-95 0 -168.5 -10.5t-124.5 -37.5t-77.5 -74.5t-26.5 -120.5z" />
<glyph unicode="b" horiz-adv-x="1159" d="M172 0v1505h133v-631q30 53 82 95t117 61t129 19q195 0 298 -132t103 -387q0 -132 -29.5 -234.5t-86 -172.5t-138 -106.5t-184.5 -36.5q-182 0 -291 118v-98h-133zM305 229q53 -68 117.5 -101.5t152.5 -33.5q158 0 236 110t78 326q0 83 -14 156.5t-47 128.5t-88 87 t-138 32q-110 0 -181 -68t-93.5 -163.5t-22.5 -186.5v-287z" />
<glyph unicode="c" horiz-adv-x="926" d="M125 512q0 125 31.5 224t92.5 167.5t150 104.5t203 36q85 0 146 -11.5t100 -22.5v-121q-153 39 -227 39q-173 0 -261 -101.5t-88 -312.5t86 -312.5t258 -101.5q82 0 137 13t87 26l34 -110q-49 -19 -114.5 -32t-163.5 -13q-114 0 -202 35.5t-148 103t-90.5 166 t-30.5 223.5z" />
<glyph unicode="d" horiz-adv-x="1155" d="M125 508q0 127 33 227t91.5 170t139.5 107t176 37q90 0 163.5 -29.5t121.5 -83.5v569h133v-1505h-133v164q-56 -101 -134 -142.5t-186 -41.5q-90 0 -164.5 31t-128 95.5t-83 164t-29.5 237.5zM272 508q0 -77 12 -150.5t43.5 -131.5t86.5 -93t141 -35q103 0 173.5 59.5 t96 147.5t25.5 168v336q-43 44 -78 69t-87 40.5t-105 15.5q-69 0 -126 -30.5t-97.5 -86t-62.5 -134t-22 -175.5z" />
<glyph unicode="e" horiz-adv-x="1075" d="M125 512q0 124 29 224.5t85 170.5t137.5 108t186.5 38q199 0 298.5 -119.5t99.5 -343.5q0 -31 -1.5 -59t-1.5 -56h-686q6 -92 29 -164.5t66 -122.5t106.5 -76t149.5 -26q68 0 131 8t106 21l29 -107q-50 -15 -119 -24t-168 -9q-114 0 -203 37t-150 107t-92.5 169 t-31.5 224zM270 582h543v59q0 108 -33 180.5t-92.5 100.5t-124.5 28q-71 0 -123.5 -25.5t-88.5 -73t-55.5 -115.5t-25.5 -154z" />
<glyph unicode="f" horiz-adv-x="592" d="M47 924v104h127v199q0 146 76 222.5t213 76.5q79 0 170 -17v-106q-87 14 -141 14q-79 0 -121 -29t-53 -80.5t-11 -107.5v-172h244v-104h-242v-924h-133v924h-129z" />
<glyph unicode="g" horiz-adv-x="1155" d="M125 512q0 181 69 311.5t168.5 178t190.5 47.5q99 0 174 -29.5t123 -83.5v92h133v-1067q0 -92 -27 -165.5t-80 -124.5t-132 -78t-183 -27q-97 0 -166.5 10.5t-128.5 24.5l25 110q54 -14 116 -23.5t132 -9.5q311 0 311 283v203q-56 -98 -134 -139t-186 -41 q-90 0 -164.5 31t-128 95.5t-83 164t-29.5 237.5zM272 512q0 -77 12 -152t44 -134t88 -95.5t143 -36.5q100 0 169.5 62t95.5 151.5t26 169.5v332q-43 44 -78 69t-87 40.5t-105 15.5q-69 0 -126 -29.5t-97.5 -84.5t-62.5 -133t-22 -175z" />
<glyph unicode="h" horiz-adv-x="1143" d="M172 0v1505h133v-637q49 83 133.5 132t210.5 49q117 0 194.5 -49t105.5 -126t28 -155v-719h-133v672q0 133 -55 197.5t-177 64.5q-65 0 -121.5 -25.5t-97.5 -70.5t-64.5 -105t-23.5 -129v-604h-133z" />
<glyph unicode="i" horiz-adv-x="514" d="M55 938v90h273v-1028h-133v920q-64 10 -140 18zM139 1360q0 32 16 55.5t38.5 34t44.5 10.5q28 0 53 -17t35 -39.5t10 -43.5q0 -29 -17 -53t-39 -34.5t-42 -10.5q-21 0 -39 8t-31.5 21.5t-21 31t-7.5 37.5z" />
<glyph unicode="j" horiz-adv-x="514" d="M-104 -414l24 105q9 -4 46 -9.5t61 -5.5q86 0 127 45t41 148v1051q-64 10 -140 18v90h273v-1167q0 -146 -69 -220.5t-210 -74.5q-52 0 -94 7t-59 13zM139 1360q0 32 16 55.5t38.5 34t44.5 10.5q28 0 53 -17t35 -39.5t10 -43.5q0 -29 -17 -53t-39 -34.5t-42 -10.5 q-21 0 -39 8t-31.5 21.5t-21 31t-7.5 37.5z" />
<glyph unicode="k" horiz-adv-x="963" d="M172 0v1505h133v-899l436 422h162l-457 -442q76 -63 149.5 -138.5t140.5 -153.5t124.5 -154t102.5 -140h-175q-47 62 -101 131t-115 139t-128 138.5t-139 130.5v-539h-133z" />
<glyph unicode="l" horiz-adv-x="496" d="M51 1415v90h273v-1505h-134v1397q-61 10 -139 18z" />
<glyph unicode="m" horiz-adv-x="1708" d="M172 0v1028h133v-149q50 81 124.5 125.5t186.5 44.5q107 0 182.5 -46.5t104.5 -136.5q59 94 141 138.5t191 44.5q107 0 179 -46.5t100 -119.5t28 -148v-735h-133v682q0 132 -48 192t-157 60q-59 0 -110 -24t-89 -66.5t-59.5 -101.5t-21.5 -128v-614h-133v682 q0 132 -48 192t-157 60q-59 0 -110.5 -24t-89.5 -66.5t-59.5 -101.5t-21.5 -128v-614h-133z" />
<glyph unicode="n" horiz-adv-x="1143" d="M172 0v1028h133v-164q50 85 134.5 135t209.5 50q117 0 194.5 -49t105.5 -126t28 -155v-719h-133v672q0 133 -55 197.5t-177 64.5q-65 0 -121.5 -25.5t-97.5 -70.5t-64.5 -105t-23.5 -129v-604h-133z" />
<glyph unicode="o" horiz-adv-x="1143" d="M125 514q0 121 28 220.5t84 170.5t139.5 109.5t194.5 38.5t195 -38.5t140 -109.5t84 -170.5t28 -220.5q0 -116 -29.5 -214.5t-86.5 -170.5t-140 -113t-191 -41q-107 0 -190 41t-140 113t-86.5 170.5t-29.5 214.5zM272 514q0 -83 14.5 -160t49 -136.5t92 -95.5t143.5 -36 q123 0 194 74t89 172.5t18 181.5q0 135 -36 238t-107 147.5t-158 44.5q-85 0 -142.5 -36.5t-92 -96.5t-49.5 -137.5t-15 -159.5z" />
<glyph unicode="p" horiz-adv-x="1159" d="M172 -414v1442h133v-174q28 60 81.5 107.5t118 67.5t128.5 20q196 0 298.5 -130.5t102.5 -388.5q0 -270 -112 -410t-326 -140q-92 0 -161 23.5t-130 74.5v-492h-133zM305 209q53 -53 117 -84t147 -31q85 0 145.5 30t91.5 76t48 91q35 96 35 233q0 135 -34.5 231.5 t-102 137.5t-150.5 41q-75 0 -131 -34.5t-93 -94t-55 -139.5t-18 -170v-287z" />
<glyph unicode="q" horiz-adv-x="1155" d="M125 508q0 127 33 227t91.5 170t139.5 107t176 37q90 0 163.5 -29.5t121.5 -83.5v92h133v-1442h-133v574q-56 -98 -134 -139t-186 -41q-90 0 -164.5 31t-128 95.5t-83 164t-29.5 237.5zM272 508q0 -77 12 -151t44 -132.5t88 -94.5t143 -36q101 0 170.5 61.5t95 149.5 t25.5 168v336q-43 44 -78 69t-87 40.5t-105 15.5q-69 0 -126 -30.5t-97.5 -86t-62.5 -134t-22 -175.5z" />
<glyph unicode="r" horiz-adv-x="709" d="M172 0v1028h133v-201q29 67 82 115.5t110.5 69t112.5 20.5q48 0 66 -4v-131q-2 0 -15.5 1t-27.5 1q-82 0 -143.5 -29t-102.5 -74t-61.5 -99t-20.5 -105v-592h-133z" />
<glyph unicode="s" horiz-adv-x="928" d="M92 45l39 105q47 -21 94 -34t95.5 -19.5t101.5 -6.5q102 0 164.5 27.5t81 70t18.5 82.5q0 67 -43 105t-104 59t-113 39q-64 21 -120 42.5t-97.5 53.5t-65.5 78.5t-24 116.5q0 99 52.5 167t135.5 93t168 25q99 0 168.5 -11.5t114.5 -23.5v-117q-51 17 -118 30t-155 13 q-109 0 -173 -38t-64 -124q0 -39 14.5 -66t44.5 -47.5t77 -37.5t112 -37q134 -41 202 -82.5t96.5 -101.5t28.5 -132q0 -104 -57.5 -175t-148 -95t-181.5 -24q-79 0 -158 11.5t-121.5 27.5t-64.5 26z" />
<glyph unicode="t" horiz-adv-x="690" d="M45 924v104h168v242q62 23 133 59v-301h275v-104h-275v-633q0 -76 20.5 -122.5t63 -61.5t94.5 -15q28 0 65 4t56 10l23 -104q-31 -9 -80.5 -15.5t-100.5 -6.5q-144 0 -209 75t-65 221v648h-168z" />
<glyph unicode="u" horiz-adv-x="1143" d="M166 328v700h133v-678q0 -133 55 -194.5t176 -61.5q98 0 172.5 54.5t105 130.5t30.5 145v604h133v-1028h-133v164q-50 -85 -134.5 -134.5t-209.5 -49.5q-155 0 -241.5 85.5t-86.5 262.5z" />
<glyph unicode="v" horiz-adv-x="938" d="M10 1028h142q40 -140 96.5 -312.5t112 -317t108.5 -265.5q99 227 180.5 465.5t136.5 429.5h142q-70 -232 -176 -516t-209 -512h-152q-33 72 -68 154.5t-69.5 171.5t-68.5 181t-65 182.5t-59 176.5t-51 162z" />
<glyph unicode="w" horiz-adv-x="1397" d="M14 1028h133q19 -95 42.5 -201t53.5 -220.5t67.5 -234.5t82.5 -241l244 870h143l224 -870q66 179 115 352.5t80.5 311.5t49.5 233h133q-42 -211 -89 -386.5t-104.5 -339.5t-115.5 -302h-151l-217 827l-230 -827h-151q-59 138 -106 272t-84.5 263.5t-67 253t-52.5 239.5z " />
<glyph unicode="x" horiz-adv-x="909" d="M16 0l367 522q-75 111 -141.5 210.5t-108 168t-70.5 127.5h138q48 -94 112.5 -191t145.5 -212q197 289 256 403h131q-57 -113 -135.5 -235t-180.5 -271l363 -522h-152l-282 416l-297 -416h-146z" />
<glyph unicode="y" horiz-adv-x="956" d="M-43 -403l31 102q12 -5 40 -11.5t66 -6.5q54 0 100.5 25t84.5 72.5t67 104.5l82 160q-43 78 -99 192t-115 250t-103 246t-69 178.5t-42 118.5h143q48 -145 117.5 -314.5t125 -288.5t114.5 -232q84 190 167 420t138 415h141q-50 -161 -103.5 -309t-99 -268t-101 -249.5 t-89.5 -199.5q-47 -98 -90 -178t-92 -137.5t-109.5 -89t-142.5 -31.5q-66 0 -108 12t-54 19z" />
<glyph unicode="z" horiz-adv-x="928" d="M78 0v104q39 65 129.5 197t198.5 277q98 134 270 346h-578v104h731v-104q-11 -13 -115 -143.5t-206 -266.5q-105 -138 -177 -243t-108 -167h627v-104h-772z" />
<glyph unicode="{" horiz-adv-x="629" d="M68 596v106q78 0 118.5 69.5t40.5 219.5v277q0 77 25 133.5t73 80t103 23.5h133v-104h-88q-32 0 -52.5 -10.5t-32.5 -30t-16.5 -46.5t-4.5 -61v-286q0 -115 -28 -185.5t-63.5 -95.5t-60.5 -37q52 -26 85 -64.5t50 -103.5t17 -149v-287q0 -54 11 -87t37 -46.5t58 -13.5h88 v-105h-133q-55 0 -93.5 19t-62.5 51.5t-34.5 76t-10.5 91.5v276q0 151 -40.5 220t-118.5 69z" />
<glyph unicode="|" horiz-adv-x="549" d="M225 -207v1712h99v-1712h-99z" />
<glyph unicode="}" horiz-adv-x="629" d="M68 -102h88q43 0 68 22t31.5 56.5t6.5 68.5v287q0 113 27 182t63 96t62 39q-52 23 -86 63t-50 105t-16 150v286q0 57 -12.5 88.5t-38 45.5t-55.5 14h-88v104h133q78 0 124.5 -39t61 -94.5t14.5 -103.5v-277q0 -150 41 -219.5t119 -69.5v-106q-78 0 -119 -69t-41 -220 v-276q0 -77 -25.5 -133.5t-72.5 -80.5t-102 -24h-133v105z" />
<glyph unicode="~" horiz-adv-x="1333" d="M109 410q38 93 90 152.5t111.5 83.5t117.5 24q51 0 118.5 -24t133.5 -62.5t124.5 -61t104.5 -22.5q47 0 82 18t65.5 60.5t59.5 99.5l109 -55q-41 -97 -94 -157t-110.5 -82t-113.5 -22q-34 0 -90 13.5t-95.5 32t-70.5 36.5q-68 39 -124.5 63.5t-104.5 24.5 q-46 0 -81 -17.5t-66 -61t-58 -99.5z" />
<glyph unicode="&#xa1;" horiz-adv-x="496" d="M129 1333q0 33 20.5 63.5t47.5 43t51 12.5q33 0 62.5 -20.5t43 -48.5t13.5 -50q0 -34 -20.5 -63.5t-48 -42.5t-50.5 -13t-44.5 10t-38 26.5t-26.5 38t-10 44.5zM174 0l8 1010h133l9 -1010h-150z" />
<glyph unicode="&#xa2;" horiz-adv-x="915" d="M119 709q0 112 25.5 203.5t75 159.5t121.5 110.5t165 56.5v184h98v-178q62 -2 112 -9t84 -15t42 -11v-120q-149 38 -238 38v-835q56 0 111 8t82 17.5t37 13.5l34 -111q-48 -18 -109.5 -30.5t-154.5 -14.5v-176h-98v182q-95 12 -167 53.5t-121 109t-74 159t-25 205.5z M264 711q0 -350 238 -406v811q-118 -29 -178 -129t-60 -276z" />
<glyph unicode="&#xa3;" horiz-adv-x="1069" d="M68 0v113q48 6 90 48t62 102t26 120l26 299h-166l33 113h144l20 206q17 167 91 270.5t177.5 138t204.5 34.5q76 0 141 -14.5t92.5 -27t32.5 -13.5v-125q-25 14 -66 28t-94 24.5t-100 10.5q-72 0 -130.5 -16.5t-102 -56.5t-71.5 -106t-38 -165l-18 -188h409l-32 -113h-387 l-25 -270q-8 -80 -31 -145.5t-50.5 -99.5t-51.5 -44h747v-123h-933z" />
<glyph unicode="&#xa4;" d="M68 313l137 138q-44 54 -66 119.5t-22 140.5q0 74 22 140t66 122l-137 135l92 92l137 -137q54 43 120 65.5t140 22.5q72 0 138.5 -22t123.5 -64l135 135l93 -92l-138 -137q44 -54 66 -120t22 -140q0 -73 -22 -139t-64 -121l136 -138l-93 -92l-137 137q-54 -43 -120 -65.5 t-140 -22.5q-72 0 -138 22.5t-122 65.5l-137 -137zM254 711q0 -65 24 -122t65 -100.5t96.5 -68.5t117.5 -25q91 0 166.5 53t106 125.5t30.5 137.5q0 94 -51 172.5t-120.5 110.5t-131.5 32t-117.5 -25t-96.5 -68t-65 -100.5t-24 -121.5z" />
<glyph unicode="&#xa5;" horiz-adv-x="1069" d="M16 1423h140q24 -52 58.5 -122t81 -154.5t106.5 -183t135 -207.5q117 174 223.5 361t159.5 306h133q-59 -133 -140.5 -284.5t-155.5 -264t-136 -190.5h305l-29 -100h-297v-183h326l-29 -100h-297v-301h-131v301h-328l29 100h299v183h-328l29 100h279q-62 78 -123.5 171.5 t-118 192t-106 195t-85.5 180.5z" />
<glyph unicode="&#xa6;" horiz-adv-x="549" d="M225 -207v572h99v-572h-99zM225 934v571h99v-571h-99z" />
<glyph unicode="&#xa7;" horiz-adv-x="930" d="M106 51l37 109q24 -14 79 -30.5t105 -25t95 -8.5q106 0 166 24.5t78 65t18 80.5q0 66 -42.5 104t-106 58t-115.5 35q-66 20 -123.5 42t-99.5 54.5t-66.5 78.5t-24.5 114q0 54 16.5 95.5t42.5 72.5t59 52t65 34q-29 12 -60.5 31t-57 48t-42 70t-16.5 98q0 94 53 159.5 t137 89.5t168 24q99 0 171 -15.5t110 -29.5v-119q-44 18 -113.5 35.5t-157.5 17.5q-83 0 -139.5 -19.5t-78 -56.5t-21.5 -79q0 -39 15.5 -66.5t45.5 -48t73.5 -36.5t98.5 -32q57 -16 118.5 -37t112.5 -55.5t84 -87t33 -131.5q0 -71 -31.5 -126t-69 -82t-63.5 -40 q76 -37 117 -95t41 -155q0 -71 -26.5 -125t-75.5 -90t-119 -54.5t-156 -18.5q-115 0 -199.5 22t-134.5 49zM240 766q0 -62 50 -104.5t122.5 -64.5t134.5 -38q43 17 76 45.5t50 69t17 86.5q0 63 -40.5 103t-105.5 63.5t-126 38.5q-53 -10 -95.5 -39.5t-62.5 -72t-20 -87.5z " />
<glyph unicode="&#xa8;" horiz-adv-x="766" d="M86 1282q0 42 28 71t70 29q29 0 54 -17t35 -39.5t10 -43.5q0 -29 -17 -53.5t-39.5 -34.5t-42.5 -10q-21 0 -38.5 8t-31 21.5t-21 31t-7.5 37.5zM483 1282q0 30 16.5 54.5t39.5 35t43 10.5q42 0 70 -29t28 -71q0 -30 -16.5 -53.5t-38.5 -34t-43 -10.5q-30 0 -55 17 t-34.5 39t-9.5 42z" />
<glyph unicode="&#xa9;" horiz-adv-x="1737" d="M129 711q0 135 46 257.5t128.5 219.5t187.5 159.5t198 83.5t179 21q129 0 252.5 -45.5t222.5 -129.5t160.5 -189t83 -198.5t21.5 -178.5q0 -158 -64.5 -300.5t-178 -246.5t-245.5 -148.5t-252 -44.5q-102 0 -196 26.5t-176.5 74.5t-150 116t-115.5 150t-74.5 176.5 t-26.5 196.5zM260 711q0 -86 22 -165t61.5 -148t95.5 -125.5t123.5 -97.5t145 -63t160.5 -22q130 0 248 54.5t203 151t121.5 204t36.5 211.5q0 128 -48 241.5t-131 198t-194 133.5t-236 49t-235.5 -49t-193.5 -133.5t-131 -198t-48 -241.5zM496 711q0 103 25.5 185 t75.5 139.5t123.5 88.5t168.5 31q54 0 91.5 -8t69 -19.5t44.5 -15.5v-113q-54 22 -101.5 35t-101.5 13q-113 0 -176.5 -57.5t-78.5 -133.5t-15 -143q0 -173 67.5 -254.5t204.5 -81.5q52 0 94.5 8t89.5 27l41 -99q-49 -20 -104 -32.5t-133 -12.5q-95 0 -166.5 30.5t-120.5 88 t-73.5 139.5t-24.5 185z" />
<glyph unicode="&#xaa;" horiz-adv-x="709" d="M78 1038q0 74 35 122t93.5 71.5t119.5 30t106 6.5h64v35q0 51 -19 82.5t-59 42t-86 10.5q-65 0 -112 -12.5t-87 -26.5v96q48 14 95.5 22.5t113.5 8.5q134 0 196 -53t62 -168v-459h-102l-2 55q-31 -29 -81.5 -49.5t-115.5 -20.5q-45 0 -85 11t-70 36t-48 64t-18 96z M188 1036q0 -37 17 -65t46 -38.5t68 -10.5q57 0 102.5 20t74.5 51v189h-62q-95 0 -150.5 -16.5t-75.5 -51.5t-20 -78z" />
<glyph unicode="&#xab;" horiz-adv-x="946" d="M78 522l268 412h156l-271 -412l271 -411h-156zM444 522l269 412h155l-270 -412l270 -411h-155z" />
<glyph unicode="&#xac;" d="M76 854v127h962v-532h-131v405h-831z" />
<glyph unicode="&#xad;" horiz-adv-x="700" d="M123 475h455v146h-455v-146z" />
<glyph unicode="&#xae;" horiz-adv-x="1737" d="M129 711q0 135 46 257.5t128.5 219.5t187.5 159.5t198 83.5t179 21q129 0 252.5 -45.5t222.5 -129.5t160.5 -189t83 -198.5t21.5 -178.5q0 -158 -64.5 -300.5t-178 -246.5t-245.5 -148.5t-252 -44.5q-102 0 -196 26.5t-176.5 74.5t-150 116t-115.5 150t-74.5 176.5 t-26.5 196.5zM260 711q0 -86 22 -165t61.5 -148t95.5 -125.5t123.5 -97.5t145 -63t160.5 -22q130 0 248 54.5t203 151t121.5 204t36.5 211.5q0 128 -48 241.5t-131 198t-194 133.5t-236 49t-235.5 -49t-193.5 -133.5t-131 -198t-48 -241.5zM582 283v860h262q142 0 214 -61.5 t72 -174.5q0 -56 -19.5 -104t-55.5 -80t-78 -51q57 -68 103 -135.5t84 -137t61 -116.5h-127q-47 87 -90 154t-84 119.5t-74 86.5h-158v-360h-110zM692 743h123q100 0 146.5 42t46.5 114q0 60 -24.5 91t-71 41.5t-97.5 10.5h-123v-299z" />
<glyph unicode="&#xaf;" horiz-adv-x="766" d="M94 1225h578v112h-578v-112z" />
<glyph unicode="&#xb0;" horiz-adv-x="643" d="M57 1241q0 54 21 102t57.5 84t84.5 57t102 21t102 -21t84 -57t57 -84t21 -102q0 -82 -45.5 -147t-105 -91t-113.5 -26t-102 21t-84.5 57t-57.5 84t-21 102zM172 1241q0 -32 11.5 -61t32 -51.5t47.5 -36t59 -13.5q45 0 81 27t52 65t16 70q0 31 -11.5 60.5t-31.5 52 t-47.5 36t-58.5 13.5q-32 0 -59 -13.5t-47.5 -36t-32 -52t-11.5 -60.5z" />
<glyph unicode="&#xb1;" d="M76 90v127h962v-127h-962zM76 692v127h416v387h131v-387h415v-127h-415v-393h-131v393h-416z" />
<glyph unicode="&#xb2;" horiz-adv-x="930" d="M172 651v94q49 64 227 230q59 52 107.5 104t77 104.5t28.5 94.5q0 71 -40.5 105t-125.5 34q-52 0 -105 -14.5t-79.5 -31t-32.5 -19.5v108q22 12 52 24.5t80.5 23t101.5 10.5q139 0 208.5 -61t69.5 -173q0 -70 -44 -141.5t-97.5 -124t-95.5 -90.5q-15 -14 -191 -174h453 v-103h-594z" />
<glyph unicode="&#xb3;" horiz-adv-x="930" d="M164 698l45 99q15 -11 51 -25.5t79 -22.5t83 -8q94 0 149.5 38t55.5 124q0 52 -31 87t-85.5 50t-115.5 15h-43v100h25q79 0 130.5 19t72 54t20.5 77q0 52 -41 83t-123 31q-61 0 -120 -19t-82 -32t-27 -16v106q14 12 48.5 25.5t87 24t106.5 10.5q103 0 168 -32t85.5 -80 t20.5 -93q0 -58 -26 -102.5t-61.5 -66.5t-62.5 -34q54 -10 95.5 -38.5t63.5 -74.5t22 -98q0 -54 -20.5 -101t-61 -82.5t-99.5 -56t-137 -20.5q-63 0 -111.5 8t-83 18.5t-54 20t-23.5 12.5z" />
<glyph unicode="&#xb4;" horiz-adv-x="766" d="M211 1141l178 282h168l-199 -282h-147z" />
<glyph unicode="&#xb6;" horiz-adv-x="1225" d="M78 1040q0 90 31 161t89.5 120.5t142 75.5t189.5 26h506v-1638h-129v1524h-268v-1524h-129v870q-98 0 -178 29t-136.5 80t-87 121.5t-30.5 154.5z" />
<glyph unicode="&#xb7;" horiz-adv-x="469" d="M117 711q0 -23 10 -44.5t26.5 -38t38 -26.5t44.5 -10q34 0 63.5 21.5t42 48t12.5 49.5q0 34 -21.5 63t-48 42t-48.5 13q-34 0 -64 -21t-42.5 -47.5t-12.5 -49.5z" />
<glyph unicode="&#xb8;" horiz-adv-x="766" d="M221 -375l158 273h168l-178 -273h-148z" />
<glyph unicode="&#xb9;" horiz-adv-x="930" d="M254 1333v97l192 75h101v-760h166v-94h-445v94h164v644q-33 -12 -100 -32t-78 -24z" />
<glyph unicode="&#xba;" horiz-adv-x="786" d="M88 1176q0 77 19 141.5t57.5 111t95.5 72t133 25.5q112 0 184 -55.5t96.5 -136.5t24.5 -158q0 -75 -20 -139t-58.5 -111t-95.5 -74t-131 -27t-130.5 27t-95.5 74t-59 111t-20 139zM209 1176q0 -53 9 -99.5t30.5 -81t57 -55t87.5 -20.5q72 0 117 41.5t56.5 101.5t11.5 113 q0 86 -23.5 146t-66.5 86t-95 26q-74 0 -118 -44t-55 -103.5t-11 -110.5z" />
<glyph unicode="&#xbb;" horiz-adv-x="946" d="M78 111l270 411l-270 412h155l269 -412l-269 -411h-155zM444 111l271 411l-271 412h156l268 -412l-268 -411h-156z" />
<glyph unicode="&#xbc;" horiz-adv-x="1929" d="M244 1333v97l192 75h101v-760h165v-94h-444v94h164v644q-33 -12 -100 -32t-78 -24zM453 0l933 1505h144l-934 -1505h-143zM1092 193v96q122 176 220.5 301t223.5 264h115v-567h96v-94h-96v-193h-113v193h-446zM1206 287h332v432q-90 -103 -173 -213t-159 -219z" />
<glyph unicode="&#xbd;" horiz-adv-x="1929" d="M244 1333v97l192 75h101v-760h165v-94h-444v94h164v644q-33 -12 -100 -32t-78 -24zM434 0l934 1505h143l-933 -1505h-144zM1178 0v94q49 64 227 230q59 52 107.5 104t77 104.5t28.5 94.5q0 71 -40.5 105t-125.5 34q-53 0 -105 -14.5t-79 -31t-33 -20.5v109 q26 15 56.5 26.5t78 21t98.5 9.5q140 0 209.5 -61t69.5 -172q0 -70 -43 -140.5t-98.5 -124.5t-96.5 -92q-161 -145 -190 -174h453v-102h-594z" />
<glyph unicode="&#xbe;" horiz-adv-x="1929" d="M186 698l45 99q16 -12 54 -26.5t79 -22t80 -7.5q94 0 149.5 38t55.5 124q0 52 -31 87t-84.5 50t-115.5 15h-43v100h24q80 0 131.5 19t72 54t20.5 77q0 52 -41.5 83t-122.5 31q-72 0 -132.5 -22.5t-97.5 -44.5v106q16 12 48 25.5t87 24t107 10.5q103 0 168 -32t85.5 -80 t20.5 -93q0 -62 -26.5 -104t-61.5 -64.5t-61 -34.5q54 -10 96.5 -39t63 -74.5t20.5 -97.5q0 -54 -20.5 -101t-60.5 -82.5t-99 -56t-137 -20.5q-63 0 -111.5 8t-83 18.5t-54 20t-24.5 12.5zM457 0l934 1505h143l-934 -1505h-143zM1092 193v96q122 176 220.5 301t223.5 264 h115v-567h96v-94h-96v-193h-113v193h-446zM1206 287h332v432q-90 -103 -173 -213t-159 -219z" />
<glyph unicode="&#xbf;" horiz-adv-x="991" d="M139 315q0 73 22 127t54.5 93.5t68.5 66.5t64 47q67 48 101.5 92.5t44.5 91t10 95.5v88h129v-92q0 -101 -24.5 -167t-68 -109.5t-89.5 -76.5q-64 -42 -100 -78t-52 -81t-16 -99q0 -48 15 -88t47 -68t81 -43.5t117 -15.5q91 0 168.5 21.5t114 43t42.5 27.5v-131 q-8 -5 -33 -18t-66 -26.5t-98 -24t-130 -10.5q-100 0 -175.5 24t-125.5 68.5t-75.5 106t-25.5 136.5zM451 1333q0 33 20.5 63t47.5 43t50 13q33 0 62.5 -20.5t43 -48t13.5 -50.5q0 -34 -20.5 -63.5t-48 -42.5t-50.5 -13t-44 10t-37.5 26.5t-26.5 38t-10 44.5z" />
<glyph unicode="&#xc0;" horiz-adv-x="1192" d="M10 0q45 169 109.5 372.5t142.5 414.5t144 366.5t124 269.5h132q48 -95 97 -207.5t97.5 -235t94.5 -251t88 -255t78 -247t65 -227.5h-150q-49 184 -125 432h-635q-101 -340 -125 -432h-137zM311 545h561q-57 176 -125.5 360.5t-156.5 388.5q-195 -476 -279 -749z M352 1810h168l178 -282h-147z" />
<glyph unicode="&#xc1;" horiz-adv-x="1192" d="M10 0q45 169 109.5 372.5t142.5 414.5t144 366.5t124 269.5h132q48 -95 97 -207.5t97.5 -235t94.5 -251t88 -255t78 -247t65 -227.5h-150q-49 184 -125 432h-635q-101 -340 -125 -432h-137zM311 545h561q-57 176 -125.5 360.5t-156.5 388.5q-195 -476 -279 -749z M518 1528l178 282h168l-199 -282h-147z" />
<glyph unicode="&#xc2;" horiz-adv-x="1192" d="M10 0q45 169 109.5 372.5t142.5 414.5t144 366.5t124 269.5h132q48 -95 97 -207.5t97.5 -235t94.5 -251t88 -255t78 -247t65 -227.5h-150q-49 184 -125 432h-635q-101 -340 -125 -432h-137zM311 545h561q-57 176 -125.5 360.5t-156.5 388.5q-195 -476 -279 -749z M334 1528l208 282h127l209 -282h-141l-135 172l-135 -172h-133z" />
<glyph unicode="&#xc3;" horiz-adv-x="1192" d="M10 0q45 169 109.5 372.5t142.5 414.5t144 366.5t124 269.5h132q48 -95 97 -207.5t97.5 -235t94.5 -251t88 -255t78 -247t65 -227.5h-150q-49 184 -125 432h-635q-101 -340 -125 -432h-137zM310 1612q31 89 76 126.5t102 37.5q29 0 66 -12t79 -38q48 -29 73.5 -38 t45.5 -9q17 0 33 8.5t29 28.5t22 47l90 -37q-31 -89 -76 -126t-102 -37q-29 0 -66 11t-77 36q-53 31 -77.5 40t-43.5 9t-35 -9t-28 -28.5t-21 -46.5zM311 545h561q-57 176 -125.5 360.5t-156.5 388.5q-195 -476 -279 -749z" />
<glyph unicode="&#xc4;" horiz-adv-x="1192" d="M10 0q45 169 109.5 372.5t142.5 414.5t144 366.5t124 269.5h132q48 -95 97 -207.5t97.5 -235t94.5 -251t88 -255t78 -247t65 -227.5h-150q-49 184 -125 432h-635q-101 -340 -125 -432h-137zM305 1669q0 42 28 71t70 29q29 0 54 -17t35 -39.5t10 -43.5q0 -29 -17 -53.5 t-39.5 -34.5t-42.5 -10q-21 0 -38.5 8t-31 21.5t-21 31t-7.5 37.5zM311 545h561q-57 176 -125.5 360.5t-156.5 388.5q-195 -476 -279 -749zM702 1669q0 30 16.5 54.5t39.5 35t43 10.5q42 0 70 -29t28 -71q0 -30 -16.5 -53.5t-38.5 -34t-43 -10.5q-30 0 -55 17t-34.5 39 t-9.5 42z" />
<glyph unicode="&#xc5;" horiz-adv-x="1192" d="M10 0q31 119 83.5 289.5t114 347.5t113.5 310.5t99 241t82 179.5q-48 25 -77.5 72t-29.5 104q0 62 34 111.5t79 69.5t88 20q60 0 109.5 -32.5t70.5 -79.5t21 -89q0 -57 -29.5 -104.5t-77.5 -73.5q46 -95 93 -205t92.5 -228t89 -240t82.5 -242t73.5 -234.5t61.5 -216.5 h-150q-49 184 -125 432h-635q-101 -340 -125 -432h-137zM311 545h561q-57 176 -125.5 360.5t-156.5 388.5q-195 -476 -279 -749zM485 1544q0 -33 19 -64t44 -43t48 -12q32 0 60 20t39.5 48t11.5 51q0 34 -19 63.5t-44 42.5t-48 13q-34 0 -61 -21t-38.5 -48t-11.5 -50z" />
<glyph unicode="&#xc6;" horiz-adv-x="1819" d="M10 0q79 192 175.5 393t199.5 391t191 333t196 306h918v-118h-652v-471h564v-117h-564v-598h686v-119h-825v436h-553q-128 -263 -196 -436h-140zM401 547h498v772h-51q-66 -101 -129 -203t-120.5 -203t-98.5 -180q-23 -45 -48.5 -91.5t-50.5 -94.5z" />
<glyph unicode="&#xc7;" horiz-adv-x="1147" d="M131 711q0 172 41 308t120 230.5t195 144.5t267 50q100 0 181 -20.5t132 -45.5v-131q-73 29 -112.5 41t-94.5 21.5t-102 9.5q-106 0 -186.5 -31.5t-139.5 -91.5q-74 -75 -110.5 -193.5t-36.5 -289.5q0 -305 117 -457t358 -152q76 0 144.5 11t103 23t47.5 18l47 -113 q-55 -23 -112.5 -36.5t-120 -20t-126.5 -6.5q-150 0 -264 49.5t-191.5 143t-117 229.5t-39.5 309zM467 -375l158 273h168l-178 -273h-148z" />
<glyph unicode="&#xc8;" horiz-adv-x="1112" d="M193 0v1423h790v-118h-651v-471h563v-117h-563v-598h686v-119h-825zM373 1810h168l178 -282h-147z" />
<glyph unicode="&#xc9;" horiz-adv-x="1112" d="M193 0v1423h790v-118h-651v-471h563v-117h-563v-598h686v-119h-825zM508 1528l178 282h168l-199 -282h-147z" />
<glyph unicode="&#xca;" horiz-adv-x="1112" d="M193 0v1423h790v-118h-651v-471h563v-117h-563v-598h686v-119h-825zM316 1528l208 282h127l209 -282h-141l-135 172l-135 -172h-133z" />
<glyph unicode="&#xcb;" horiz-adv-x="1112" d="M193 0v1423h790v-118h-651v-471h563v-117h-563v-598h686v-119h-825zM291 1669q0 42 28 71t70 29q29 0 54 -17t35 -39.5t10 -43.5q0 -29 -17 -53.5t-39.5 -34.5t-42.5 -10q-21 0 -38.5 8t-31 21.5t-21 31t-7.5 37.5zM688 1669q0 30 16.5 54.5t39.5 35t43 10.5q42 0 70 -29 t28 -71q0 -30 -16.5 -53.5t-38.5 -34t-43 -10.5q-30 0 -55 17t-34.5 39t-9.5 42z" />
<glyph unicode="&#xcc;" horiz-adv-x="524" d="M-1 1810h168l178 -282h-147zM193 0v1423h139v-1423h-139z" />
<glyph unicode="&#xcd;" horiz-adv-x="524" d="M193 0v1423h139v-1423h-139zM194 1528l178 282h168l-199 -282h-147z" />
<glyph unicode="&#xce;" horiz-adv-x="524" d="M-9 1528l208 282h127l209 -282h-141l-135 172l-135 -172h-133zM193 0v1423h139v-1423h-139z" />
<glyph unicode="&#xcf;" horiz-adv-x="524" d="M-34 1669q0 42 28 71t70 29q29 0 54 -17t35 -39.5t10 -43.5q0 -29 -17 -53.5t-39.5 -34.5t-42.5 -10q-21 0 -38.5 8t-31 21.5t-21 31t-7.5 37.5zM193 0v1423h139v-1423h-139zM363 1669q0 30 16.5 54.5t39.5 35t43 10.5q42 0 70 -29t28 -71q0 -30 -16.5 -53.5t-38.5 -34 t-43 -10.5q-30 0 -55 17t-34.5 39t-9.5 42z" />
<glyph unicode="&#xd0;" horiz-adv-x="1346" d="M41 680v115h152v628h391q147 0 263.5 -44.5t197.5 -134t124 -223t43 -310.5t-43 -310.5t-124 -222.5t-197.5 -133.5t-263.5 -44.5h-391v680h-152zM332 119h256q114 0 201.5 39t147.5 114.5t91 186t31 252.5t-31 252.5t-91 186.5t-147.5 115.5t-201.5 39.5h-256v-510h315 v-115h-315v-561z" />
<glyph unicode="&#xd1;" horiz-adv-x="1362" d="M193 0v1423h147q192 -278 364 -563t330 -579v1142h135v-1423h-129q-164 317 -340.5 621t-371.5 604v-1225h-135zM387 1612q31 89 76 126.5t102 37.5q29 0 66 -12t79 -38q48 -29 73.5 -38t45.5 -9q17 0 33 8.5t29 28.5t22 47l90 -37q-31 -89 -76 -126t-102 -37 q-29 0 -66 11t-77 36q-53 31 -77.5 40t-43.5 9t-35 -9t-28 -28.5t-21 -46.5z" />
<glyph unicode="&#xd2;" horiz-adv-x="1411" d="M133 711q0 180 41 318.5t116.5 232.5t181.5 142t235 48q128 0 233.5 -48t180.5 -142t116 -232.5t41 -318.5q0 -181 -41 -319t-116 -231.5t-180.5 -141.5t-233.5 -48q-129 0 -235 48t-181.5 141.5t-116.5 231.5t-41 319zM287 711q0 -139 26 -253.5t78 -196t131 -126.5 t185 -45q105 0 183.5 45t130 126.5t77.5 196t26 253.5q0 141 -26 256t-78 196t-130.5 125.5t-182.5 44.5q-105 0 -184 -44.5t-131.5 -125.5t-78.5 -196t-26 -256zM475 1810h168l178 -282h-147z" />
<glyph unicode="&#xd3;" horiz-adv-x="1411" d="M133 711q0 180 41 318.5t116.5 232.5t181.5 142t235 48q128 0 233.5 -48t180.5 -142t116 -232.5t41 -318.5q0 -181 -41 -319t-116 -231.5t-180.5 -141.5t-233.5 -48q-129 0 -235 48t-181.5 141.5t-116.5 231.5t-41 319zM287 711q0 -139 26 -253.5t78 -196t131 -126.5 t185 -45q105 0 183.5 45t130 126.5t77.5 196t26 253.5q0 141 -26 256t-78 196t-130.5 125.5t-182.5 44.5q-105 0 -184 -44.5t-131.5 -125.5t-78.5 -196t-26 -256zM600 1528l178 282h168l-199 -282h-147z" />
<glyph unicode="&#xd4;" horiz-adv-x="1411" d="M133 711q0 180 41 318.5t116.5 232.5t181.5 142t235 48q128 0 233.5 -48t180.5 -142t116 -232.5t41 -318.5q0 -181 -41 -319t-116 -231.5t-180.5 -141.5t-233.5 -48q-129 0 -235 48t-181.5 141.5t-116.5 231.5t-41 319zM287 711q0 -139 26 -253.5t78 -196t131 -126.5 t185 -45q105 0 183.5 45t130 126.5t77.5 196t26 253.5q0 141 -26 256t-78 196t-130.5 125.5t-182.5 44.5q-105 0 -184 -44.5t-131.5 -125.5t-78.5 -196t-26 -256zM437 1528l208 282h127l209 -282h-141l-135 172l-135 -172h-133z" />
<glyph unicode="&#xd5;" horiz-adv-x="1411" d="M133 711q0 180 41 318.5t116.5 232.5t181.5 142t235 48q128 0 233.5 -48t180.5 -142t116 -232.5t41 -318.5q0 -181 -41 -319t-116 -231.5t-180.5 -141.5t-233.5 -48q-129 0 -235 48t-181.5 141.5t-116.5 231.5t-41 319zM287 711q0 -139 26 -253.5t78 -196t131 -126.5 t185 -45q105 0 183.5 45t130 126.5t77.5 196t26 253.5q0 141 -26 256t-78 196t-130.5 125.5t-182.5 44.5q-105 0 -184 -44.5t-131.5 -125.5t-78.5 -196t-26 -256zM424 1612q31 89 76 126.5t102 37.5q29 0 66 -12t79 -38q48 -29 73.5 -38t45.5 -9q17 0 33 8.5t29 28.5t22 47 l90 -37q-31 -89 -76 -126t-102 -37q-29 0 -66 11t-77 36q-53 31 -77.5 40t-43.5 9t-35 -9t-28 -28.5t-21 -46.5z" />
<glyph unicode="&#xd6;" horiz-adv-x="1411" d="M133 711q0 180 41 318.5t116.5 232.5t181.5 142t235 48q128 0 233.5 -48t180.5 -142t116 -232.5t41 -318.5q0 -181 -41 -319t-116 -231.5t-180.5 -141.5t-233.5 -48q-129 0 -235 48t-181.5 141.5t-116.5 231.5t-41 319zM287 711q0 -139 26 -253.5t78 -196t131 -126.5 t185 -45q105 0 183.5 45t130 126.5t77.5 196t26 253.5q0 141 -26 256t-78 196t-130.5 125.5t-182.5 44.5q-105 0 -184 -44.5t-131.5 -125.5t-78.5 -196t-26 -256zM412 1669q0 42 28 71t70 29q29 0 54 -17t35 -39.5t10 -43.5q0 -29 -17 -53.5t-39.5 -34.5t-42.5 -10 q-21 0 -38.5 8t-31 21.5t-21 31t-7.5 37.5zM809 1669q0 30 16.5 54.5t39.5 35t43 10.5q42 0 70 -29t28 -71q0 -30 -16.5 -53.5t-38.5 -34t-43 -10.5q-30 0 -55 17t-34.5 39t-9.5 42z" />
<glyph unicode="&#xd7;" d="M162 403l307 306l-295 295l90 90l295 -295l301 303l94 -92l-303 -303l293 -293l-88 -90l-295 292l-307 -307z" />
<glyph unicode="&#xd8;" horiz-adv-x="1411" d="M133 711q0 180 41 318.5t116.5 232.5t181.5 142t235 48q83 0 157.5 -20t139.5 -62l102 186l104 -53l-116 -211q88 -93 136 -237.5t48 -343.5q0 -181 -41 -319t-116 -231.5t-180.5 -141.5t-233.5 -48q-84 0 -159 20t-138 62l-105 -188l-104 55l116 211q-88 93 -136 236.5 t-48 343.5zM287 711q0 -138 25.5 -251.5t76.5 -197.5l549 993q-92 78 -231 78q-105 0 -184 -44.5t-131.5 -125.5t-78.5 -196t-26 -256zM473 168q47 -37 104.5 -57.5t129.5 -20.5q105 0 183.5 45t130 126.5t77.5 196t26 253.5q0 140 -25.5 253.5t-76.5 196.5z" />
<glyph unicode="&#xd9;" horiz-adv-x="1337" d="M180 479v944h139v-946q0 -98 25 -169.5t71 -117.5t110.5 -68t142.5 -22q122 0 205 51t114 139.5t31 186.5v946h139v-944q0 -130 -36 -225t-100.5 -157t-154.5 -92t-198 -30t-197.5 30t-154 92t-100.5 157t-36 225zM434 1810h168l178 -282h-147z" />
<glyph unicode="&#xda;" horiz-adv-x="1337" d="M180 479v944h139v-946q0 -98 25 -169.5t71 -117.5t110.5 -68t142.5 -22q122 0 205 51t114 139.5t31 186.5v946h139v-944q0 -130 -36 -225t-100.5 -157t-154.5 -92t-198 -30t-197.5 30t-154 92t-100.5 157t-36 225zM565 1528l178 282h168l-199 -282h-147z" />
<glyph unicode="&#xdb;" horiz-adv-x="1337" d="M180 479v944h139v-946q0 -98 25 -169.5t71 -117.5t110.5 -68t142.5 -22q122 0 205 51t114 139.5t31 186.5v946h139v-944q0 -130 -36 -225t-100.5 -157t-154.5 -92t-198 -30t-197.5 30t-154 92t-100.5 157t-36 225zM383 1528l208 282h127l209 -282h-141l-135 172 l-135 -172h-133z" />
<glyph unicode="&#xdc;" horiz-adv-x="1337" d="M180 479v944h139v-946q0 -98 25 -169.5t71 -117.5t110.5 -68t142.5 -22q122 0 205 51t114 139.5t31 186.5v946h139v-944q0 -130 -36 -225t-100.5 -157t-154.5 -92t-198 -30t-197.5 30t-154 92t-100.5 157t-36 225zM358 1669q0 42 28 71t70 29q29 0 54 -17t35 -39.5 t10 -43.5q0 -29 -17 -53.5t-39.5 -34.5t-42.5 -10q-21 0 -38.5 8t-31 21.5t-21 31t-7.5 37.5zM755 1669q0 30 16.5 54.5t39.5 35t43 10.5q42 0 70 -29t28 -71q0 -30 -16.5 -53.5t-38.5 -34t-43 -10.5q-30 0 -55 17t-34.5 39t-9.5 42z" />
<glyph unicode="&#xdd;" horiz-adv-x="1114" d="M10 1423h146q26 -54 61.5 -123t84.5 -152t113 -179.5t146 -204.5q137 183 238.5 355t165.5 304h139q-62 -134 -155 -297t-176 -282t-146 -197v-647h-140v645q-65 79 -132.5 177.5t-130.5 202.5t-118.5 207t-95.5 191zM502 1528l178 282h168l-199 -282h-147z" />
<glyph unicode="&#xde;" horiz-adv-x="1155" d="M193 0v1423h135v-225h274q226 0 340.5 -97.5t114.5 -295.5q0 -78 -24 -155.5t-79.5 -139.5t-147 -100.5t-226.5 -38.5h-252v-371h-135zM328 487h235q87 0 151.5 22t106.5 62t63 97t21 127q0 120 -48.5 184.5t-133 83t-170.5 18.5h-225v-594z" />
<glyph unicode="&#xdf;" horiz-adv-x="1178" d="M172 0v1135q0 84 20 153.5t67 126t124 84t170 27.5q139 0 222.5 -46t107.5 -107.5t24 -112.5q0 -70 -32.5 -126.5t-69 -89t-54 -50t-38 -35.5t-38 -39t-29 -45t-11.5 -52q0 -38 27 -65t79 -53t105 -56q88 -52 137 -99.5t72 -110.5t22 -128q-1 -78 -27 -139t-74 -104 t-116.5 -65.5t-152.5 -22.5q-75 0 -140 14t-96.5 28.5t-38.5 18.5l41 100q22 -16 81 -33.5t124 -17.5q92 0 153 33.5t81 81t20 92.5q0 85 -37.5 133t-132.5 107q-46 28 -92.5 52.5t-83.5 54.5t-60.5 69t-23.5 96q0 58 21 100t55 77.5t67 66.5q53 51 75 76t34 57t12 65 q0 56 -27 97.5t-77.5 58t-108.5 16.5q-73 0 -121 -22.5t-76 -61t-39.5 -90t-11.5 -110.5v-1139h-133z" />
<glyph unicode="&#xe0;" horiz-adv-x="1032" d="M100 291q0 105 46.5 179t142.5 116q65 29 150.5 42t197.5 13h98v68q0 92 -33.5 144t-97 69.5t-139.5 17.5q-77 0 -144.5 -15.5t-136.5 -39.5v119q64 19 134.5 32t168.5 13q150 0 236.5 -44t114.5 -123.5t28 -166.5v-713h-127l-2 94q-39 -37 -91 -63t-111.5 -39.5 t-112.5 -13.5q-65 0 -123.5 16.5t-102.5 53.5t-70 96t-26 145zM240 289q0 -39 10.5 -74.5t35 -63.5t65.5 -44.5t102 -16.5q92 0 164 36t118 87v319h-98q-95 0 -168.5 -10.5t-124.5 -37.5t-77.5 -74.5t-26.5 -120.5zM291 1423h168l178 -282h-147z" />
<glyph unicode="&#xe1;" horiz-adv-x="1032" d="M100 291q0 105 46.5 179t142.5 116q65 29 150.5 42t197.5 13h98v68q0 92 -33.5 144t-97 69.5t-139.5 17.5q-77 0 -144.5 -15.5t-136.5 -39.5v119q64 19 134.5 32t168.5 13q150 0 236.5 -44t114.5 -123.5t28 -166.5v-713h-127l-2 94q-39 -37 -91 -63t-111.5 -39.5 t-112.5 -13.5q-65 0 -123.5 16.5t-102.5 53.5t-70 96t-26 145zM240 289q0 -39 10.5 -74.5t35 -63.5t65.5 -44.5t102 -16.5q92 0 164 36t118 87v319h-98q-95 0 -168.5 -10.5t-124.5 -37.5t-77.5 -74.5t-26.5 -120.5zM395 1141l178 282h168l-199 -282h-147z" />
<glyph unicode="&#xe2;" horiz-adv-x="1032" d="M100 291q0 105 46.5 179t142.5 116q65 29 150.5 42t197.5 13h98v68q0 92 -33.5 144t-97 69.5t-139.5 17.5q-77 0 -144.5 -15.5t-136.5 -39.5v119q64 19 134.5 32t168.5 13q150 0 236.5 -44t114.5 -123.5t28 -166.5v-713h-127l-2 94q-39 -37 -91 -63t-111.5 -39.5 t-112.5 -13.5q-65 0 -123.5 16.5t-102.5 53.5t-70 96t-26 145zM230 1141l208 282h127l209 -282h-141l-135 172l-135 -172h-133zM240 289q0 -39 10.5 -74.5t35 -63.5t65.5 -44.5t102 -16.5q92 0 164 36t118 87v319h-98q-95 0 -168.5 -10.5t-124.5 -37.5t-77.5 -74.5 t-26.5 -120.5z" />
<glyph unicode="&#xe3;" horiz-adv-x="1032" d="M100 291q0 105 46.5 179t142.5 116q65 29 150.5 42t197.5 13h98v68q0 92 -33.5 144t-97 69.5t-139.5 17.5q-77 0 -144.5 -15.5t-136.5 -39.5v119q64 19 134.5 32t168.5 13q150 0 236.5 -44t114.5 -123.5t28 -166.5v-713h-127l-2 94q-39 -37 -91 -63t-111.5 -39.5 t-112.5 -13.5q-65 0 -123.5 16.5t-102.5 53.5t-70 96t-26 145zM207 1225q31 89 76 126.5t102 37.5q29 0 66 -12t79 -38q48 -29 73.5 -38t45.5 -9q17 0 33 8.5t29 28.5t22 47l90 -37q-31 -89 -76 -126t-102 -37q-29 0 -66 11t-77 36q-53 31 -77.5 40t-43.5 9t-35 -9 t-28 -28.5t-21 -46.5zM240 289q0 -39 10.5 -74.5t35 -63.5t65.5 -44.5t102 -16.5q92 0 164 36t118 87v319h-98q-95 0 -168.5 -10.5t-124.5 -37.5t-77.5 -74.5t-26.5 -120.5z" />
<glyph unicode="&#xe4;" horiz-adv-x="1032" d="M100 291q0 105 46.5 179t142.5 116q65 29 150.5 42t197.5 13h98v68q0 92 -33.5 144t-97 69.5t-139.5 17.5q-77 0 -144.5 -15.5t-136.5 -39.5v119q64 19 134.5 32t168.5 13q150 0 236.5 -44t114.5 -123.5t28 -166.5v-713h-127l-2 94q-39 -37 -91 -63t-111.5 -39.5 t-112.5 -13.5q-65 0 -123.5 16.5t-102.5 53.5t-70 96t-26 145zM199 1282q0 42 28 71t70 29q29 0 54 -17t35 -39.5t10 -43.5q0 -29 -17 -53.5t-39.5 -34.5t-42.5 -10q-21 0 -38.5 8t-31 21.5t-21 31t-7.5 37.5zM240 289q0 -39 10.5 -74.5t35 -63.5t65.5 -44.5t102 -16.5 q92 0 164 36t118 87v319h-98q-95 0 -168.5 -10.5t-124.5 -37.5t-77.5 -74.5t-26.5 -120.5zM596 1282q0 30 16.5 54.5t39.5 35t43 10.5q42 0 70 -29t28 -71q0 -30 -16.5 -53.5t-38.5 -34t-43 -10.5q-30 0 -55 17t-34.5 39t-9.5 42z" />
<glyph unicode="&#xe5;" horiz-adv-x="1032" d="M100 291q0 105 46.5 179t142.5 116q65 29 150.5 42t197.5 13h98v68q0 92 -33.5 144t-97 69.5t-139.5 17.5q-77 0 -144.5 -15.5t-136.5 -39.5v119q64 19 134.5 32t168.5 13q150 0 236.5 -44t114.5 -123.5t28 -166.5v-713h-127l-2 94q-39 -37 -91 -63t-111.5 -39.5 t-112.5 -13.5q-65 0 -123.5 16.5t-102.5 53.5t-70 96t-26 145zM240 289q0 -39 10.5 -74.5t35 -63.5t65.5 -44.5t102 -16.5q92 0 164 36t118 87v319h-98q-95 0 -168.5 -10.5t-124.5 -37.5t-77.5 -74.5t-26.5 -120.5zM315 1341q0 62 34 111.5t79.5 69.5t87.5 20 q60 0 109.5 -32.5t70.5 -79.5t21 -89q0 -61 -33.5 -110t-79.5 -69.5t-88 -20.5q-64 0 -113.5 35t-68.5 79.5t-19 85.5zM405 1341q0 -32 19 -63t44 -43t48 -12q32 0 59.5 19.5t39.5 47.5t12 51q0 34 -19 63.5t-44 42.5t-48 13q-34 0 -61 -21t-38.5 -48t-11.5 -50z" />
<glyph unicode="&#xe6;" horiz-adv-x="1671" d="M100 291q0 105 46.5 179t142.5 116q65 29 150.5 42t197.5 13h98v68q0 92 -33.5 144t-97 69.5t-139.5 17.5q-77 0 -144.5 -15.5t-136.5 -39.5v119q64 19 134.5 32t168.5 13q136 0 221 -39.5t123 -130.5q53 85 137.5 129.5t202.5 44.5q190 0 287.5 -119.5t97.5 -343.5 q0 -31 -1 -59t-1 -56h-686q6 -92 29 -164.5t66 -122.5t106.5 -76t149.5 -26q68 0 131 8t106 21l29 -107q-50 -15 -119 -24t-168 -9q-254 0 -367 152q-70 -56 -132 -88.5t-127 -45.5t-132 -13q-72 0 -134 16.5t-108 53.5t-72 96t-26 145zM240 289q0 -39 10.5 -74.5 t36.5 -62.5t69.5 -43.5t108.5 -16.5q87 0 166 34t147 97q-23 54 -33 121t-10 141v47h-98q-95 0 -168.5 -10.5t-124.5 -37.5t-77.5 -74.5t-26.5 -120.5zM866 582h543v59q0 108 -33 180.5t-92.5 100.5t-124.5 28q-71 0 -123.5 -25.5t-88.5 -73t-55.5 -115.5t-25.5 -154z" />
<glyph unicode="&#xe7;" horiz-adv-x="926" d="M125 512q0 125 31.5 224t92.5 167.5t150 104.5t203 36q85 0 146 -11.5t100 -22.5v-121q-153 39 -227 39q-173 0 -261 -101.5t-88 -312.5t86 -312.5t258 -101.5q82 0 137 13t87 26l34 -110q-49 -19 -114.5 -32t-163.5 -13q-114 0 -202 35.5t-148 103t-90.5 166 t-30.5 223.5zM344 -375l158 273h168l-178 -273h-148z" />
<glyph unicode="&#xe8;" horiz-adv-x="1075" d="M125 512q0 124 29 224.5t85 170.5t137.5 108t186.5 38q199 0 298.5 -119.5t99.5 -343.5q0 -31 -1.5 -59t-1.5 -56h-686q6 -92 29 -164.5t66 -122.5t106.5 -76t149.5 -26q68 0 131 8t106 21l29 -107q-50 -15 -119 -24t-168 -9q-114 0 -203 37t-150 107t-92.5 169 t-31.5 224zM270 582h543v59q0 108 -33 180.5t-92.5 100.5t-124.5 28q-71 0 -123.5 -25.5t-88.5 -73t-55.5 -115.5t-25.5 -154zM352 1423h168l178 -282h-147z" />
<glyph unicode="&#xe9;" horiz-adv-x="1075" d="M125 512q0 124 29 224.5t85 170.5t137.5 108t186.5 38q199 0 298.5 -119.5t99.5 -343.5q0 -31 -1.5 -59t-1.5 -56h-686q6 -92 29 -164.5t66 -122.5t106.5 -76t149.5 -26q68 0 131 8t106 21l29 -107q-50 -15 -119 -24t-168 -9q-114 0 -203 37t-150 107t-92.5 169 t-31.5 224zM270 582h543v59q0 108 -33 180.5t-92.5 100.5t-124.5 28q-71 0 -123.5 -25.5t-88.5 -73t-55.5 -115.5t-25.5 -154zM477 1141l178 282h168l-199 -282h-147z" />
<glyph unicode="&#xea;" horiz-adv-x="1075" d="M125 512q0 124 29 224.5t85 170.5t137.5 108t186.5 38q199 0 298.5 -119.5t99.5 -343.5q0 -31 -1.5 -59t-1.5 -56h-686q6 -92 29 -164.5t66 -122.5t106.5 -76t149.5 -26q68 0 131 8t106 21l29 -107q-50 -15 -119 -24t-168 -9q-114 0 -203 37t-150 107t-92.5 169 t-31.5 224zM270 582h543v59q0 108 -33 180.5t-92.5 100.5t-124.5 28q-71 0 -123.5 -25.5t-88.5 -73t-55.5 -115.5t-25.5 -154zM306 1141l208 282h127l209 -282h-141l-135 172l-135 -172h-133z" />
<glyph unicode="&#xeb;" horiz-adv-x="1075" d="M125 512q0 124 29 224.5t85 170.5t137.5 108t186.5 38q199 0 298.5 -119.5t99.5 -343.5q0 -31 -1.5 -59t-1.5 -56h-686q6 -92 29 -164.5t66 -122.5t106.5 -76t149.5 -26q68 0 131 8t106 21l29 -107q-50 -15 -119 -24t-168 -9q-114 0 -203 37t-150 107t-92.5 169 t-31.5 224zM270 582h543v59q0 108 -33 180.5t-92.5 100.5t-124.5 28q-71 0 -123.5 -25.5t-88.5 -73t-55.5 -115.5t-25.5 -154zM281 1282q0 42 28 71t70 29q29 0 54 -17t35 -39.5t10 -43.5q0 -29 -17 -53.5t-39.5 -34.5t-42.5 -10q-21 0 -38.5 8t-31 21.5t-21 31t-7.5 37.5z M678 1282q0 30 16.5 54.5t39.5 35t43 10.5q42 0 70 -29t28 -71q0 -30 -16.5 -53.5t-38.5 -34t-43 -10.5q-30 0 -55 17t-34.5 39t-9.5 42z" />
<glyph unicode="&#xec;" horiz-adv-x="514" d="M-5 1423h168l178 -282h-147zM55 938v90h273v-1028h-133v920q-64 10 -140 18z" />
<glyph unicode="&#xed;" horiz-adv-x="514" d="M55 938v90h273v-1028h-133v920q-64 10 -140 18zM140 1141l178 282h168l-199 -282h-147z" />
<glyph unicode="&#xee;" horiz-adv-x="514" d="M-50 1141l208 282h127l209 -282h-141l-135 172l-135 -172h-133zM55 938v90h273v-1028h-133v920q-64 10 -140 18z" />
<glyph unicode="&#xef;" horiz-adv-x="514" d="M-67 1282q0 42 28 71t70 29q29 0 54 -17t35 -39.5t10 -43.5q0 -29 -17 -53.5t-39.5 -34.5t-42.5 -10q-21 0 -38.5 8t-31 21.5t-21 31t-7.5 37.5zM55 938v90h273v-1028h-133v920q-64 10 -140 18zM330 1282q0 30 16.5 54.5t39.5 35t43 10.5q42 0 70 -29t28 -71 q0 -30 -16.5 -53.5t-38.5 -34t-43 -10.5q-30 0 -55 17t-34.5 39t-9.5 42z" />
<glyph unicode="&#xf0;" horiz-adv-x="1143" d="M125 494q0 117 28 212.5t82 163.5t134 105t184 37q77 0 137 -20.5t88.5 -43.5t38.5 -35q-35 93 -99 190t-161 177l-104 -117l-78 64l102 114q-79 51 -170 86l45 99q56 -19 106.5 -43t98.5 -53l86 96l78 -64l-82 -92q148 -117 237 -281t115.5 -308t26.5 -240 q0 -127 -29.5 -231t-86.5 -178.5t-140 -115.5t-191 -41q-107 0 -190 39.5t-140 109t-86.5 164.5t-29.5 206zM272 494q0 -79 14.5 -152.5t49 -130.5t92 -91t143.5 -34q124 0 194.5 70.5t88.5 164.5t18 173t-14.5 153t-49 131t-92.5 91t-145 34q-85 0 -142.5 -34.5t-92 -92 t-49.5 -131t-15 -151.5z" />
<glyph unicode="&#xf1;" horiz-adv-x="1143" d="M172 0v1028h133v-164q50 85 134.5 135t209.5 50q117 0 194.5 -49t105.5 -126t28 -155v-719h-133v672q0 133 -55 197.5t-177 64.5q-65 0 -121.5 -25.5t-97.5 -70.5t-64.5 -105t-23.5 -129v-604h-133zM267 1225q31 89 76 126.5t102 37.5q29 0 66 -12t79 -38 q48 -29 73.5 -38t45.5 -9q17 0 33 8.5t29 28.5t22 47l90 -37q-31 -89 -76 -126t-102 -37q-29 0 -66 11t-77 36q-53 31 -77.5 40t-43.5 9t-35 -9t-28 -28.5t-21 -46.5z" />
<glyph unicode="&#xf2;" horiz-adv-x="1143" d="M125 514q0 121 28 220.5t84 170.5t139.5 109.5t194.5 38.5t195 -38.5t140 -109.5t84 -170.5t28 -220.5q0 -116 -29.5 -214.5t-86.5 -170.5t-140 -113t-191 -41q-107 0 -190 41t-140 113t-86.5 170.5t-29.5 214.5zM272 514q0 -83 14.5 -160t49 -136.5t92 -95.5t143.5 -36 q123 0 194 74t89 172.5t18 181.5q0 135 -36 238t-107 147.5t-158 44.5q-85 0 -142.5 -36.5t-92 -96.5t-49.5 -137.5t-15 -159.5zM352 1423h168l178 -282h-147z" />
<glyph unicode="&#xf3;" horiz-adv-x="1143" d="M125 514q0 121 28 220.5t84 170.5t139.5 109.5t194.5 38.5t195 -38.5t140 -109.5t84 -170.5t28 -220.5q0 -116 -29.5 -214.5t-86.5 -170.5t-140 -113t-191 -41q-107 0 -190 41t-140 113t-86.5 170.5t-29.5 214.5zM272 514q0 -83 14.5 -160t49 -136.5t92 -95.5t143.5 -36 q123 0 194 74t89 172.5t18 181.5q0 135 -36 238t-107 147.5t-158 44.5q-85 0 -142.5 -36.5t-92 -96.5t-49.5 -137.5t-15 -159.5zM477 1141l178 282h168l-199 -282h-147z" />
<glyph unicode="&#xf4;" horiz-adv-x="1143" d="M125 514q0 121 28 220.5t84 170.5t139.5 109.5t194.5 38.5t195 -38.5t140 -109.5t84 -170.5t28 -220.5q0 -116 -29.5 -214.5t-86.5 -170.5t-140 -113t-191 -41q-107 0 -190 41t-140 113t-86.5 170.5t-29.5 214.5zM272 514q0 -83 14.5 -160t49 -136.5t92 -95.5t143.5 -36 q123 0 194 74t89 172.5t18 181.5q0 135 -36 238t-107 147.5t-158 44.5q-85 0 -142.5 -36.5t-92 -96.5t-49.5 -137.5t-15 -159.5zM308 1141l208 282h127l209 -282h-141l-135 172l-135 -172h-133z" />
<glyph unicode="&#xf5;" horiz-adv-x="1143" d="M125 514q0 121 28 220.5t84 170.5t139.5 109.5t194.5 38.5t195 -38.5t140 -109.5t84 -170.5t28 -220.5q0 -116 -29.5 -214.5t-86.5 -170.5t-140 -113t-191 -41q-107 0 -190 41t-140 113t-86.5 170.5t-29.5 214.5zM269 1225q31 89 76 126.5t102 37.5q29 0 66 -12t79 -38 q48 -29 73.5 -38t45.5 -9q17 0 33 8.5t29 28.5t22 47l90 -37q-31 -89 -76 -126t-102 -37q-29 0 -66 11t-77 36q-53 31 -77.5 40t-43.5 9t-35 -9t-28 -28.5t-21 -46.5zM272 514q0 -83 14.5 -160t49 -136.5t92 -95.5t143.5 -36q123 0 194 74t89 172.5t18 181.5q0 135 -36 238 t-107 147.5t-158 44.5q-85 0 -142.5 -36.5t-92 -96.5t-49.5 -137.5t-15 -159.5z" />
<glyph unicode="&#xf6;" horiz-adv-x="1143" d="M125 514q0 121 28 220.5t84 170.5t139.5 109.5t194.5 38.5t195 -38.5t140 -109.5t84 -170.5t28 -220.5q0 -116 -29.5 -214.5t-86.5 -170.5t-140 -113t-191 -41q-107 0 -190 41t-140 113t-86.5 170.5t-29.5 214.5zM272 514q0 -83 14.5 -160t49 -136.5t92 -95.5t143.5 -36 q123 0 194 74t89 172.5t18 181.5q0 135 -36 238t-107 147.5t-158 44.5q-85 0 -142.5 -36.5t-92 -96.5t-49.5 -137.5t-15 -159.5zM285 1282q0 42 28 71t70 29q29 0 54 -17t35 -39.5t10 -43.5q0 -29 -17 -53.5t-39.5 -34.5t-42.5 -10q-21 0 -38.5 8t-31 21.5t-21 31t-7.5 37.5 zM682 1282q0 30 16.5 54.5t39.5 35t43 10.5q42 0 70 -29t28 -71q0 -30 -16.5 -53.5t-38.5 -34t-43 -10.5q-30 0 -55 17t-34.5 39t-9.5 42z" />
<glyph unicode="&#xf7;" d="M76 651v127h962v-127h-962zM446 377q0 31 20 59t45 39.5t46 11.5q32 0 58.5 -19t39.5 -44.5t13 -46.5q0 -33 -20.5 -61t-45 -39t-45.5 -11q-31 0 -60 19.5t-40 44.5t-11 47zM446 1053q0 31 20 59t45 39.5t46 11.5q32 0 58.5 -19t39.5 -44.5t13 -46.5q0 -33 -20.5 -61 t-45 -39t-45.5 -11q-31 0 -60 19.5t-40 44.5t-11 47z" />
<glyph unicode="&#xf8;" horiz-adv-x="1143" d="M125 514q0 121 28 220.5t84 170.5t139.5 109.5t194.5 38.5q66 0 123 -15t105 -41l82 140l90 -47l-92 -156q69 -71 104 -177.5t35 -242.5q0 -116 -29.5 -214.5t-86.5 -170.5t-140 -113t-191 -41q-127 0 -225 60l-84 -141l-90 47l94 159q-69 72 -105 178t-36 236zM272 514 q0 -84 15 -161.5t49 -137.5l401 678q-32 25 -72.5 38t-93.5 13q-85 0 -142.5 -36.5t-92 -96.5t-49.5 -137.5t-15 -159.5zM406 129q32 -23 72.5 -36t92.5 -13q123 0 194 74t89 172.5t18 181.5t-15 162t-50 139z" />
<glyph unicode="&#xf9;" horiz-adv-x="1143" d="M166 328v700h133v-678q0 -133 55 -194.5t176 -61.5q98 0 172.5 54.5t105 130.5t30.5 145v604h133v-1028h-133v164q-50 -85 -134.5 -134.5t-209.5 -49.5q-155 0 -241.5 85.5t-86.5 262.5zM348 1423h168l178 -282h-147z" />
<glyph unicode="&#xfa;" horiz-adv-x="1143" d="M166 328v700h133v-678q0 -133 55 -194.5t176 -61.5q98 0 172.5 54.5t105 130.5t30.5 145v604h133v-1028h-133v164q-50 -85 -134.5 -134.5t-209.5 -49.5q-155 0 -241.5 85.5t-86.5 262.5zM477 1141l178 282h168l-199 -282h-147z" />
<glyph unicode="&#xfb;" horiz-adv-x="1143" d="M166 328v700h133v-678q0 -133 55 -194.5t176 -61.5q98 0 172.5 54.5t105 130.5t30.5 145v604h133v-1028h-133v164q-50 -85 -134.5 -134.5t-209.5 -49.5q-155 0 -241.5 85.5t-86.5 262.5zM304 1141l208 282h127l209 -282h-141l-135 172l-135 -172h-133z" />
<glyph unicode="&#xfc;" horiz-adv-x="1143" d="M166 328v700h133v-678q0 -133 55 -194.5t176 -61.5q98 0 172.5 54.5t105 130.5t30.5 145v604h133v-1028h-133v164q-50 -85 -134.5 -134.5t-209.5 -49.5q-155 0 -241.5 85.5t-86.5 262.5zM281 1282q0 42 28 71t70 29q29 0 54 -17t35 -39.5t10 -43.5q0 -29 -17 -53.5 t-39.5 -34.5t-42.5 -10q-21 0 -38.5 8t-31 21.5t-21 31t-7.5 37.5zM678 1282q0 30 16.5 54.5t39.5 35t43 10.5q42 0 70 -29t28 -71q0 -30 -16.5 -53.5t-38.5 -34t-43 -10.5q-30 0 -55 17t-34.5 39t-9.5 42z" />
<glyph unicode="&#xfd;" horiz-adv-x="956" d="M-43 -403l31 102q12 -5 40 -11.5t66 -6.5q54 0 100.5 25t84.5 72.5t67 104.5l82 160q-43 78 -99 192t-115 250t-103 246t-69 178.5t-42 118.5h143q48 -145 117.5 -314.5t125 -288.5t114.5 -232q84 190 167 420t138 415h141q-50 -161 -103.5 -309t-99 -268t-101 -249.5 t-89.5 -199.5q-47 -98 -90 -178t-92 -137.5t-109.5 -89t-142.5 -31.5q-66 0 -108 12t-54 19zM395 1141l178 282h168l-199 -282h-147z" />
<glyph unicode="&#xfe;" horiz-adv-x="1159" d="M172 -414v1919h133v-651q28 60 81.5 107.5t118 67.5t128.5 20q196 0 298.5 -130.5t102.5 -388.5q0 -270 -112 -410t-326 -140q-92 0 -161 23.5t-130 74.5v-492h-133zM305 209q53 -53 117 -84t147 -31q85 0 145.5 30t91.5 76t48 91q35 96 35 233q0 135 -34.5 231.5 t-102 137.5t-150.5 41q-75 0 -131 -34.5t-93 -94t-55 -139.5t-18 -170v-287z" />
<glyph unicode="&#xff;" horiz-adv-x="956" d="M-43 -403l31 102q12 -5 40 -11.5t66 -6.5q54 0 100.5 25t84.5 72.5t67 104.5l82 160q-43 78 -99 192t-115 250t-103 246t-69 178.5t-42 118.5h143q48 -145 117.5 -314.5t125 -288.5t114.5 -232q84 190 167 420t138 415h141q-50 -161 -103.5 -309t-99 -268t-101 -249.5 t-89.5 -199.5q-47 -98 -90 -178t-92 -137.5t-109.5 -89t-142.5 -31.5q-66 0 -108 12t-54 19zM188 1282q0 42 28 71t70 29q29 0 54 -17t35 -39.5t10 -43.5q0 -29 -17 -53.5t-39.5 -34.5t-42.5 -10q-21 0 -38.5 8t-31 21.5t-21 31t-7.5 37.5zM585 1282q0 30 16.5 54.5t39.5 35 t43 10.5q42 0 70 -29t28 -71q0 -30 -16.5 -53.5t-38.5 -34t-43 -10.5q-30 0 -55 17t-34.5 39t-9.5 42z" />
<glyph unicode="&#x152;" horiz-adv-x="2044" d="M133 711q0 180 41 318.5t116.5 232.5t181.5 142t235 48q98 0 184.5 -32t143 -88t89.5 -118v209h791v-118h-658v-471h570v-117h-570v-598h693v-119h-826v205q-48 -86 -123 -141t-152 -74t-142 -19q-129 0 -235 48t-181.5 141.5t-116.5 231.5t-41 319zM287 711 q0 -139 26 -253.5t78 -196t131 -126.5t185 -45q105 0 183.5 45t130 126.5t77.5 196t26 253.5q0 141 -26 256t-78 196t-130.5 125.5t-182.5 44.5q-105 0 -184 -44.5t-131.5 -125.5t-78.5 -196t-26 -256z" />
<glyph unicode="&#x153;" horiz-adv-x="1810" d="M125 514q0 121 28 220.5t84 170.5t139.5 109.5t194.5 38.5q260 0 371 -217q109 217 361 217q196 0 294.5 -119.5t98.5 -343.5q0 -31 -1 -59t-1 -56h-686q5 -92 28 -164.5t66 -122.5t106.5 -76t149.5 -26q68 0 131 8t106 21l29 -107q-49 -15 -118.5 -24t-168.5 -9 q-139 0 -242 56t-157 172q-56 -112 -147.5 -170t-219.5 -58q-107 0 -190 41t-140 113t-86.5 170.5t-29.5 214.5zM272 514q0 -83 14.5 -160t49 -136.5t92 -95.5t143.5 -36q123 0 194 74t89 172.5t18 181.5q0 135 -36 238t-107 147.5t-158 44.5q-85 0 -142.5 -36.5t-92 -96.5 t-49.5 -137.5t-15 -159.5zM1006 582h542v59q0 110 -32.5 181t-92 99.5t-125.5 28.5q-71 0 -123.5 -25.5t-88.5 -73t-55.5 -115.5t-24.5 -154z" />
<glyph unicode="&#x178;" horiz-adv-x="1114" d="M10 1423h146q26 -54 61.5 -123t84.5 -152t113 -179.5t146 -204.5q137 183 238.5 355t165.5 304h139q-62 -134 -155 -297t-176 -282t-146 -197v-647h-140v645q-65 79 -132.5 177.5t-130.5 202.5t-118.5 207t-95.5 191zM270 1669q0 42 28 71t70 29q29 0 54 -17t35 -39.5 t10 -43.5q0 -29 -17 -53.5t-39.5 -34.5t-42.5 -10q-21 0 -38.5 8t-31 21.5t-21 31t-7.5 37.5zM667 1669q0 30 16.5 54.5t39.5 35t43 10.5q42 0 70 -29t28 -71q0 -30 -16.5 -53.5t-38.5 -34t-43 -10.5q-30 0 -55 17t-34.5 39t-9.5 42z" />
<glyph unicode="&#x2c6;" horiz-adv-x="766" d="M111 1141l208 282h127l209 -282h-141l-135 172l-135 -172h-133z" />
<glyph unicode="&#x2dc;" horiz-adv-x="766" d="M74 1225q31 89 76 126.5t102 37.5q29 0 66 -12t79 -38q48 -29 73.5 -38t45.5 -9q17 0 33 8.5t29 28.5t22 47l90 -37q-31 -89 -76 -126t-102 -37q-29 0 -66 11t-77 36q-53 31 -77.5 40t-43.5 9t-35 -9t-28 -28.5t-21 -46.5z" />
<glyph unicode="&#x2000;" horiz-adv-x="905" />
<glyph unicode="&#x2001;" horiz-adv-x="1810" />
<glyph unicode="&#x2002;" horiz-adv-x="905" />
<glyph unicode="&#x2003;" horiz-adv-x="1810" />
<glyph unicode="&#x2004;" horiz-adv-x="603" />
<glyph unicode="&#x2005;" horiz-adv-x="452" />
<glyph unicode="&#x2006;" horiz-adv-x="301" />
<glyph unicode="&#x2007;" horiz-adv-x="301" />
<glyph unicode="&#x2008;" horiz-adv-x="226" />
<glyph unicode="&#x2009;" horiz-adv-x="362" />
<glyph unicode="&#x200a;" horiz-adv-x="100" />
<glyph unicode="&#x2010;" horiz-adv-x="700" d="M123 475h455v146h-455v-146z" />
<glyph unicode="&#x2011;" horiz-adv-x="700" d="M123 475h455v146h-455v-146z" />
<glyph unicode="&#x2012;" horiz-adv-x="700" d="M123 475h455v146h-455v-146z" />
<glyph unicode="&#x2013;" horiz-adv-x="1024" d="M0 473v117h1024v-117h-1024z" />
<glyph unicode="&#x2014;" horiz-adv-x="2048" d="M0 473v117h2048v-117h-2048z" />
<glyph unicode="&#x2018;" horiz-adv-x="469" d="M125 1198q0 90 38.5 176.5t112.5 151.5l74 -64q-14 -18 -35 -50.5t-33 -71t-12 -72.5q0 -51 19 -86.5t47 -55.5l-12 -59h-177q-11 28 -16.5 62.5t-5.5 68.5z" />
<glyph unicode="&#x2019;" horiz-adv-x="469" d="M119 1110q21 27 39 58t29.5 66.5t11.5 70.5q0 51 -19 86t-47 55l12 59h177q11 -28 16.5 -62.5t5.5 -68.5q0 -90 -38.5 -176t-112.5 -151z" />
<glyph unicode="&#x201a;" horiz-adv-x="469" d="M129 -162q19 26 34.5 54.5t28.5 66t13 72.5q0 49 -20 84t-52 57l12 59h195q11 -27 15.5 -61.5t4.5 -65.5q0 -92 -39 -179.5t-114 -153.5z" />
<glyph unicode="&#x201c;" horiz-adv-x="782" d="M111 1198q0 90 38.5 176.5t112.5 151.5l74 -64q-22 -28 -39.5 -57.5t-29 -66t-11.5 -70.5q0 -51 19 -86.5t47 -55.5l-13 -59h-176q-11 28 -16.5 62.5t-5.5 68.5zM455 1198q0 90 38.5 176.5t112.5 151.5l74 -64q-14 -18 -35 -50.5t-33 -71t-12 -72.5q0 -51 19 -86.5 t47 -55.5l-13 -59h-176q-11 28 -16.5 62.5t-5.5 68.5z" />
<glyph unicode="&#x201d;" horiz-adv-x="782" d="M102 1110q18 24 36.5 52.5t31 68t12.5 74.5q0 51 -18.5 86t-46.5 55l12 59h176q11 -28 17 -62.5t6 -68.5q0 -90 -39 -176t-113 -151zM446 1110q18 24 36.5 52.5t31 68t12.5 74.5q0 51 -18.5 86t-46.5 55l12 59h176q11 -28 17 -62.5t6 -68.5q0 -90 -39 -176t-113 -151z " />
<glyph unicode="&#x201e;" horiz-adv-x="782" d="M102 -164q20 27 37.5 55.5t30 66.5t12.5 73q0 51 -18.5 86t-46.5 55l12 59h176q11 -27 17 -62t6 -69q0 -89 -39 -175.5t-113 -151.5zM446 -164q20 27 37.5 55.5t30 66.5t12.5 73q0 51 -18.5 86t-46.5 55l12 59h176q11 -27 17 -62t6 -69q0 -89 -39 -175.5t-113 -151.5z " />
<glyph unicode="&#x2022;" horiz-adv-x="842" d="M98 690q0 100 54 179.5t128 112t140 32.5q99 0 178 -54.5t112 -128.5t33 -141t-25.5 -125.5t-69 -102.5t-102 -69.5t-124.5 -25.5q-67 0 -126 25.5t-103 69.5t-69.5 102.5t-25.5 125.5z" />
<glyph unicode="&#x2026;" horiz-adv-x="2048" d="M223 98q0 33 20.5 63.5t48 43t50.5 12.5q33 0 62.5 -20.5t43 -48.5t13.5 -50q0 -33 -20.5 -62.5t-48 -42.5t-50.5 -13t-44.5 10t-38 26.5t-26.5 37.5t-10 44zM905 98q0 33 20.5 63.5t48 43t50.5 12.5q33 0 62.5 -20.5t43 -48t13.5 -50.5q0 -33 -20.5 -62.5t-48 -42.5 t-50.5 -13q-34 0 -64 20.5t-42.5 47.5t-12.5 50zM1587 98q0 33 20.5 63.5t48 43t50.5 12.5q33 0 62.5 -20.5t43 -48t13.5 -50.5q0 -33 -20.5 -62.5t-48 -42.5t-50.5 -13q-34 0 -64 20.5t-42.5 47.5t-12.5 50z" />
<glyph unicode="&#x202f;" horiz-adv-x="362" />
<glyph unicode="&#x2039;" horiz-adv-x="580" d="M78 522l268 412h156l-271 -412l271 -411h-156z" />
<glyph unicode="&#x203a;" horiz-adv-x="580" d="M78 111l270 411l-270 412h155l269 -412l-269 -411h-155z" />
<glyph unicode="&#x205f;" horiz-adv-x="452" />
<glyph unicode="&#x20ac;" horiz-adv-x="1163" d="M66 530l32 113h140q-2 25 -2 48v54q0 61 6 117h-176l32 113h164q32 161 122 274.5t202.5 154t214.5 40.5q108 0 193 -24.5t132 -49.5l-45 -115q-19 11 -64 27.5t-101.5 26.5t-110.5 10q-104 0 -187.5 -42.5t-133.5 -124t-72 -177.5h561l-33 -113h-551q-8 -56 -8 -112 q0 -90 2 -107h463l-33 -113h-418q32 -212 139 -319t273 -107q88 0 159 18t105 34l47 -113q-63 -26 -142.5 -44.5t-184.5 -18.5q-111 0 -202.5 36.5t-161.5 106.5t-116 172.5t-65 234.5h-180z" />
<glyph unicode="&#x2122;" horiz-adv-x="1823" d="M63 1319v104h637v-104h-260v-756h-116v756h-261zM778 563q2 215 12 453t27 407h135l230 -624l229 624h133q5 -54 10 -122.5t9 -144.5t7.5 -156t6 -157.5t4 -149t2.5 -130.5h-113q0 105 -2.5 213t-7 249t-8.5 222l-223 -616h-99l-221 612q-4 -88 -11 -309.5t-7 -370.5 h-113z" />
<glyph unicode="&#x25fc;" horiz-adv-x="1030" d="M0 0v1030h1030v-1030h-1030z" />
<glyph unicode="&#xfb01;" horiz-adv-x="1092" d="M47 924v104h127v117q0 193 92 287t287 94q76 0 138 -11.5t106 -23.5v-113q-31 10 -92.5 22.5t-155.5 12.5q-68 0 -114.5 -18.5t-75 -53.5t-40.5 -85.5t-12 -114.5v-113h613v-1028h-134v924h-477v-924h-133v924h-129z" />
<glyph unicode="&#xfb02;" horiz-adv-x="1102" d="M47 924v104h127v115q0 112 32.5 186t86.5 117.5t124.5 61.5t147.5 18q94 0 181.5 -21t130.5 -40.5t53 -22.5v-1442h-133v1366q-58 23 -73.5 28t-67.5 15t-95 10q-65 0 -112.5 -15t-79 -49t-47 -88t-15.5 -132v-107h244v-104h-242v-924h-133v924h-129z" />
</font>
</defs>
</svg>
