<?xml version="1.0" standalone="no"?>
<!DOCTYPE svg PUBLIC "-//W3C//DTD SVG 1.1//EN" "http://www.w3.org/Graphics/SVG/1.1/DTD/svg11.dtd" >
<svg xmlns="http://www.w3.org/2000/svg">
<metadata></metadata>
<defs>
<font id="sparkasse_rgbold" horiz-adv-x="1182" >
<font-face units-per-em="2048" ascent="1638" descent="-410" />
<missing-glyph horiz-adv-x="471" />
<glyph horiz-adv-x="0" />
<glyph unicode="&#xd;" horiz-adv-x="471" />
<glyph unicode=" "  horiz-adv-x="471" />
<glyph unicode="&#x09;" horiz-adv-x="471" />
<glyph unicode="&#xa0;" horiz-adv-x="471" />
<glyph unicode="!" horiz-adv-x="600" d="M115 147q0 54 29 95.5t71 58t84 16.5q62 0 106 -27.5t62 -67t18 -75.5q0 -54 -30 -94.5t-72 -56.5t-84 -16q-41 0 -75 13t-58 35.5t-37.5 53t-13.5 65.5zM154 1423h295l-9 -917h-278z" />
<glyph unicode="&#x22;" horiz-adv-x="1004" d="M141 936v569h258v-569h-258zM602 936v569h258v-569h-258z" />
<glyph unicode="#" horiz-adv-x="1282" d="M66 375v209h198l41 258h-182v209h215l57 372h236l-58 -372h252l58 372h235l-57 -372h156v-209h-189l-41 -258h172v-209h-205l-57 -375h-235l57 375h-252l-57 -375h-236l57 375h-165zM500 584h252l41 258h-252z" />
<glyph unicode="$" horiz-adv-x="1139" d="M96 76l70 223q24 -15 97.5 -37.5t128.5 -30.5t91 -8h21v391q-49 18 -68 27q-28 12 -62.5 27t-71 36.5t-71 50.5t-62 68.5t-44 91t-16.5 117.5q0 122 63.5 213t157 131t182.5 51v99h106v-92q106 -4 187.5 -19t152.5 -35v-237q-53 18 -99 30t-110 22.5t-116 10.5h-15v-352 q39 -12 68 -25q89 -38 143 -67t106.5 -80t78.5 -124t26 -150q0 -136 -68.5 -235t-168.5 -137t-193 -44v-119h-106v117q-139 6 -241.5 32t-166.5 54zM385 1042q0 -50 35.5 -83.5t91.5 -61.5v295q-66 -17 -96.5 -55.5t-30.5 -94.5zM610 238q53 14 83.5 43t38 60t7.5 58 q0 51 -33.5 90t-95.5 74v-325z" />
<glyph unicode="%" horiz-adv-x="2159" d="M119 1053q0 106 25.5 192.5t74.5 147.5t121.5 94t167.5 33q140 0 231 -70.5t124.5 -180.5t33.5 -216q0 -107 -25.5 -192.5t-74.5 -145.5t-122 -92.5t-167 -32.5q-95 0 -167.5 32.5t-121.5 92.5t-74.5 145.5t-25.5 192.5zM375 1053q0 -80 10.5 -132t29 -82.5t42.5 -42.5 t51 -12q45 0 75 30t44 94.5t14 144.5q0 114 -21.5 178t-53 80t-58.5 16t-51 -12t-42.5 -43t-29 -84t-10.5 -135zM514 0l870 1505h261l-871 -1505h-260zM1262 449q0 106 25.5 192.5t74.5 147t121.5 93.5t167.5 33q94 0 167 -33t122 -93.5t74.5 -147t25.5 -192.5 q0 -107 -25.5 -192.5t-74.5 -145.5t-122 -92.5t-167 -32.5q-95 0 -167.5 32.5t-121.5 92.5t-74.5 145.5t-25.5 192.5zM1518 449q0 -80 10.5 -132t29 -82.5t42.5 -42.5t51 -12q45 0 75 30t44 94.5t14 144.5q0 117 -23 180t-53 78.5t-57 15.5t-51 -12t-42.5 -43t-29 -84 t-10.5 -135z" />
<glyph unicode="&#x26;" horiz-adv-x="1454" d="M94 379q0 113 42.5 196.5t113.5 139.5t145 98q-54 58 -87 111.5t-42.5 102t-9.5 93.5q0 103 61.5 183.5t151 111.5t176.5 31q143 0 232 -49.5t120 -120.5t31 -137q0 -92 -38 -164.5t-94.5 -120t-111.5 -82.5q66 -67 248 -274q25 51 38 106t13 111v12h232v-29 q0 -94 -30 -191.5t-93 -199.5q37 -45 71 -88t64 -82.5t54 -74t40 -62.5h-305q-1 1 -94 123q-87 -65 -198 -104t-249 -39q-120 0 -210 30.5t-150 84t-90.5 126.5t-30.5 158zM360 397q0 -44 15.5 -80.5t47 -62.5t78.5 -40.5t109 -14.5q91 0 156 27t115 69q-77 90 -145 165.5 t-113 123t-66 69.5q-79 -44 -126 -88t-59 -85.5t-12 -82.5zM496 1130q0 -56 32.5 -100t96.5 -102q62 35 99 68.5t52 69.5t15 73q0 55 -36.5 91t-111.5 36q-51 0 -86.5 -23.5t-48 -54t-12.5 -58.5z" />
<glyph unicode="'" horiz-adv-x="553" d="M147 936v569h259v-569h-259z" />
<glyph unicode="(" horiz-adv-x="758" d="M109 647q0 138 21.5 259.5t62 228.5t98 199.5t129.5 170.5h295q-146 -198 -225.5 -416.5t-79.5 -441.5t79.5 -440.5t225.5 -413.5h-295q-72 78 -129.5 170t-98 198.5t-62 227.5t-21.5 258z" />
<glyph unicode=")" horiz-adv-x="758" d="M43 -207q146 196 225.5 413.5t79.5 440.5t-79.5 441.5t-225.5 416.5h295q71 -78 128.5 -170.5t98 -199.5t62.5 -228.5t22 -259.5q0 -197 -47 -368t-120 -289.5t-144 -196.5h-295z" />
<glyph unicode="*" horiz-adv-x="926" d="M43 1118l72 201l250 -90l-7 276h209l-6 -276l250 90l72 -201l-260 -76l168 -213l-175 -124l-153 219l-154 -219l-174 124l168 213z" />
<glyph unicode="+" d="M98 594v242h351v372h282v-372h350v-242h-350v-375h-282v375h-351z" />
<glyph unicode="," horiz-adv-x="563" d="M115 -170q32 60 41.5 82.5t21.5 67.5t12 81q0 47 -16 84.5t-59 59.5l18 112h305q16 -40 23.5 -85t7.5 -82q0 -105 -42.5 -198t-89.5 -148.5t-69 -77.5z" />
<glyph unicode="-" horiz-adv-x="782" d="M106 483v269h570v-269h-570z" />
<glyph unicode="." horiz-adv-x="573" d="M102 147q0 54 29 95.5t72 58t84 16.5q62 0 106 -27.5t62 -67t18 -75.5q0 -54 -29.5 -94.5t-72.5 -56.5t-84 -16t-75 13t-58.5 35.5t-38 53t-13.5 65.5z" />
<glyph unicode="/" horiz-adv-x="682" d="M0 0l430 1505h252l-430 -1505h-252z" />
<glyph unicode="0" d="M104 711q0 364 120 548.5t368 184.5q247 0 366 -184.5t119 -548.5q0 -365 -119 -548t-366 -183q-248 0 -368 183t-120 548zM401 711q0 -144 11.5 -241.5t35.5 -156t60 -83.5t84 -25q73 0 116.5 59t57.5 180.5t14 266.5q0 223 -25.5 333.5t-70.5 142.5t-92 32 q-48 0 -84 -24.5t-60 -83t-35.5 -156t-11.5 -244.5z" />
<glyph unicode="1" d="M186 1069v229l322 125h240v-1200h251v-223h-786v223h256v928q-29 -7 -148.5 -42t-134.5 -40z" />
<glyph unicode="2" d="M84 0v229q28 32 70 79t89 100t95.5 106.5t89.5 99.5q45 50 91 102.5t83.5 105.5t61.5 105.5t24 102.5q0 85 -45 129.5t-156 44.5q-78 0 -159 -29.5t-122 -54.5t-52 -33v265q61 29 122.5 49t131.5 31.5t133 11.5q221 0 332.5 -100.5t111.5 -286.5q0 -75 -24.5 -147.5 t-63 -137t-86 -121t-73.5 -84t-58 -61.5q-252 -268 -254 -270h600v-236h-942z" />
<glyph unicode="3" d="M68 76l86 223q25 -16 84 -36.5t117 -31t110 -10.5q54 0 100 12t79.5 36.5t52 62.5t18.5 90q0 38 -9 76t-39.5 68t-88.5 48.5t-156 18.5h-92v237h92q119 0 185.5 44.5t66.5 144.5q0 48 -25.5 82t-73.5 50.5t-104 16.5q-103 0 -178 -28t-156 -72v254q66 27 123.5 44.5 t129 27.5t142.5 10q161 0 264.5 -58t138 -139t34.5 -157q0 -93 -35.5 -164.5t-83 -110t-86.5 -57.5q83 -25 141 -74t83.5 -119t25.5 -143q0 -93 -34 -173.5t-100.5 -140.5t-164 -94t-223.5 -34q-116 0 -215 22.5t-143.5 42.5t-65.5 31z" />
<glyph unicode="4" d="M55 313v217q97 159 206.5 323t215.5 310t193 260h274v-886h152v-224h-152v-313h-274v313h-615zM324 537h346v526q-93 -122 -192.5 -276t-153.5 -250z" />
<glyph unicode="5" d="M96 68l84 217q38 -20 117.5 -41t144.5 -21q96 0 163.5 32t97.5 91.5t30 128.5q0 129 -78 184.5t-233 55.5q-74 0 -143 -11.5t-121 -23.5l55 743h743v-237h-518l-16 -256q35 8 137 8q166 0 277.5 -62t152.5 -168t41 -225q0 -117 -36.5 -210.5t-107.5 -158.5t-175 -99.5 t-238 -34.5q-66 0 -126.5 10t-110 24t-86 29t-54.5 25z" />
<glyph unicode="6" d="M98 614q0 81 12 174t42 185t80 177.5t126.5 150.5t181.5 104t244 39q45 0 101 -4.5t86 -9.5v-228q-113 12 -168 12q-75 0 -136.5 -16t-108.5 -53.5t-79 -100t-47 -155.5q30 22 60 39.5t81 29t107 11.5q97 0 173.5 -28t130 -86t82 -147t28.5 -212q0 -122 -35.5 -218 t-101.5 -162t-159.5 -101t-209.5 -35q-122 0 -213.5 43t-153 124.5t-92.5 199t-31 267.5zM389 479q0 -62 14.5 -112t40.5 -84.5t62.5 -53t81.5 -18.5q103 0 158 74.5t55 203.5q0 134 -51.5 197.5t-151.5 63.5q-99 0 -154 -70.5t-55 -200.5z" />
<glyph unicode="7" d="M94 1188v235h953v-229q-34 -59 -103 -200t-125 -265q-26 -57 -54 -124.5t-56.5 -137.5t-56 -139.5t-51.5 -131.5t-43 -112.5t-30 -83.5h-286q52 151 120.5 325t137.5 334q51 120 131 290t117 239h-654z" />
<glyph unicode="8" d="M74 381q0 67 19 123.5t53.5 102t81 80t102.5 58.5q-86 54 -133.5 112t-60.5 114t-13 110q0 81 35 148.5t98 116t151.5 75.5t196.5 27q162 0 273 -55t150.5 -136t39.5 -159q0 -113 -53.5 -199t-155.5 -151q126 -68 185 -155.5t59 -199.5q0 -97 -37.5 -174.5t-105 -131.5 t-161 -83t-204.5 -29q-117 0 -212.5 27.5t-164 80t-106 128t-37.5 170.5zM356 385q0 -41 16.5 -75t47 -59t74.5 -38.5t100 -13.5q71 0 124 31t73 74.5t20 84.5q0 53 -24 93.5t-79 76t-128 68.5q-92 -41 -144 -84t-66 -83.5t-14 -74.5zM395 1073q0 -29 11.5 -56t38.5 -54 t70.5 -53.5t107.5 -53.5q75 42 120 98.5t45 128.5q0 48 -25 84.5t-71.5 53t-97.5 16.5t-88 -14.5t-62 -37.5t-37 -52.5t-12 -59.5z" />
<glyph unicode="9" d="M80 936q0 122 35 217t100 159.5t158 98t209 33.5q123 0 215.5 -42.5t154 -123.5t92.5 -199t31 -270q0 -81 -12.5 -174t-43 -185t-82 -177t-131 -150t-189 -104t-255.5 -39q-58 0 -104.5 4.5t-89.5 13.5l33 225q25 -6 67.5 -10t81.5 -4q81 0 148.5 20t119.5 62t85 106.5 t45 153.5q-16 -21 -60.5 -42.5t-94 -32t-97.5 -11.5q-95 -2 -172 25t-131 85t-83.5 148t-29.5 213zM371 946q0 -133 48 -198.5t148 -65.5q99 0 153 68t54 198q0 127 -49.5 195.5t-142.5 68.5q-104 0 -157.5 -71.5t-53.5 -194.5z" />
<glyph unicode=":" horiz-adv-x="573" d="M102 147q0 54 29 95.5t72 58t84 16.5q62 0 106 -27.5t62 -67t18 -75.5q0 -54 -29.5 -94.5t-72.5 -56.5t-84 -16t-75 13t-58.5 35.5t-38 53t-13.5 65.5zM102 874q0 54 29 95.5t71.5 58t84.5 16.5q62 0 106 -27.5t62 -67t18 -75.5q0 -54 -29.5 -94.5t-73 -56.5t-83.5 -16 q-41 0 -75 13t-58.5 35.5t-38 53t-13.5 65.5z" />
<glyph unicode=";" horiz-adv-x="567" d="M102 874q0 54 29 95.5t71.5 58t84.5 16.5q62 0 106 -27.5t62 -67t18 -75.5q0 -54 -29.5 -94.5t-73 -56.5t-83.5 -16q-41 0 -75 13t-58.5 35.5t-38 53t-13.5 65.5zM119 -170q32 60 43 85t22 67.5t11 78.5q0 47 -16.5 84.5t-59.5 59.5l18 112h305q16 -40 23.5 -85t7.5 -82 q0 -78 -23 -146t-55 -123t-66.5 -94.5t-56.5 -60.5z" />
<glyph unicode="&#x3c;" d="M98 594v242l983 372v-262l-663 -231l663 -232v-264z" />
<glyph unicode="=" d="M98 350v242h983v-242h-983zM98 836v241h983v-241h-983z" />
<glyph unicode="&#x3e;" d="M98 219v264l664 232l-664 231v262l983 -372v-242z" />
<glyph unicode="?" horiz-adv-x="1065" d="M109 1098v260q47 23 108.5 43.5t133 31.5t147.5 11q104 0 186 -24.5t139 -71t87 -113.5t30 -152q0 -101 -38.5 -174.5t-85.5 -111t-75 -58.5q-62 -46 -94 -85t-40.5 -73t-8.5 -65v-39h-279v84q0 94 28 157t71 100.5t82 64.5q69 48 92.5 68.5t38 51.5t14.5 66 q0 46 -23.5 79t-70 47.5t-98.5 14.5q-95 0 -172 -28.5t-172 -83.5zM272 147q0 54 29 95.5t72 58t84 16.5q62 0 106 -27.5t62 -67t18 -75.5q0 -54 -29.5 -94.5t-72.5 -56.5t-84 -16t-75 13t-58.5 35.5t-38 53t-13.5 65.5z" />
<glyph unicode="@" horiz-adv-x="1860" d="M109 430q0 190 70 355t198.5 282t283 167t306.5 50q179 0 324 -54.5t247 -151t157.5 -230t55.5 -291.5q0 -135 -40 -241.5t-105 -181t-148.5 -113.5t-171.5 -39q-91 0 -145 34.5t-80 89.5q-51 -58 -115 -91t-158 -33q-65 0 -121 23t-97 68t-64 113t-23 158 q0 131 37.5 233t99.5 171.5t141.5 106t164.5 36.5q61 0 104.5 -15t69.5 -35t37 -32l12 63h205l-101 -567q-8 -59 -8 -80q0 -16 7.5 -30t23.5 -19.5t37 -5.5q60 0 114.5 58t80.5 147t26 186q0 168 -85 293t-216.5 176t-261.5 51q-141 0 -258.5 -47.5t-202.5 -134 t-132.5 -208.5t-47.5 -271q0 -158 48 -280.5t133 -206t201.5 -126.5t254.5 -43q139 0 265 31t189 55l68 -180q-67 -27 -161.5 -52.5t-186.5 -39.5t-160 -14q-207 0 -369.5 64t-274 178.5t-170 273.5t-58.5 350zM721 346q0 -41 6.5 -73.5t22.5 -55t42 -34t64 -11.5 q65 0 107 45t61 104t25 99l36 231q-5 6 -14.5 15.5t-25.5 18.5t-39 15.5t-54 6.5q-49 0 -91.5 -28t-73.5 -76.5t-48.5 -114.5t-17.5 -142z" />
<glyph unicode="A" horiz-adv-x="1321" d="M16 0q53 195 110 382t126 385t136 362t134 294h277q49 -96 97.5 -209t95 -235.5t90.5 -250.5t84 -254t75 -246.5t64 -227.5h-295q-19 68 -37.5 141.5t-40.5 157.5h-551q-52 -203 -78 -299h-287zM451 530h411q-58 188 -207 603q-32 -90 -60 -170t-53 -153.5t-47.5 -142.5 t-43.5 -137z" />
<glyph unicode="B" horiz-adv-x="1323" d="M178 0v1423h492q166 0 271.5 -60.5t137 -140t31.5 -141.5q0 -88 -27.5 -152t-63 -95.5t-65.5 -49.5q125 -45 188.5 -128.5t63.5 -217.5q0 -95 -33.5 -175.5t-99.5 -139t-164.5 -91t-228.5 -32.5h-502zM463 231h176q101 0 162 29.5t80.5 78.5t19.5 97q0 74 -34.5 120 t-99.5 62.5t-138 16.5h-166v-404zM463 866h137q86 0 137 29t63.5 67.5t12.5 71.5q0 56 -24.5 91.5t-76 51t-112.5 15.5h-137v-326z" />
<glyph unicode="C" horiz-adv-x="1221" d="M117 709q0 172 44 308.5t129 231.5t207.5 145t280.5 50q111 0 210 -19.5t138 -38.5v-253q-46 18 -82.5 31.5t-102.5 24.5t-124 11q-114 0 -190 -39t-121 -106.5t-63.5 -158.5t-18.5 -194q0 -125 27 -214.5t76.5 -147t119.5 -84.5t156 -27q70 0 130 9.5t98 21t75 25.5 l84 -217q-42 -20 -91 -36t-102.5 -27.5t-110 -18t-112.5 -6.5q-162 0 -285 49.5t-205.5 143.5t-124.5 229.5t-42 306.5z" />
<glyph unicode="D" horiz-adv-x="1425" d="M178 0v1423h457q159 0 284 -44.5t211 -133.5t131.5 -222.5t45.5 -311.5t-45.5 -311.5t-132 -222t-211.5 -133t-283 -44.5h-457zM469 236h168q126 0 210.5 62t117 174t32.5 239q0 186 -56 297t-139.5 145.5t-164.5 34.5h-168v-952z" />
<glyph unicode="E" horiz-adv-x="1171" d="M178 0v1423h879v-235h-588v-322h500v-235h-500v-395h623v-236h-914z" />
<glyph unicode="F" horiz-adv-x="1069" d="M178 0v1423h852v-235h-563v-320h446v-235h-444v-633h-291z" />
<glyph unicode="G" horiz-adv-x="1362" d="M119 715q0 166 45.5 301t132.5 231t214 148.5t290 52.5q124 0 220 -18.5t155 -38.5v-252q-60 19 -102 32t-113.5 24t-131.5 11q-95 0 -170 -29.5t-127 -90t-79 -154t-27 -221.5t26 -219.5t77.5 -150t128 -86.5t176.5 -28q45 0 108 4v351h-219v239h504v-821 q-47 -5 -148 -11.5t-256 -6.5q-350 0 -527 185.5t-177 547.5z" />
<glyph unicode="H" horiz-adv-x="1436" d="M178 0v1423h289v-524h498v524h292v-1423h-290v664h-498v-664h-291z" />
<glyph unicode="I" horiz-adv-x="647" d="M178 0v1423h291v-1423h-291z" />
<glyph unicode="J" horiz-adv-x="1047" d="M27 82l102 217q8 -5 28 -18.5t51 -27t70.5 -24t86.5 -10.5q89 0 142 43.5t68 103.5t15 115v942h291v-938q0 -140 -33.5 -233.5t-93.5 -153.5q-65 -63 -156 -93t-201 -30q-98 0 -184 24t-127 47.5t-59 35.5z" />
<glyph unicode="K" horiz-adv-x="1352" d="M178 0v1423h291v-557l469 557h352l-567 -645q123 -115 244 -260t213.5 -279t154.5 -239h-356q-68 114 -158 232t-184.5 228t-167.5 189v-649h-291z" />
<glyph unicode="L" horiz-adv-x="1067" d="M178 0v1423h291v-1187h571v-236h-862z" />
<glyph unicode="M" horiz-adv-x="1716" d="M158 0q0 106 2.5 228t6.5 250t10 258t14 253t17 234t19 200h293l344 -888l342 888h283q10 -88 19 -201t16.5 -239t13.5 -259.5t11 -262.5t8 -247t2 -214h-269q0 153 -6.5 413.5t-17.5 534.5l-314 -794h-190l-311 798q-5 -110 -12 -331t-10 -372t-3 -249h-268z" />
<glyph unicode="N" horiz-adv-x="1436" d="M178 0v1423h262q27 -34 67.5 -91t88 -129t99.5 -154t102.5 -167t96.5 -169t83 -158v868h280v-1423h-251q-132 255 -266.5 508t-280.5 491v-999h-281z" />
<glyph unicode="O" horiz-adv-x="1475" d="M119 711q0 172 42.5 309.5t122.5 233.5t194.5 147t258.5 51t258.5 -51t194.5 -147t123 -233.5t43 -309.5q0 -173 -43 -310t-123 -232.5t-194.5 -146.5t-258.5 -51t-258.5 51t-194.5 146.5t-122.5 232.5t-42.5 310zM426 711q0 -132 22.5 -227.5t63.5 -157.5t98 -91.5 t127 -29.5q108 0 181 67t102 187t29 252q0 133 -22.5 229.5t-63.5 158t-98.5 91t-127.5 29.5t-127 -29.5t-98 -91t-63.5 -158t-22.5 -229.5z" />
<glyph unicode="P" horiz-adv-x="1237" d="M178 0v1423h465q116 0 210 -26t161 -79t103 -132.5t36 -186.5q0 -93 -35 -180.5t-107 -153t-175 -96t-215 -30.5h-158v-539h-285zM463 770h135q97 0 157 31.5t79.5 83t19.5 102.5q0 101 -58.5 153t-187.5 52h-145v-422z" />
<glyph unicode="Q" horiz-adv-x="1487" d="M119 711q0 172 42.5 309.5t122.5 233.5t194.5 147t258.5 51t258.5 -51t194.5 -147t123 -233.5t43 -309.5q0 -181 -46.5 -322.5t-135.5 -238.5q49 -56 103 -103.5t105 -89.5l-155 -172q-54 42 -118.5 102.5t-127.5 128.5q-54 -21 -114.5 -33t-129.5 -12q-144 0 -258.5 51 t-194.5 146.5t-122.5 232.5t-42.5 310zM426 711q0 -132 22.5 -227.5t63.5 -157.5t98 -91.5t127 -29.5q25 0 49 3t45 11q-102 133 -145 209l162 98q33 -56 131 -174q34 62 52 151t18 208q0 133 -22.5 229.5t-63.5 158t-98.5 91t-127.5 29.5t-127 -29.5t-98 -91t-63.5 -158 t-22.5 -229.5z" />
<glyph unicode="R" horiz-adv-x="1370" d="M178 0v1423h436q124 0 221 -27t164 -79t101.5 -128.5t34.5 -176.5q0 -85 -26.5 -157t-74 -123t-102.5 -85q97 -114 196 -279.5t193 -367.5h-328q-51 101 -115.5 212.5t-127.5 203t-107 141.5h-180v-557h-285zM463 788h102q103 0 166.5 34t81.5 83.5t18 93.5 q0 76 -29.5 119.5t-86.5 58.5t-127 15h-125v-404z" />
<glyph unicode="S" horiz-adv-x="1155" d="M49 63l72 236q13 -9 89 -33t147.5 -36.5t134.5 -12.5q120 0 185 30.5t78 72.5t13 79q0 68 -54.5 111.5t-133 72t-136.5 52.5q-33 13 -72 29t-78 38t-75.5 52t-64.5 70.5t-45 92.5t-17 119q0 96 38 172.5t107 129.5t165.5 81.5t213.5 28.5q105 0 204.5 -16.5t170.5 -36.5 v-248q-52 18 -111 31.5t-127 23.5t-124 10q-132 0 -190 -44t-58 -119q0 -62 53.5 -103.5t128 -65.5t131.5 -44q82 -31 130.5 -53t101 -62.5t87.5 -94t47.5 -109t12.5 -114.5q0 -104 -35.5 -183.5t-104.5 -134t-170 -82.5t-233 -28q-124 0 -248 23.5t-172.5 41.5t-60.5 23z " />
<glyph unicode="T" horiz-adv-x="1122" d="M27 1180v243h1069v-243h-389v-1180h-289v1180h-391z" />
<glyph unicode="U" horiz-adv-x="1411" d="M166 500v923h291v-915q0 -78 19 -132t52 -87.5t78.5 -48.5t98.5 -15q83 0 142 35t83 102.5t24 145.5v915h291v-923q0 -133 -40.5 -231.5t-112.5 -164t-171 -97.5t-216 -32q-116 0 -215 32t-171 97.5t-112.5 164t-40.5 231.5z" />
<glyph unicode="V" horiz-adv-x="1331" d="M16 1423h310q58 -197 141 -450.5t203 -564.5q118 311 200 563t142 452h303q-50 -167 -124 -384.5t-152 -419.5t-144.5 -357.5t-116.5 -261.5h-225q-68 144 -140 317.5t-142.5 359.5t-136 376.5t-118.5 369.5z" />
<glyph unicode="W" horiz-adv-x="1878" d="M16 1423h308q40 -179 100 -415.5t143 -546.5l250 928h258l252 -934q45 153 81.5 288t66 254t51.5 225t39 201h297q-40 -197 -111.5 -467t-150.5 -511t-162 -445h-250l-248 985l-248 -985h-252q-36 97 -73.5 207.5t-75.5 229.5t-75.5 243.5t-73 250.5t-67.5 250t-59 242z " />
<glyph unicode="X" horiz-adv-x="1360" d="M27 0l485 717q-53 81 -108 168t-109 176.5t-105.5 180.5t-97.5 181h316q22 -46 83 -162.5t103 -185.5t84 -133q199 327 278 481h308q-61 -124 -136 -252t-154 -249t-136 -201l495 -721h-344l-315 492l-322 -492h-325z" />
<glyph unicode="Y" horiz-adv-x="1309" d="M16 1423h308q59 -112 139.5 -247.5t193.5 -301.5q95 140 171 267t161 282h303q-100 -200 -237 -415.5t-256 -374.5v-633h-291v631q-55 73 -117 162.5t-126 191t-127.5 212.5t-121.5 226z" />
<glyph unicode="Z" horiz-adv-x="1157" d="M53 0v229q69 113 393 580q90 128 159.5 219t119.5 160h-641v235h991v-229q-24 -31 -85.5 -109.5t-143.5 -187.5t-137 -186q-106 -146 -185.5 -264.5t-138.5 -210.5h719v-236h-1051z" />
<glyph unicode="[" horiz-adv-x="725" d="M168 -207v1712h504v-221h-226v-1270h226v-221h-504z" />
<glyph unicode="\" horiz-adv-x="682" d="M0 1505h258l424 -1505h-258z" />
<glyph unicode="]" horiz-adv-x="725" d="M53 14h226v1270h-226v221h504v-1712h-504v221z" />
<glyph unicode="^" horiz-adv-x="1198" d="M63 598l408 825h254l410 -825h-301l-240 496l-238 -496h-293z" />
<glyph unicode="_" horiz-adv-x="1024" d="M0 -332h1024v-102h-1024v102z" />
<glyph unicode="`" horiz-adv-x="889" d="M184 1423h334l180 -282h-272z" />
<glyph unicode="a" horiz-adv-x="1106" d="M86 295q0 134 64 216t182 120q49 17 107 25.5t124 11.5q21 2 46 2t39.5 1t27.5 1v41q0 59 -25 92.5t-74.5 45t-107.5 11.5q-69 0 -141.5 -14t-159.5 -45v215q96 25 174 36t188 11q164 0 261 -46t130 -130.5t33 -179.5v-709h-264l-8 76q-28 -26 -74.5 -49.5t-98.5 -35 t-103 -11.5q-66 0 -124 17.5t-101.5 55t-69 97.5t-25.5 145zM360 315q0 -40 16.5 -70.5t46.5 -43.5t66 -13q43 0 84 12t65.5 25.5t37.5 24.5v231h-43q-116 0 -177.5 -25t-78.5 -63.5t-17 -77.5z" />
<glyph unicode="b" horiz-adv-x="1235" d="M158 0v1505h282v-549q22 27 62.5 53t95.5 41t111 15q145 0 243 -77.5t135 -202t37 -248.5q0 -135 -30 -238.5t-87 -174.5t-138.5 -107.5t-184.5 -36.5q-51 0 -91.5 9t-72 23.5t-53.5 31.5t-35 32l-8 -76h-266zM440 305q12 -20 30 -38.5t41 -32.5t50 -22.5t57 -8.5 q80 0 128 52.5t62.5 129.5t14.5 147q0 146 -45 222.5t-141 76.5q-42 0 -78.5 -14.5t-62.5 -49t-41 -92t-15 -143.5v-227z" />
<glyph unicode="c" horiz-adv-x="981" d="M111 520q0 124 34.5 224t101 170.5t163 108.5t221.5 38q82 0 161.5 -13.5t104.5 -23.5v-221q-19 8 -85 19.5t-120 11.5q-69 0 -122 -17.5t-89 -55t-54.5 -96.5t-18.5 -143q0 -156 65 -231.5t189 -75.5q59 0 117.5 10t103.5 25l61 -211q-65 -23 -145.5 -39t-180.5 -16 q-121 0 -215.5 38t-159 107.5t-98.5 168.5t-34 222z" />
<glyph unicode="d" horiz-adv-x="1231" d="M111 512q0 138 34 242t92.5 173t136.5 103.5t165 34.5q94 0 157 -26.5t95 -53.5v520h282v-1505h-266l-8 92q-42 -44 -86 -68t-91 -34t-94 -10q-88 0 -164 30t-132.5 94.5t-88.5 165.5t-32 242zM412 512q0 -73 10 -130.5t32 -97t57 -60.5t85 -21q67 0 113 34t64 97.5 t18 134.5v297q-29 26 -68.5 45.5t-99.5 19.5q-45 0 -83.5 -18.5t-67 -57.5t-44.5 -99t-16 -144z" />
<glyph unicode="e" horiz-adv-x="1139" d="M111 522q0 118 31 218t91.5 173t151.5 114.5t211 41.5q217 0 329.5 -130t112.5 -376q0 -83 -4 -129h-628q12 -124 77.5 -181.5t186.5 -57.5q64 0 137 10t123 26l53 -211q-77 -20 -166 -32.5t-188 -12.5q-123 0 -219.5 39.5t-162.5 111.5t-101 172.5t-35 223.5zM397 625 h357v30q0 110 -43 162.5t-123 52.5q-85 0 -134.5 -62.5t-56.5 -182.5z" />
<glyph unicode="f" horiz-adv-x="690" d="M33 823v221h121v142q0 86 25 150t71 106t110.5 63t143.5 21q77 0 140.5 -8.5t100.5 -16.5v-209q-29 6 -73 12.5t-90 6.5q-73 0 -109.5 -35.5t-36.5 -124.5v-107h228v-221h-226v-823h-282v823h-123z" />
<glyph unicode="g" horiz-adv-x="1231" d="M111 526q0 132 33 233t90 169t133 102.5t161 34.5q100 0 162.5 -27.5t108.5 -72.5l8 79h266v-1001q0 -132 -30 -216.5t-87 -137.5q-66 -65 -163.5 -94t-221.5 -29q-113 0 -211 13.5t-145 27.5l39 203q127 -33 254 -33q152 0 218.5 59.5t66.5 181.5v103 q-45 -53 -109.5 -83t-155.5 -30q-88 0 -164 28t-132.5 90t-88.5 160.5t-32 239.5zM412 526q0 -67 9.5 -121.5t31.5 -93t58 -59.5t89 -21q63 0 108 34t64 93.5t19 124.5v283q-29 26 -68.5 45.5t-99.5 19.5q-71 0 -121.5 -43.5t-70 -113.5t-19.5 -148z" />
<glyph unicode="h" horiz-adv-x="1231" d="M158 0v1505h282v-567q39 54 114.5 90.5t180.5 36.5q122 0 203 -51t111 -133.5t30 -163.5v-717h-282v649q0 70 -24 111t-60.5 54t-71.5 13q-58 0 -109 -38.5t-71.5 -91t-20.5 -97.5v-600h-282z" />
<glyph unicode="i" horiz-adv-x="635" d="M51 864v180h412v-1044h-283v850q-121 13 -129 14zM127 1368q0 50 28 87.5t67.5 54t74.5 16.5q48 0 91.5 -25t62 -62.5t18.5 -70.5q0 -50 -30.5 -88.5t-69 -53t-72.5 -14.5q-35 0 -65.5 12.5t-54 33.5t-37 49.5t-13.5 60.5z" />
<glyph unicode="j" horiz-adv-x="655" d="M-109 -406l33 183q65 -15 129 -15q53 0 86.5 19t47.5 54t14 77v938q-121 13 -129 14v180h411v-1052q0 -98 -13.5 -164.5t-36.5 -106.5t-48 -65q-48 -47 -118 -68.5t-161 -21.5q-57 0 -111 8t-104 20zM147 1368q0 50 28 87.5t67.5 54t74.5 16.5q50 0 92.5 -25.5t61 -62.5 t18.5 -70q0 -50 -31 -89t-68.5 -53t-72.5 -14t-65.5 12.5t-54 33.5t-37 49.5t-13.5 60.5z" />
<glyph unicode="k" horiz-adv-x="1143" d="M158 0v1505h282v-852l328 391h338l-399 -452q83 -93 196 -245t234 -347h-346q-83 133 -351 492v-492h-282z" />
<glyph unicode="l" horiz-adv-x="606" d="M37 1325v180h412v-1505h-283v1311q-121 13 -129 14z" />
<glyph unicode="m" horiz-adv-x="1788" d="M158 0v1044h266l8 -120q42 62 113 101.5t170 39.5q108 0 178.5 -40t105.5 -116q39 52 89.5 89t108 52t112.5 15q122 0 198.5 -51.5t102.5 -131.5t26 -161v-721h-282v659q0 88 -32 128t-103 40q-40 0 -73.5 -18.5t-57.5 -49.5t-37 -72.5t-13 -86.5v-600h-282v659 q0 88 -32 128t-103 40q-40 0 -73.5 -18.5t-57.5 -49.5t-37 -72.5t-13 -86.5v-600h-282z" />
<glyph unicode="n" horiz-adv-x="1231" d="M158 0v1044h266l8 -120q29 43 81.5 77.5t112 49t109.5 14.5q122 0 203 -51t111 -133.5t30 -163.5v-717h-282v649q0 70 -24 111t-60.5 54t-71.5 13q-58 0 -109 -38.5t-71.5 -91t-20.5 -97.5v-600h-282z" />
<glyph unicode="o" horiz-adv-x="1221" d="M111 522q0 119 31.5 219.5t94.5 173t156.5 113.5t216.5 41q179 0 298.5 -86.5t160.5 -214t41 -246.5q0 -114 -33 -214t-97 -174t-157 -116.5t-213 -42.5t-212.5 42.5t-156.5 116.5t-97 174t-33 214zM410 522q0 -77 12 -138t36.5 -103.5t62.5 -65t89 -22.5q103 0 152 87.5 t49 241.5q0 117 -27 193.5t-74.5 106.5t-99.5 30q-51 0 -89 -22.5t-62.5 -65.5t-36.5 -104t-12 -138z" />
<glyph unicode="p" horiz-adv-x="1235" d="M158 -414v1458h266l8 -120q22 43 64 75t100.5 49t122.5 17q94 0 169 -35.5t127.5 -103.5t80.5 -166t28 -223q0 -128 -30 -231.5t-87.5 -176.5t-142.5 -112.5t-196 -39.5q-55 0 -109.5 13.5t-79.5 27.5t-39 27v-459h-282zM440 274q34 -34 76.5 -52.5t91.5 -18.5 q62 0 104 25t62 61.5t29 70.5q11 41 15.5 85t4.5 87q0 146 -45 222.5t-141 76.5q-65 0 -112.5 -46t-66 -120.5t-18.5 -152.5v-238z" />
<glyph unicode="q" horiz-adv-x="1231" d="M111 512q0 138 34 242t92.5 173t136.5 103.5t165 34.5q82 0 141 -23t85.5 -46.5t33.5 -28.5l8 77h266v-1458h-280v506q-45 -52 -109.5 -82t-155.5 -30q-88 0 -164 30t-132.5 94.5t-88.5 165.5t-32 242zM412 512q0 -73 10 -130.5t32 -97t57 -60.5t85 -21q67 0 113 34 t64 97.5t18 134.5v297q-29 26 -68.5 45.5t-99.5 19.5q-45 0 -83.5 -18.5t-67 -57.5t-44.5 -99t-16 -144z" />
<glyph unicode="r" horiz-adv-x="819" d="M158 0v1044h266l8 -188q50 100 121 150.5t156 50.5q31 0 56.5 -4.5t35.5 -8.5v-258q-16 4 -45 7.5t-64 3.5q-88 0 -151 -52t-82 -114.5t-19 -108.5v-522h-282z" />
<glyph unicode="s" horiz-adv-x="1030" d="M78 57l72 211q42 -18 93 -34t107.5 -24.5t116.5 -8.5q103 0 145.5 22t42.5 72q0 39 -38.5 62.5t-107 43.5t-120.5 39q-62 21 -112 46.5t-85.5 60.5t-55 81.5t-19.5 110.5q0 119 67 197t163 103.5t185 25.5q105 0 187.5 -11.5t154.5 -33.5v-227q-83 27 -162.5 41 t-164.5 14q-70 0 -104.5 -15t-41 -34.5t-6.5 -36.5q0 -37 41 -61t101 -40.5t110 -31.5q106 -34 169.5 -74.5t93.5 -103.5t30 -136q0 -128 -72 -206t-180.5 -103.5t-208.5 -25.5q-95 0 -188 16t-143 33.5t-70 27.5z" />
<glyph unicode="t" horiz-adv-x="786" d="M31 823v221h153v222q59 21 134 52.5t149 70.5v-345h262v-221h-262v-489q0 -74 28.5 -103.5t82.5 -29.5q43 0 84.5 6t66.5 14l49 -203q-69 -18 -138 -28t-144 -10q-85 0 -144 23.5t-96.5 66t-54.5 101.5t-17 130v522h-153z" />
<glyph unicode="u" horiz-adv-x="1231" d="M152 313v731h282v-663q0 -46 10.5 -77.5t30.5 -50.5t48.5 -27.5t64.5 -8.5q63 0 112.5 38.5t70 91t20.5 97.5v600h282v-1044h-266l-8 121q-33 -48 -84.5 -80.5t-110 -46.5t-108.5 -14q-169 0 -256.5 85.5t-87.5 247.5z" />
<glyph unicode="v" horiz-adv-x="1081" d="M16 1044h301q41 -168 98.5 -353.5t129.5 -375.5q71 189 128 371t99 358h293q-62 -204 -135.5 -412t-140.5 -366.5t-117 -265.5h-260q-50 106 -103.5 235.5t-105 267t-100 276.5t-87.5 265z" />
<glyph unicode="w" horiz-adv-x="1516" d="M16 1044h279q22 -159 164 -702l196 680h219l177 -672q48 168 93 340t77 354h278q-37 -189 -96.5 -399t-120.5 -373.5t-106 -271.5h-256l-166 631l-179 -631h-256q-42 111 -84.5 235.5t-82 257.5t-74.5 272t-62 279z" />
<glyph unicode="x" horiz-adv-x="1094" d="M23 0l370 512q-105 149 -182 270.5t-148 261.5h285q34 -60 85 -144t114 -177q63 93 113.5 176.5t84.5 144.5h283q-68 -128 -153.5 -262t-178.5 -266l375 -516h-323l-205 297l-205 -297h-315z" />
<glyph unicode="y" horiz-adv-x="1120" d="M-29 -389l56 205q18 -8 53 -15.5t82 -7.5q86 0 141 53.5t103 161.5l36 90q-92 162 -185.5 359t-146 332t-94.5 255h306q25 -95 82 -245.5t101.5 -249.5t86.5 -182q66 179 121.5 347t95.5 330h295q-73 -234 -145.5 -436.5t-137.5 -357.5t-121 -270q-47 -95 -93 -171.5 t-103.5 -130.5t-132.5 -83t-178 -29q-82 0 -138 15.5t-84 29.5z" />
<glyph unicode="z" horiz-adv-x="1010" d="M63 0v215q31 44 83 110t104.5 128t87.5 104q54 64 127 146t108 120h-489v221h842v-215q-208 -217 -273 -290q-104 -117 -268 -318h561v-221h-883z" />
<glyph unicode="{" horiz-adv-x="735" d="M53 532v232q61 0 94 17.5t47.5 64.5t14.5 112v259q0 95 42 164.5t112 96.5t149 27h170v-227h-96q-26 0 -43 -7.5t-26.5 -20.5t-13 -31t-3.5 -39v-230q0 -114 -33.5 -187.5t-106.5 -113.5q73 -42 106.5 -115t33.5 -188v-227q0 -39 10 -61t30 -30t46 -8h96v-227h-170 q-78 0 -135.5 22t-94.5 61t-55 91.5t-18 114.5v256q0 92 -24 135t-61 51t-71 8z" />
<glyph unicode="|" horiz-adv-x="659" d="M225 -207v1712h209v-1712h-209z" />
<glyph unicode="}" horiz-adv-x="735" d="M53 20h97q38 0 57 16t24 38.5t5 44.5v227q0 115 33.5 188t105.5 115q-72 40 -105.5 113.5t-33.5 187.5v230q0 36 -9 56t-30 31t-47 11h-97v227h170q111 0 183 -45.5t96 -113.5t24 -129v-259q0 -65 11.5 -103.5t32 -58.5t49 -26t63.5 -6v-232q-35 0 -63.5 -6t-49 -26 t-32 -58.5t-11.5 -103.5v-256q0 -95 -41 -164t-112.5 -97t-149.5 -28h-170v227z" />
<glyph unicode="~" horiz-adv-x="1454" d="M94 375q35 87 76 156t89.5 116.5t107 72.5t129.5 25q69 0 133.5 -26.5t123.5 -58.5t111 -58.5t97 -26.5q36 0 68 21t62 66t56 104l213 -109q-55 -136 -120.5 -222t-138 -117t-143.5 -31q-52 0 -104 14.5t-94 36t-72 37.5q-154 82 -199 82q-33 0 -64.5 -23t-61.5 -68 t-56 -100z" />
<glyph unicode="&#xa1;" horiz-adv-x="600" d="M115 1284q0 54 29.5 94.5t71.5 57t85 16.5q61 0 104.5 -27t61.5 -66.5t18 -74.5q0 -54 -30 -96.5t-71.5 -58t-82.5 -15.5q-42 0 -76 13t-58.5 36t-38 54t-13.5 67zM152 0l8 918h278l8 -918h-294z" />
<glyph unicode="&#xa2;" horiz-adv-x="954" d="M104 709q0 116 31 210.5t90.5 163.5t147 109t200.5 47v184h113v-186q52 -5 111 -16.5t77 -18.5v-217q-15 8 -43.5 13t-72.5 11t-72 7v-604q56 3 103 13t73 19l60 -206q-50 -19 -108.5 -32t-127.5 -20v-186h-113v182q-112 5 -199.5 43.5t-147.5 107t-91 163.5t-31 213z M395 711q0 -128 45 -201.5t133 -91.5v586q-88 -22 -133 -92t-45 -201z" />
<glyph unicode="&#xa3;" horiz-adv-x="1130" d="M53 0v229q48 11 87.5 41.5t62.5 82.5t30 114l19 160h-164l41 221h147l17 149q17 159 99.5 266t192.5 144t212 37q104 0 189.5 -20.5t131.5 -41.5v-245q-66 26 -99.5 37t-87 20.5t-104.5 9.5q-69 0 -114.5 -22t-73.5 -56.5t-41.5 -77t-17.5 -83.5l-13 -117h363l-41 -221 h-346l-15 -127q-9 -83 -41 -154.5t-67 -109.5h678v-236h-1045z" />
<glyph unicode="&#xa4;" horiz-adv-x="1192" d="M70 348l143 144q-28 48 -43.5 103.5t-15.5 115.5t15.5 115.5t43.5 105.5l-143 143l163 160l144 -141q48 27 102.5 42t114.5 15q53 0 105.5 -13t115.5 -44l141 141l164 -160l-145 -145q59 -97 59 -219q0 -60 -14.5 -115t-42.5 -104l143 -144l-164 -160l-141 142 q-49 -28 -105 -44t-116 -16t-115 15.5t-104 44.5l-142 -142zM365 711q0 -49 18 -92.5t49 -76.5t72.5 -52t89.5 -19q68 0 125.5 40t80.5 95.5t23 104.5q0 71 -37.5 130t-90.5 84t-101 25q-72 0 -128 -40.5t-78.5 -95t-22.5 -103.5z" />
<glyph unicode="&#xa5;" horiz-adv-x="1280" d="M2 1423h291q26 -48 64.5 -115t84.5 -143t97.5 -157t103.5 -158q113 170 203 320t145 253h287q-67 -139 -167 -301.5t-257 -394.5h252l-27 -139h-299v-164h326l-27 -139h-299v-285h-282v285h-326l27 139h299v164h-326l27 139h225q-48 70 -102.5 151t-109.5 170 t-108.5 183.5t-101.5 191.5z" />
<glyph unicode="&#xa6;" horiz-adv-x="659" d="M225 -207v572h209v-572h-209zM225 934v571h209v-571h-209z" />
<glyph unicode="&#xa7;" horiz-adv-x="1059" d="M92 66l60 200q31 -12 94.5 -30.5t119.5 -26.5t103 -8q97 0 143 15.5t56 39.5t10 47q0 34 -43.5 60.5t-107 44t-109.5 30.5q-56 15 -113 36.5t-103 57t-75 86.5t-29 125q0 63 25.5 111t61 76t67.5 43q-50 28 -86 68t-49 83t-13 84q0 78 32 137.5t90.5 99.5t140 60.5 t180.5 20.5q100 0 189.5 -14.5t158.5 -34.5v-224q-22 6 -80.5 20t-133 25t-116.5 11q-75 0 -118.5 -16t-53.5 -37.5t-10 -41.5q0 -25 14.5 -40.5t43.5 -26.5t72.5 -21.5t102.5 -25.5q64 -17 126.5 -39t112.5 -57t81 -87t31 -129q0 -65 -26.5 -115.5t-61.5 -79t-60 -42.5 q69 -42 105.5 -102t36.5 -138q0 -126 -74 -203t-181.5 -102.5t-205.5 -25.5q-99 0 -196.5 19.5t-145 38.5t-66.5 28zM362 770q0 -72 263 -137q30 18 44.5 32.5t23.5 38.5t9 50q0 52 -54.5 80t-174.5 57q-46 -13 -78.5 -42t-32.5 -79z" />
<glyph unicode="&#xa8;" horiz-adv-x="889" d="M88 1282q0 43 23 77t58 48t69 14q49 0 86.5 -22t52 -54.5t14.5 -62.5q0 -44 -24 -77t-60 -45.5t-69 -12.5t-60.5 10t-47.5 28t-31 43t-11 54zM498 1282q0 43 23 77t58 48t68 14q49 0 87 -22.5t52.5 -54.5t14.5 -62q0 -29 -11 -54t-31.5 -43t-49 -28t-62.5 -10 q-33 0 -60.5 10t-47 28t-30.5 43t-11 54z" />
<glyph unicode="&#xa9;" horiz-adv-x="1749" d="M115 711q0 159 65.5 302t184.5 247.5t252.5 148t256.5 43.5q105 0 202 -26.5t181.5 -75t154 -116.5t119 -150t76.5 -176.5t27 -196.5q0 -136 -48 -258.5t-133.5 -220t-192.5 -159t-203 -82t-183 -20.5q-105 0 -202 26.5t-181 74.5t-153.5 116t-119 150t-76.5 176.5 t-27 196.5zM287 711q0 -121 46.5 -227t126.5 -185.5t187 -125.5t227 -46q121 0 228 46t187 125.5t126.5 185.5t46.5 227q0 123 -50.5 234.5t-142.5 195.5t-195.5 119.5t-199.5 35.5q-125 0 -236.5 -50.5t-196 -141.5t-119.5 -194t-35 -199zM500 698q0 99 26 180t77.5 138 t128.5 88t179 31q56 0 123.5 -14t102.5 -27v-197q-24 13 -57.5 24.5t-76.5 19t-85 7.5q-85 0 -134.5 -40.5t-62 -93.5t-12.5 -101q0 -123 56 -178.5t167 -55.5q42 0 84 7t98 30l62 -174q-87 -33 -144.5 -43t-148.5 -10t-162 31t-120 86t-75 130t-26 162z" />
<glyph unicode="&#xaa;" horiz-adv-x="737" d="M63 1051q0 79 38 128.5t99.5 70.5t111.5 26.5t112 5.5h45v8q0 40 -14 60.5t-44.5 28t-72.5 7.5q-59 0 -118 -14t-101 -31v148q18 4 44 10.5t57.5 12.5t66 10t69.5 4q144 0 215.5 -54t71.5 -169v-459h-170l-2 57q-22 -25 -68.5 -47.5t-115.5 -22.5q-42 0 -82 11.5 t-71.5 37t-51 67.5t-19.5 104zM231 1049q0 -26 13 -46.5t34.5 -27t51.5 -6.5q54 0 88 17t51 34v133h-31q-87 0 -134 -13.5t-60 -37.5t-13 -53z" />
<glyph unicode="&#xab;" horiz-adv-x="1161" d="M63 522l269 412h278l-278 -412l278 -411h-278zM551 522l268 412h279l-279 -412l279 -411h-279z" />
<glyph unicode="&#xac;" d="M98 791v241h983v-643h-282v402h-701z" />
<glyph unicode="&#xad;" horiz-adv-x="782" d="M106 483v269h570v-269h-570z" />
<glyph unicode="&#xae;" horiz-adv-x="1749" d="M115 711q0 159 65.5 302t184.5 247.5t252.5 148t256.5 43.5q105 0 202 -26.5t181.5 -75t154 -116.5t119 -150t76.5 -176.5t27 -196.5q0 -136 -48 -258.5t-133.5 -220t-192.5 -159t-203 -82t-183 -20.5q-105 0 -202 26.5t-181 74.5t-153.5 116t-119 150t-76.5 176.5 t-27 196.5zM287 711q0 -121 46.5 -227t126.5 -185.5t187 -125.5t227 -46q121 0 228 46t187 125.5t126.5 185.5t46.5 227q0 123 -50.5 234.5t-142.5 195.5t-195.5 119.5t-199.5 35.5q-125 0 -236.5 -50.5t-196 -141.5t-119.5 -194t-35 -199zM541 303v819h315q144 0 219.5 -60 t75.5 -181q0 -148 -111 -203q46 -55 113 -175.5t98 -199.5h-217q-23 56 -83 166.5t-93 146.5h-131v-313h-186zM725 760h96q65 0 97 28.5t32 77.5q0 57 -32 82t-95 25h-98v-213z" />
<glyph unicode="&#xaf;" horiz-adv-x="889" d="M80 1184v194h729v-194h-729z" />
<glyph unicode="&#xb0;" horiz-adv-x="721" d="M43 1188q0 66 25 124t67.5 100.5t100.5 67.5t124 25q97 0 176 -53t110.5 -125.5t31.5 -138.5t-25 -124t-68 -101t-101 -68t-124 -25q-98 0 -176.5 53.5t-109.5 126t-31 138.5zM217 1188q0 -29 11.5 -55.5t31 -46t45.5 -31t55 -11.5q44 0 79 24t50 57.5t15 62.5 q0 43 -24 77t-58 50t-62 16q-44 0 -80.5 -25.5t-49.5 -57t-13 -60.5z" />
<glyph unicode="&#xb1;" d="M98 0v242h983v-242h-983zM98 655v242h351v311h282v-311h350v-242h-350v-313h-282v313h-351z" />
<glyph unicode="&#xb2;" horiz-adv-x="961" d="M104 602v180q49 40 88.5 70.5t94.5 77t88 74.5q88 76 111 97.5t45 60t22 71.5q0 43 -31.5 68.5t-109.5 25.5q-55 0 -111.5 -18t-93.5 -38t-45 -26v207q46 21 92.5 35.5t103 23.5t105.5 9q346 0 346 -267q0 -80 -40.5 -147.5t-98 -118t-101.5 -86.5q-6 -5 -133 -106h406 v-193h-738z" />
<glyph unicode="&#xb3;" horiz-adv-x="956" d="M100 651l60 172q42 -18 102.5 -33.5t132.5 -15.5q85 0 136 26t51 83q0 39 -24 62.5t-74.5 32.5t-114.5 9h-66v174h80q68 0 106 16t49 38t11 42q0 30 -16.5 49t-52 28t-77.5 9q-77 0 -128.5 -15.5t-122.5 -49.5v188q13 5 38.5 14t64 18t89.5 15.5t115 6.5q126 0 206 -36 t109 -89t29 -101q0 -61 -27.5 -105.5t-59 -64.5t-54.5 -32q52 -15 94.5 -47t62 -79t19.5 -96q0 -59 -26.5 -110t-78.5 -89t-128 -59.5t-175 -21.5q-65 0 -117.5 7t-93.5 16.5t-70.5 20t-48.5 17.5z" />
<glyph unicode="&#xb4;" horiz-adv-x="889" d="M190 1141l181 282h334l-242 -282h-273z" />
<glyph unicode="&#xb6;" horiz-adv-x="1290" d="M63 999q0 103 35.5 182t101 133t159 81.5t210.5 27.5h547v-1638h-219v1438h-201v-1438h-219v801q-97 10 -173.5 43t-130 86t-82 125t-28.5 159z" />
<glyph unicode="&#xb7;" horiz-adv-x="573" d="M102 711q0 54 29 95.5t71.5 58t84.5 16.5q62 0 106 -27.5t62 -67t18 -75.5q0 -55 -29.5 -95.5t-73 -56.5t-83.5 -16q-41 0 -75 13t-58.5 35.5t-38 53t-13.5 66.5z" />
<glyph unicode="&#xb8;" horiz-adv-x="889" d="M184 -375l185 273h333l-237 -273h-281z" />
<glyph unicode="&#xb9;" horiz-adv-x="975" d="M195 1245v182l241 78h205v-727h188v-176h-614v176h191v520q-53 -14 -126 -31.5t-85 -21.5z" />
<glyph unicode="&#xba;" horiz-adv-x="819" d="M74 1176q0 75 20.5 139t62.5 111t105 73.5t148 26.5q121 0 201 -55.5t107 -137.5t27 -157q0 -72 -21.5 -136t-64 -112t-105 -75.5t-144.5 -27.5q-83 0 -145.5 27.5t-105 75.5t-64 112t-21.5 136zM260 1176q0 -48 8.5 -86t26.5 -65t46.5 -41.5t68.5 -14.5q58 0 93 31.5 t45.5 79.5t10.5 96q0 71 -20 120.5t-55 68.5t-74 19q-40 0 -68.5 -15t-46.5 -42.5t-26.5 -66t-8.5 -84.5z" />
<glyph unicode="&#xbb;" horiz-adv-x="1161" d="M63 111l279 411l-279 412h279l268 -412l-268 -411h-279zM551 111l278 411l-278 412h278l269 -412l-269 -411h-278z" />
<glyph unicode="&#xbc;" horiz-adv-x="2159" d="M144 1245v182l241 78h205v-727h188v-176h-614v176h191v520q-53 -14 -126 -31.5t-85 -21.5zM541 0l871 1505h260l-871 -1505h-260zM1202 183v183q120 153 237 285t238 253h230v-545h106v-176h-106v-182h-221v182h-484zM1409 359h277v324q-42 -47 -134.5 -154.5 t-142.5 -169.5z" />
<glyph unicode="&#xbd;" horiz-adv-x="2159" d="M144 1245v182l241 78h205v-727h188v-176h-614v176h191v520q-53 -14 -126 -31.5t-85 -21.5zM514 0l871 1505h260l-871 -1505h-260zM1292 1v180q49 40 88.5 70.5t94.5 77t88 74.5q88 76 111 97.5t45 60t22 71.5q0 43 -31.5 68.5t-109.5 25.5q-55 0 -111.5 -18t-93.5 -38 t-45 -26v207q46 21 92.5 35.5t103 23.5t105.5 9q346 0 346 -267q0 -80 -40.5 -147.5t-98 -118t-101.5 -86.5q-6 -5 -133 -106h406v-193h-738z" />
<glyph unicode="&#xbe;" horiz-adv-x="2159" d="M147 651l60 172q42 -18 102.5 -33.5t132.5 -15.5q85 0 136 26t51 83q0 39 -24 62.5t-74.5 32.5t-114.5 9h-66v174h80q68 0 106 16t49 38t11 42q0 30 -16.5 49t-52 28t-77.5 9q-77 0 -128.5 -15.5t-122.5 -49.5v188q13 5 38.5 14t64 18t89.5 15.5t115 6.5q126 0 206 -36 t109 -89t29 -101q0 -61 -27.5 -105.5t-59 -64.5t-54.5 -32q52 -15 94.5 -47t62 -79t19.5 -96q0 -59 -26.5 -110t-78.5 -89t-128 -59.5t-175 -21.5q-65 0 -117.5 7t-93.5 16.5t-70.5 20t-48.5 17.5zM545 0l871 1505h260l-871 -1505h-260zM1202 183v183q120 153 237 285 t238 253h230v-545h106v-176h-106v-182h-221v182h-484zM1409 359h277v324q-42 -47 -134.5 -154.5t-142.5 -169.5z" />
<glyph unicode="&#xbf;" horiz-adv-x="1065" d="M125 340q0 76 20 131.5t50 95.5t65 68t64 49q57 42 91 82t43 74.5t9 66.5v39h278v-84q0 -68 -13.5 -116.5t-37.5 -85t-57 -64.5t-72 -55q-30 -21 -56.5 -40t-46 -40t-31 -47t-11.5 -60q0 -31 10.5 -57t33.5 -44.5t59.5 -29t88.5 -10.5q91 0 171.5 28.5t172.5 84.5v-260 q-48 -24 -109.5 -44.5t-133 -31t-146.5 -10.5q-104 0 -186 24.5t-139 71t-87 113.5t-30 151zM422 1284q0 54 29.5 95t72 57t84.5 16q61 0 105 -27.5t62 -66.5t18 -74q0 -54 -30 -96t-72 -58t-83 -16t-75.5 13t-59 36t-38 54t-13.5 67z" />
<glyph unicode="&#xc0;" horiz-adv-x="1321" d="M16 0q53 195 110 382t126 385t136 362t134 294h277q49 -96 97.5 -209t95 -235.5t90.5 -250.5t84 -254t75 -246.5t64 -227.5h-295q-19 68 -37.5 141.5t-40.5 157.5h-551q-52 -203 -78 -299h-287zM286 1810h334l180 -282h-272zM451 530h411q-58 188 -207 603 q-32 -90 -60 -170t-53 -153.5t-47.5 -142.5t-43.5 -137z" />
<glyph unicode="&#xc1;" horiz-adv-x="1321" d="M16 0q53 195 110 382t126 385t136 362t134 294h277q49 -96 97.5 -209t95 -235.5t90.5 -250.5t84 -254t75 -246.5t64 -227.5h-295q-19 68 -37.5 141.5t-40.5 157.5h-551q-52 -203 -78 -299h-287zM451 530h411q-58 188 -207 603q-32 -90 -60 -170t-53 -153.5t-47.5 -142.5 t-43.5 -137zM518 1528l181 282h334l-242 -282h-273z" />
<glyph unicode="&#xc2;" horiz-adv-x="1321" d="M16 0q53 195 110 382t126 385t136 362t134 294h277q49 -96 97.5 -209t95 -235.5t90.5 -250.5t84 -254t75 -246.5t64 -227.5h-295q-19 68 -37.5 141.5t-40.5 157.5h-551q-52 -203 -78 -299h-287zM284 1528l269 282h241l269 -282h-275l-119 133l-118 -133h-267zM451 530 h411q-58 188 -207 603q-32 -90 -60 -170t-53 -153.5t-47.5 -142.5t-43.5 -137z" />
<glyph unicode="&#xc3;" horiz-adv-x="1321" d="M16 0q53 195 110 382t126 385t136 362t134 294h277q49 -96 97.5 -209t95 -235.5t90.5 -250.5t84 -254t75 -246.5t64 -227.5h-295q-19 68 -37.5 141.5t-40.5 157.5h-551q-52 -203 -78 -299h-287zM287 1583q34 128 91.5 184t135.5 56q36 0 63 -5.5t56 -21t57 -33.5 q52 -36 74.5 -45.5t44.5 -9.5q23 0 39.5 12t27.5 34.5t19 51.5l147 -41q-26 -104 -67 -162t-84.5 -73t-81.5 -15q-51 0 -96 20.5t-82.5 43t-62.5 37t-48 14.5q-32 0 -53 -20t-39 -80zM451 530h411q-58 188 -207 603q-32 -90 -60 -170t-53 -153.5t-47.5 -142.5t-43.5 -137z " />
<glyph unicode="&#xc4;" horiz-adv-x="1321" d="M16 0q53 195 110 382t126 385t136 362t134 294h277q49 -96 97.5 -209t95 -235.5t90.5 -250.5t84 -254t75 -246.5t64 -227.5h-295q-19 68 -37.5 141.5t-40.5 157.5h-551q-52 -203 -78 -299h-287zM301 1669q0 43 23 77t58 48t69 14q49 0 86.5 -22t52 -54.5t14.5 -62.5 q0 -44 -24 -77t-60 -45.5t-69 -12.5t-60.5 10t-47.5 28t-31 43t-11 54zM451 530h411q-58 188 -207 603q-32 -90 -60 -170t-53 -153.5t-47.5 -142.5t-43.5 -137zM711 1669q0 43 23 77t58 48t68 14q49 0 87 -22.5t52.5 -54.5t14.5 -62q0 -29 -11 -54t-31.5 -43t-49 -28 t-62.5 -10q-33 0 -60.5 10t-47 28t-30.5 43t-11 54z" />
<glyph unicode="&#xc5;" horiz-adv-x="1321" d="M16 0q39 146 97.5 342t127.5 394.5t131.5 355t119.5 272.5q-38 34 -59 80.5t-21 101.5q0 76 40.5 136.5t97.5 86t109 25.5q78 0 137.5 -41.5t85 -98.5t25.5 -108q0 -54 -21 -101t-59 -81q47 -96 93 -206.5t90 -228t85.5 -239t79 -241t70.5 -233.5t60 -216h-295 q-19 68 -37.5 141.5t-40.5 157.5h-551q-52 -203 -78 -299h-287zM451 530h411q-58 188 -207 603q-32 -90 -60 -170t-53 -153.5t-47.5 -142.5t-43.5 -137zM543 1546q0 -24 9 -46t24.5 -38.5t37 -26.5t45.5 -10q36 0 65 21t40.5 48.5t11.5 51.5q0 39 -19.5 67t-46 41t-51.5 13 q-36 0 -64.5 -20t-40 -48t-11.5 -53z" />
<glyph unicode="&#xc6;" horiz-adv-x="1915" d="M-4 0q143 318 277 581.5t258.5 476t226.5 365.5h1042v-235h-588v-322h500v-235h-500v-395h623v-236h-913v362h-461q-86 -175 -168 -362h-297zM578 598h344v602q-55 -82 -147 -241t-197 -361z" />
<glyph unicode="&#xc7;" horiz-adv-x="1221" d="M117 709q0 172 44 308.5t129 231.5t207.5 145t280.5 50q111 0 210 -19.5t138 -38.5v-253q-46 18 -82.5 31.5t-102.5 24.5t-124 11q-114 0 -190 -39t-121 -106.5t-63.5 -158.5t-18.5 -194q0 -125 27 -214.5t76.5 -147t119.5 -84.5t156 -27q70 0 130 9.5t98 21t75 25.5 l84 -217q-42 -20 -91 -36t-102.5 -27.5t-110 -18t-112.5 -6.5q-162 0 -285 49.5t-205.5 143.5t-124.5 229.5t-42 306.5zM389 -375l185 273h333l-237 -273h-281z" />
<glyph unicode="&#xc8;" horiz-adv-x="1171" d="M178 0v1423h879v-235h-588v-322h500v-235h-500v-395h623v-236h-914zM307 1810h334l180 -282h-272z" />
<glyph unicode="&#xc9;" horiz-adv-x="1171" d="M178 0v1423h879v-235h-588v-322h500v-235h-500v-395h623v-236h-914zM456 1528l181 282h334l-242 -282h-273z" />
<glyph unicode="&#xca;" horiz-adv-x="1171" d="M178 0v1423h879v-235h-588v-322h500v-235h-500v-395h623v-236h-914zM219 1528l269 282h241l269 -282h-275l-119 133l-118 -133h-267z" />
<glyph unicode="&#xcb;" horiz-adv-x="1171" d="M178 0v1423h879v-235h-588v-322h500v-235h-500v-395h623v-236h-914zM272 1669q0 43 23 77t58 48t69 14q49 0 86.5 -22t52 -54.5t14.5 -62.5q0 -44 -24 -77t-60 -45.5t-69 -12.5t-60.5 10t-47.5 28t-31 43t-11 54zM682 1669q0 43 23 77t58 48t68 14q49 0 87 -22.5 t52.5 -54.5t14.5 -62q0 -29 -11 -54t-31.5 -43t-49 -28t-62.5 -10q-33 0 -60.5 10t-47 28t-30.5 43t-11 54z" />
<glyph unicode="&#xcc;" horiz-adv-x="647" d="M-42 1810h334l180 -282h-272zM178 0v1423h291v-1423h-291z" />
<glyph unicode="&#xcd;" horiz-adv-x="647" d="M178 0v1423h291v-1423h-291zM179 1528l181 282h334l-242 -282h-273z" />
<glyph unicode="&#xce;" horiz-adv-x="647" d="M-65 1528l269 282h241l269 -282h-275l-119 133l-118 -133h-267zM178 0v1423h291v-1423h-291z" />
<glyph unicode="&#xcf;" horiz-adv-x="647" d="M-32 1669q0 43 23 77t58 48t69 14q49 0 86.5 -22t52 -54.5t14.5 -62.5q0 -44 -24 -77t-60 -45.5t-69 -12.5t-60.5 10t-47.5 28t-31 43t-11 54zM178 0v1423h291v-1423h-291zM378 1669q0 43 23 77t58 48t68 14q49 0 87 -22.5t52.5 -54.5t14.5 -62q0 -29 -11 -54t-31.5 -43 t-49 -28t-62.5 -10q-33 0 -60.5 10t-47 28t-30.5 43t-11 54z" />
<glyph unicode="&#xd0;" horiz-adv-x="1425" d="M59 637v186h119v600h457q159 0 284 -44.5t211 -133.5t131.5 -222.5t45.5 -311.5t-45.5 -311.5t-132 -222t-211.5 -133t-283 -44.5h-457v637h-119zM469 236h168q126 0 210.5 62t117 174t32.5 239q0 186 -56 297t-139.5 145.5t-164.5 34.5h-168v-365h215v-186h-215v-401z " />
<glyph unicode="&#xd1;" horiz-adv-x="1436" d="M178 0v1423h262q27 -34 67.5 -91t88 -129t99.5 -154t102.5 -167t96.5 -169t83 -158v868h280v-1423h-251q-132 255 -266.5 508t-280.5 491v-999h-281zM353 1583q34 128 91.5 184t135.5 56q36 0 63 -5.5t56 -21t57 -33.5q52 -36 74.5 -45.5t44.5 -9.5q23 0 39.5 12 t27.5 34.5t19 51.5l147 -41q-26 -104 -67 -162t-84.5 -73t-81.5 -15q-51 0 -96 20.5t-82.5 43t-62.5 37t-48 14.5q-32 0 -53 -20t-39 -80z" />
<glyph unicode="&#xd2;" horiz-adv-x="1475" d="M119 711q0 172 42.5 309.5t122.5 233.5t194.5 147t258.5 51t258.5 -51t194.5 -147t123 -233.5t43 -309.5q0 -173 -43 -310t-123 -232.5t-194.5 -146.5t-258.5 -51t-258.5 51t-194.5 146.5t-122.5 232.5t-42.5 310zM409 1810h334l180 -282h-272zM426 711 q0 -132 22.5 -227.5t63.5 -157.5t98 -91.5t127 -29.5q108 0 181 67t102 187t29 252q0 133 -22.5 229.5t-63.5 158t-98.5 91t-127.5 29.5t-127 -29.5t-98 -91t-63.5 -158t-22.5 -229.5z" />
<glyph unicode="&#xd3;" horiz-adv-x="1475" d="M119 711q0 172 42.5 309.5t122.5 233.5t194.5 147t258.5 51t258.5 -51t194.5 -147t123 -233.5t43 -309.5q0 -173 -43 -310t-123 -232.5t-194.5 -146.5t-258.5 -51t-258.5 51t-194.5 146.5t-122.5 232.5t-42.5 310zM426 711q0 -132 22.5 -227.5t63.5 -157.5t98 -91.5 t127 -29.5q108 0 181 67t102 187t29 252q0 133 -22.5 229.5t-63.5 158t-98.5 91t-127.5 29.5t-127 -29.5t-98 -91t-63.5 -158t-22.5 -229.5zM579 1528l181 282h334l-242 -282h-273z" />
<glyph unicode="&#xd4;" horiz-adv-x="1475" d="M119 711q0 172 42.5 309.5t122.5 233.5t194.5 147t258.5 51t258.5 -51t194.5 -147t123 -233.5t43 -309.5q0 -173 -43 -310t-123 -232.5t-194.5 -146.5t-258.5 -51t-258.5 51t-194.5 146.5t-122.5 232.5t-42.5 310zM354 1528l269 282h241l269 -282h-275l-119 133 l-118 -133h-267zM426 711q0 -132 22.5 -227.5t63.5 -157.5t98 -91.5t127 -29.5q108 0 181 67t102 187t29 252q0 133 -22.5 229.5t-63.5 158t-98.5 91t-127.5 29.5t-127 -29.5t-98 -91t-63.5 -158t-22.5 -229.5z" />
<glyph unicode="&#xd5;" horiz-adv-x="1475" d="M119 711q0 172 42.5 309.5t122.5 233.5t194.5 147t258.5 51t258.5 -51t194.5 -147t123 -233.5t43 -309.5q0 -173 -43 -310t-123 -232.5t-194.5 -146.5t-258.5 -51t-258.5 51t-194.5 146.5t-122.5 232.5t-42.5 310zM373 1583q34 128 91.5 184t135.5 56q36 0 63 -5.5 t56 -21t57 -33.5q52 -36 74.5 -45.5t44.5 -9.5q23 0 39.5 12t27.5 34.5t19 51.5l147 -41q-26 -104 -67 -162t-84.5 -73t-81.5 -15q-51 0 -96 20.5t-82.5 43t-62.5 37t-48 14.5q-32 0 -53 -20t-39 -80zM426 711q0 -132 22.5 -227.5t63.5 -157.5t98 -91.5t127 -29.5 q108 0 181 67t102 187t29 252q0 133 -22.5 229.5t-63.5 158t-98.5 91t-127.5 29.5t-127 -29.5t-98 -91t-63.5 -158t-22.5 -229.5z" />
<glyph unicode="&#xd6;" horiz-adv-x="1475" d="M119 711q0 172 42.5 309.5t122.5 233.5t194.5 147t258.5 51t258.5 -51t194.5 -147t123 -233.5t43 -309.5q0 -173 -43 -310t-123 -232.5t-194.5 -146.5t-258.5 -51t-258.5 51t-194.5 146.5t-122.5 232.5t-42.5 310zM383 1669q0 43 23 77t58 48t69 14q49 0 86.5 -22 t52 -54.5t14.5 -62.5q0 -44 -24 -77t-60 -45.5t-69 -12.5t-60.5 10t-47.5 28t-31 43t-11 54zM426 711q0 -132 22.5 -227.5t63.5 -157.5t98 -91.5t127 -29.5q108 0 181 67t102 187t29 252q0 133 -22.5 229.5t-63.5 158t-98.5 91t-127.5 29.5t-127 -29.5t-98 -91t-63.5 -158 t-22.5 -229.5zM793 1669q0 43 23 77t58 48t68 14q49 0 87 -22.5t52.5 -54.5t14.5 -62q0 -29 -11 -54t-31.5 -43t-49 -28t-62.5 -10q-33 0 -60.5 10t-47 28t-30.5 43t-11 54z" />
<glyph unicode="&#xd7;" d="M156 451l264 262l-264 262l172 172l262 -262l262 262l174 -172l-264 -262l264 -262l-172 -172l-262 262l-262 -262z" />
<glyph unicode="&#xd8;" horiz-adv-x="1475" d="M119 711q0 172 42.5 309.5t122.5 233.5t194.5 147t258.5 51q156 0 277 -59l104 190l146 -80l-115 -205q100 -96 153.5 -243.5t53.5 -343.5q0 -173 -43 -310t-123 -232.5t-194.5 -146.5t-258.5 -51q-80 0 -151 16.5t-133 47.5l-97 -174l-145 80l106 192q-96 94 -147 239.5 t-51 338.5zM426 711q0 -93 11.5 -168t33.5 -133l420 764q-65 45 -154 45q-70 0 -127 -29.5t-98 -91t-63.5 -158t-22.5 -229.5zM575 256q35 -26 75.5 -38.5t86.5 -12.5q108 0 181 67t102 187t29 252q0 194 -50 315z" />
<glyph unicode="&#xd9;" horiz-adv-x="1411" d="M166 500v923h291v-915q0 -78 19 -132t52 -87.5t78.5 -48.5t98.5 -15q83 0 142 35t83 102.5t24 145.5v915h291v-923q0 -133 -40.5 -231.5t-112.5 -164t-171 -97.5t-216 -32q-116 0 -215 32t-171 97.5t-112.5 164t-40.5 231.5zM368 1810h334l180 -282h-272z" />
<glyph unicode="&#xda;" horiz-adv-x="1411" d="M166 500v923h291v-915q0 -78 19 -132t52 -87.5t78.5 -48.5t98.5 -15q83 0 142 35t83 102.5t24 145.5v915h291v-923q0 -133 -40.5 -231.5t-112.5 -164t-171 -97.5t-216 -32q-116 0 -215 32t-171 97.5t-112.5 164t-40.5 231.5zM538 1528l181 282h334l-242 -282h-273z" />
<glyph unicode="&#xdb;" horiz-adv-x="1411" d="M166 500v923h291v-915q0 -78 19 -132t52 -87.5t78.5 -48.5t98.5 -15q83 0 142 35t83 102.5t24 145.5v915h291v-923q0 -133 -40.5 -231.5t-112.5 -164t-171 -97.5t-216 -32q-116 0 -215 32t-171 97.5t-112.5 164t-40.5 231.5zM303 1528l269 282h241l269 -282h-275 l-119 133l-118 -133h-267z" />
<glyph unicode="&#xdc;" horiz-adv-x="1411" d="M166 500v923h291v-915q0 -78 19 -132t52 -87.5t78.5 -48.5t98.5 -15q83 0 142 35t83 102.5t24 145.5v915h291v-923q0 -133 -40.5 -231.5t-112.5 -164t-171 -97.5t-216 -32q-116 0 -215 32t-171 97.5t-112.5 164t-40.5 231.5zM334 1669q0 43 23 77t58 48t69 14 q49 0 86.5 -22t52 -54.5t14.5 -62.5q0 -44 -24 -77t-60 -45.5t-69 -12.5t-60.5 10t-47.5 28t-31 43t-11 54zM744 1669q0 43 23 77t58 48t68 14q49 0 87 -22.5t52.5 -54.5t14.5 -62q0 -29 -11 -54t-31.5 -43t-49 -28t-62.5 -10q-33 0 -60.5 10t-47 28t-30.5 43t-11 54z" />
<glyph unicode="&#xdd;" horiz-adv-x="1309" d="M16 1423h308q59 -112 139.5 -247.5t193.5 -301.5q95 140 171 267t161 282h303q-100 -200 -237 -415.5t-256 -374.5v-633h-291v631q-55 73 -117 162.5t-126 191t-127.5 212.5t-121.5 226zM507 1528l181 282h334l-242 -282h-273z" />
<glyph unicode="&#xde;" horiz-adv-x="1237" d="M178 0v1423h285v-217h180q116 0 210 -26t161 -79t103 -132.5t36 -186.5q0 -93 -35 -180.5t-107 -153t-175 -96t-215 -30.5h-158v-322h-285zM463 553h135q97 0 157 31.5t79.5 83t19.5 102.5q0 101 -58.5 153t-187.5 52h-145v-422z" />
<glyph unicode="&#xdf;" horiz-adv-x="1331" d="M158 0v1067q0 99 23.5 183.5t86.5 150.5t161 95.5t212 29.5q118 0 201 -25.5t135 -68t76 -97.5t24 -114q0 -66 -22 -115t-50 -80t-49 -49q-44 -42 -59.5 -65t-15.5 -56q0 -30 24.5 -60t61.5 -55t80 -53q73 -51 116.5 -100.5t62.5 -114.5t19 -135q0 -82 -31 -148.5 t-88 -113t-136.5 -71.5t-176.5 -25q-78 0 -144.5 12.5t-95 25t-34.5 17.5l67 203q2 -3 16.5 -10t38.5 -14.5t56.5 -13t70.5 -5.5q68 0 108 24.5t51 56t11 60.5q0 49 -38.5 91.5t-116.5 88.5q-27 16 -65 43t-73.5 64t-60 82.5t-24.5 99.5q0 79 23 119.5t85 107.5 q51 56 66.5 75t24.5 44t9 51q0 36 -19.5 65.5t-56 44.5t-81.5 15q-56 0 -92.5 -18t-58.5 -49t-31 -73.5t-9 -90.5v-1096h-282z" />
<glyph unicode="&#xe0;" horiz-adv-x="1106" d="M86 295q0 134 64 216t182 120q49 17 107 25.5t124 11.5q21 2 46 2t39.5 1t27.5 1v41q0 59 -25 92.5t-74.5 45t-107.5 11.5q-69 0 -141.5 -14t-159.5 -45v215q96 25 174 36t188 11q164 0 261 -46t130 -130.5t33 -179.5v-709h-264l-8 76q-28 -26 -74.5 -49.5t-98.5 -35 t-103 -11.5q-66 0 -124 17.5t-101.5 55t-69 97.5t-25.5 145zM204 1423h334l180 -282h-272zM360 315q0 -40 16.5 -70.5t46.5 -43.5t66 -13q43 0 84 12t65.5 25.5t37.5 24.5v231h-43q-116 0 -177.5 -25t-78.5 -63.5t-17 -77.5z" />
<glyph unicode="&#xe1;" horiz-adv-x="1106" d="M86 295q0 134 64 216t182 120q49 17 107 25.5t124 11.5q21 2 46 2t39.5 1t27.5 1v41q0 59 -25 92.5t-74.5 45t-107.5 11.5q-69 0 -141.5 -14t-159.5 -45v215q96 25 174 36t188 11q164 0 261 -46t130 -130.5t33 -179.5v-709h-264l-8 76q-28 -26 -74.5 -49.5t-98.5 -35 t-103 -11.5q-66 0 -124 17.5t-101.5 55t-69 97.5t-25.5 145zM360 315q0 -40 16.5 -70.5t46.5 -43.5t66 -13q43 0 84 12t65.5 25.5t37.5 24.5v231h-43q-116 0 -177.5 -25t-78.5 -63.5t-17 -77.5zM378 1141l181 282h334l-242 -282h-273z" />
<glyph unicode="&#xe2;" horiz-adv-x="1106" d="M86 295q0 134 64 216t182 120q49 17 107 25.5t124 11.5q21 2 46 2t39.5 1t27.5 1v41q0 59 -25 92.5t-74.5 45t-107.5 11.5q-69 0 -141.5 -14t-159.5 -45v215q96 25 174 36t188 11q164 0 261 -46t130 -130.5t33 -179.5v-709h-264l-8 76q-28 -26 -74.5 -49.5t-98.5 -35 t-103 -11.5q-66 0 -124 17.5t-101.5 55t-69 97.5t-25.5 145zM157 1141l269 282h241l269 -282h-275l-119 133l-118 -133h-267zM360 315q0 -40 16.5 -70.5t46.5 -43.5t66 -13q43 0 84 12t65.5 25.5t37.5 24.5v231h-43q-116 0 -177.5 -25t-78.5 -63.5t-17 -77.5z" />
<glyph unicode="&#xe3;" horiz-adv-x="1106" d="M86 295q0 134 64 216t182 120q49 17 107 25.5t124 11.5q21 2 46 2t39.5 1t27.5 1v41q0 59 -25 92.5t-74.5 45t-107.5 11.5q-69 0 -141.5 -14t-159.5 -45v215q96 25 174 36t188 11q164 0 261 -46t130 -130.5t33 -179.5v-709h-264l-8 76q-28 -26 -74.5 -49.5t-98.5 -35 t-103 -11.5q-66 0 -124 17.5t-101.5 55t-69 97.5t-25.5 145zM168 1196q34 128 91.5 184t135.5 56q36 0 63 -5.5t56 -21t57 -33.5q52 -36 74.5 -45.5t44.5 -9.5q23 0 39.5 12t27.5 34.5t19 51.5l147 -41q-26 -104 -67 -162t-84.5 -73t-81.5 -15q-51 0 -96 20.5t-82.5 43 t-62.5 37t-48 14.5q-32 0 -53 -20t-39 -80zM360 315q0 -40 16.5 -70.5t46.5 -43.5t66 -13q43 0 84 12t65.5 25.5t37.5 24.5v231h-43q-116 0 -177.5 -25t-78.5 -63.5t-17 -77.5z" />
<glyph unicode="&#xe4;" horiz-adv-x="1106" d="M86 295q0 134 64 216t182 120q49 17 107 25.5t124 11.5q21 2 46 2t39.5 1t27.5 1v41q0 59 -25 92.5t-74.5 45t-107.5 11.5q-69 0 -141.5 -14t-159.5 -45v215q96 25 174 36t188 11q164 0 261 -46t130 -130.5t33 -179.5v-709h-264l-8 76q-28 -26 -74.5 -49.5t-98.5 -35 t-103 -11.5q-66 0 -124 17.5t-101.5 55t-69 97.5t-25.5 145zM184 1282q0 43 23 77t58 48t69 14q49 0 86.5 -22t52 -54.5t14.5 -62.5q0 -44 -24 -77t-60 -45.5t-69 -12.5t-60.5 10t-47.5 28t-31 43t-11 54zM360 315q0 -40 16.5 -70.5t46.5 -43.5t66 -13q43 0 84 12t65.5 25.5 t37.5 24.5v231h-43q-116 0 -177.5 -25t-78.5 -63.5t-17 -77.5zM594 1282q0 43 23 77t58 48t68 14q49 0 87 -22.5t52.5 -54.5t14.5 -62q0 -29 -11 -54t-31.5 -43t-49 -28t-62.5 -10q-33 0 -60.5 10t-47 28t-30.5 43t-11 54z" />
<glyph unicode="&#xe5;" horiz-adv-x="1106" d="M86 295q0 134 64 216t182 120q49 17 107 25.5t124 11.5q21 2 46 2t39.5 1t27.5 1v41q0 59 -25 92.5t-74.5 45t-107.5 11.5q-69 0 -141.5 -14t-159.5 -45v215q96 25 174 36t188 11q164 0 261 -46t130 -130.5t33 -179.5v-709h-264l-8 76q-28 -26 -74.5 -49.5t-98.5 -35 t-103 -11.5q-66 0 -124 17.5t-101.5 55t-69 97.5t-25.5 145zM301 1389q0 77 41 136.5t98 85t108 25.5q78 0 137.5 -41.5t85 -98t25.5 -107.5q0 -77 -42.5 -139t-98 -85.5t-107.5 -23.5q-51 0 -96 19.5t-78.5 53t-53 78.5t-19.5 97zM360 315q0 -40 16.5 -70.5t46.5 -43.5 t66 -13q43 0 84 12t65.5 25.5t37.5 24.5v231h-43q-116 0 -177.5 -25t-78.5 -63.5t-17 -77.5zM432 1389q0 -25 9 -47t24.5 -38.5t37 -26t45.5 -9.5q37 0 65.5 20.5t40 48t11.5 52.5q0 38 -19.5 66t-46.5 41t-51 13q-36 0 -64.5 -20t-40 -48t-11.5 -52z" />
<glyph unicode="&#xe6;" horiz-adv-x="1688" d="M86 301q0 97 34.5 166t88 104.5t106.5 53.5q62 21 122 29.5t126 13.5q21 2 46 2t39.5 1t27.5 1v22v19q0 78 -48.5 113.5t-158.5 35.5q-69 0 -141.5 -14t-159.5 -45v215q96 25 174 36t188 11t194.5 -31t127.5 -84q34 36 80 62.5t106 41.5t117 15q208 0 320 -127t112 -379 q0 -83 -4 -129h-629q13 -124 78.5 -181.5t186.5 -57.5q64 0 137 10t123 26l53 -211q-77 -20 -166 -32.5t-188 -12.5q-119 0 -215.5 38t-153.5 100q-51 -46 -114.5 -77t-126 -43.5t-113.5 -12.5q-84 0 -152 18t-116.5 57t-74.5 100t-26 146zM360 315q0 -40 16.5 -70.5 t46.5 -43.5t66 -13q41 0 82.5 7t78 24t65.5 39q-43 95 -49 223h-33q-116 0 -177.5 -25t-78.5 -63.5t-17 -77.5zM946 625h357v30q0 110 -43 162.5t-123 52.5q-85 0 -137 -62.5t-54 -182.5z" />
<glyph unicode="&#xe7;" horiz-adv-x="981" d="M111 520q0 124 34.5 224t101 170.5t163 108.5t221.5 38q82 0 161.5 -13.5t104.5 -23.5v-221q-19 8 -85 19.5t-120 11.5q-69 0 -122 -17.5t-89 -55t-54.5 -96.5t-18.5 -143q0 -156 65 -231.5t189 -75.5q59 0 117.5 10t103.5 25l61 -211q-65 -23 -145.5 -39t-180.5 -16 q-121 0 -215.5 38t-159 107.5t-98.5 168.5t-34 222zM245 -375l185 273h333l-237 -273h-281z" />
<glyph unicode="&#xe8;" horiz-adv-x="1139" d="M111 522q0 118 31 218t91.5 173t151.5 114.5t211 41.5q217 0 329.5 -130t112.5 -376q0 -83 -4 -129h-628q12 -124 77.5 -181.5t186.5 -57.5q64 0 137 10t123 26l53 -211q-77 -20 -166 -32.5t-188 -12.5q-123 0 -219.5 39.5t-162.5 111.5t-101 172.5t-35 223.5zM286 1423 h334l180 -282h-272zM397 625h357v30q0 110 -43 162.5t-123 52.5q-85 0 -134.5 -62.5t-56.5 -182.5z" />
<glyph unicode="&#xe9;" horiz-adv-x="1139" d="M111 522q0 118 31 218t91.5 173t151.5 114.5t211 41.5q217 0 329.5 -130t112.5 -376q0 -83 -4 -129h-628q12 -124 77.5 -181.5t186.5 -57.5q64 0 137 10t123 26l53 -211q-77 -20 -166 -32.5t-188 -12.5q-123 0 -219.5 39.5t-162.5 111.5t-101 172.5t-35 223.5zM397 625 h357v30q0 110 -43 162.5t-123 52.5q-85 0 -134.5 -62.5t-56.5 -182.5zM436 1141l181 282h334l-242 -282h-273z" />
<glyph unicode="&#xea;" horiz-adv-x="1139" d="M111 522q0 118 31 218t91.5 173t151.5 114.5t211 41.5q217 0 329.5 -130t112.5 -376q0 -83 -4 -129h-628q12 -124 77.5 -181.5t186.5 -57.5q64 0 137 10t123 26l53 -211q-77 -20 -166 -32.5t-188 -12.5q-123 0 -219.5 39.5t-162.5 111.5t-101 172.5t-35 223.5zM209 1141 l269 282h241l269 -282h-275l-119 133l-118 -133h-267zM397 625h357v30q0 110 -43 162.5t-123 52.5q-85 0 -134.5 -62.5t-56.5 -182.5z" />
<glyph unicode="&#xeb;" horiz-adv-x="1139" d="M111 522q0 118 31 218t91.5 173t151.5 114.5t211 41.5q217 0 329.5 -130t112.5 -376q0 -83 -4 -129h-628q12 -124 77.5 -181.5t186.5 -57.5q64 0 137 10t123 26l53 -211q-77 -20 -166 -32.5t-188 -12.5q-123 0 -219.5 39.5t-162.5 111.5t-101 172.5t-35 223.5zM246 1282 q0 43 23 77t58 48t69 14q49 0 86.5 -22t52 -54.5t14.5 -62.5q0 -44 -24 -77t-60 -45.5t-69 -12.5t-60.5 10t-47.5 28t-31 43t-11 54zM397 625h357v30q0 110 -43 162.5t-123 52.5q-85 0 -134.5 -62.5t-56.5 -182.5zM656 1282q0 43 23 77t58 48t68 14q49 0 87 -22.5 t52.5 -54.5t14.5 -62q0 -29 -11 -54t-31.5 -43t-49 -28t-62.5 -10q-33 0 -60.5 10t-47 28t-30.5 43t-11 54z" />
<glyph unicode="&#xec;" horiz-adv-x="635" d="M-75 1423h334l180 -282h-272zM51 864v180h412v-1044h-283v850q-121 13 -129 14z" />
<glyph unicode="&#xed;" horiz-adv-x="635" d="M51 864v180h412v-1044h-283v850q-121 13 -129 14zM136 1141l181 282h334l-242 -282h-273z" />
<glyph unicode="&#xee;" horiz-adv-x="635" d="M-112 1141l269 282h241l269 -282h-275l-119 133l-118 -133h-267zM51 864v180h412v-1044h-283v850q-121 13 -129 14z" />
<glyph unicode="&#xef;" horiz-adv-x="635" d="M-97 1282q0 43 23 77t58 48t69 14q49 0 86.5 -22t52 -54.5t14.5 -62.5q0 -44 -24 -77t-60 -45.5t-69 -12.5t-60.5 10t-47.5 28t-31 43t-11 54zM51 864v180h412v-1044h-283v850q-121 13 -129 14zM313 1282q0 43 23 77t58 48t68 14q49 0 87 -22.5t52.5 -54.5t14.5 -62 q0 -29 -11 -54t-31.5 -43t-49 -28t-62.5 -10q-33 0 -60.5 10t-47 28t-30.5 43t-11 54z" />
<glyph unicode="&#xf0;" horiz-adv-x="1221" d="M111 473q0 109 30.5 200.5t87.5 157.5t137.5 103t180.5 37q36 0 70.5 -6.5t63.5 -17.5t51 -25.5t34 -30.5q-20 85 -67 161.5t-119 141.5l-158 -123l-94 111l133 104q-88 54 -164 80l72 160q148 -40 266 -105l135 105l94 -111l-100 -78q141 -111 222.5 -263.5t102.5 -286 t21 -226.5q0 -129 -33 -236.5t-97 -185.5t-157 -121t-213 -43q-121 0 -214 37.5t-156.5 104.5t-96 158t-32.5 198zM410 473q0 -64 12 -115.5t36.5 -88t62.5 -56.5t89 -20q73 0 121.5 42t64 108t15.5 130q0 96 -27 162.5t-74.5 92.5t-99.5 26q-75 0 -122 -43t-62.5 -108.5 t-15.5 -129.5z" />
<glyph unicode="&#xf1;" horiz-adv-x="1231" d="M158 0v1044h266l8 -120q29 43 81.5 77.5t112 49t109.5 14.5q122 0 203 -51t111 -133.5t30 -163.5v-717h-282v649q0 70 -24 111t-60.5 54t-71.5 13q-58 0 -109 -38.5t-71.5 -91t-20.5 -97.5v-600h-282zM232 1196q34 128 91.5 184t135.5 56q36 0 63 -5.5t56 -21t57 -33.5 q52 -36 74.5 -45.5t44.5 -9.5q23 0 39.5 12t27.5 34.5t19 51.5l147 -41q-26 -104 -67 -162t-84.5 -73t-81.5 -15q-51 0 -96 20.5t-82.5 43t-62.5 37t-48 14.5q-32 0 -53 -20t-39 -80z" />
<glyph unicode="&#xf2;" horiz-adv-x="1221" d="M111 522q0 119 31.5 219.5t94.5 173t156.5 113.5t216.5 41q179 0 298.5 -86.5t160.5 -214t41 -246.5q0 -114 -33 -214t-97 -174t-157 -116.5t-213 -42.5t-212.5 42.5t-156.5 116.5t-97 174t-33 214zM286 1423h334l180 -282h-272zM410 522q0 -77 12 -138t36.5 -103.5 t62.5 -65t89 -22.5q103 0 152 87.5t49 241.5q0 117 -27 193.5t-74.5 106.5t-99.5 30q-51 0 -89 -22.5t-62.5 -65.5t-36.5 -104t-12 -138z" />
<glyph unicode="&#xf3;" horiz-adv-x="1221" d="M111 522q0 119 31.5 219.5t94.5 173t156.5 113.5t216.5 41q179 0 298.5 -86.5t160.5 -214t41 -246.5q0 -114 -33 -214t-97 -174t-157 -116.5t-213 -42.5t-212.5 42.5t-156.5 116.5t-97 174t-33 214zM410 522q0 -77 12 -138t36.5 -103.5t62.5 -65t89 -22.5q103 0 152 87.5 t49 241.5q0 117 -27 193.5t-74.5 106.5t-99.5 30q-51 0 -89 -22.5t-62.5 -65.5t-36.5 -104t-12 -138zM436 1141l181 282h334l-242 -282h-273z" />
<glyph unicode="&#xf4;" horiz-adv-x="1221" d="M111 522q0 119 31.5 219.5t94.5 173t156.5 113.5t216.5 41q179 0 298.5 -86.5t160.5 -214t41 -246.5q0 -114 -33 -214t-97 -174t-157 -116.5t-213 -42.5t-212.5 42.5t-156.5 116.5t-97 174t-33 214zM219 1141l269 282h241l269 -282h-275l-119 133l-118 -133h-267z M410 522q0 -77 12 -138t36.5 -103.5t62.5 -65t89 -22.5q103 0 152 87.5t49 241.5q0 117 -27 193.5t-74.5 106.5t-99.5 30q-51 0 -89 -22.5t-62.5 -65.5t-36.5 -104t-12 -138z" />
<glyph unicode="&#xf5;" horiz-adv-x="1221" d="M111 522q0 119 31.5 219.5t94.5 173t156.5 113.5t216.5 41q179 0 298.5 -86.5t160.5 -214t41 -246.5q0 -114 -33 -214t-97 -174t-157 -116.5t-213 -42.5t-212.5 42.5t-156.5 116.5t-97 174t-33 214zM230 1196q34 128 91.5 184t135.5 56q36 0 63 -5.5t56 -21t57 -33.5 q52 -36 74.5 -45.5t44.5 -9.5q23 0 39.5 12t27.5 34.5t19 51.5l147 -41q-26 -104 -67 -162t-84.5 -73t-81.5 -15q-51 0 -96 20.5t-82.5 43t-62.5 37t-48 14.5q-32 0 -53 -20t-39 -80zM410 522q0 -77 12 -138t36.5 -103.5t62.5 -65t89 -22.5q103 0 152 87.5t49 241.5 q0 117 -27 193.5t-74.5 106.5t-99.5 30q-51 0 -89 -22.5t-62.5 -65.5t-36.5 -104t-12 -138z" />
<glyph unicode="&#xf6;" horiz-adv-x="1221" d="M111 522q0 119 31.5 219.5t94.5 173t156.5 113.5t216.5 41q179 0 298.5 -86.5t160.5 -214t41 -246.5q0 -114 -33 -214t-97 -174t-157 -116.5t-213 -42.5t-212.5 42.5t-156.5 116.5t-97 174t-33 214zM248 1282q0 43 23 77t58 48t69 14q49 0 86.5 -22t52 -54.5t14.5 -62.5 q0 -44 -24 -77t-60 -45.5t-69 -12.5t-60.5 10t-47.5 28t-31 43t-11 54zM410 522q0 -77 12 -138t36.5 -103.5t62.5 -65t89 -22.5q103 0 152 87.5t49 241.5q0 117 -27 193.5t-74.5 106.5t-99.5 30q-51 0 -89 -22.5t-62.5 -65.5t-36.5 -104t-12 -138zM658 1282q0 43 23 77 t58 48t68 14q49 0 87 -22.5t52.5 -54.5t14.5 -62q0 -29 -11 -54t-31.5 -43t-49 -28t-62.5 -10q-33 0 -60.5 10t-47 28t-30.5 43t-11 54z" />
<glyph unicode="&#xf7;" d="M98 594v242h983v-242h-983zM410 328q0 51 27.5 91t69.5 56.5t81 16.5q57 0 101 -27t60.5 -64.5t16.5 -72.5q0 -51 -29 -90.5t-69 -54.5t-80 -15q-39 0 -72 12.5t-56.5 34t-36.5 50.5t-13 63zM410 1100q0 50 27 89t69.5 56t81.5 17q57 0 101 -27t60.5 -64t16.5 -71 t-13 -63.5t-36.5 -51.5t-56 -34.5t-72.5 -12.5q-39 0 -72 12.5t-56.5 34.5t-36.5 51.5t-13 63.5z" />
<glyph unicode="&#xf8;" horiz-adv-x="1221" d="M111 522q0 119 31.5 219.5t94.5 173t156.5 113.5t216.5 41q63 0 119.5 -10.5t104.5 -32.5l84 141l114 -59l-90 -152q84 -74 126 -184t42 -250q0 -114 -33 -214t-97 -174t-157 -116.5t-213 -42.5q-128 0 -225 50l-82 -138l-115 60l88 149q-81 76 -123 185.5t-42 240.5z M406 522q0 -51 4.5 -95t15.5 -81l287 479q-43 31 -103 31q-52 0 -90.5 -23t-63.5 -66.5t-37.5 -105t-12.5 -139.5zM504 223q21 -17 47.5 -26t58.5 -9q77 0 124 48.5t64 128t17 157.5q0 53 -5.5 98.5t-16.5 84.5z" />
<glyph unicode="&#xf9;" horiz-adv-x="1231" d="M152 313v731h282v-663q0 -46 10.5 -77.5t30.5 -50.5t48.5 -27.5t64.5 -8.5q63 0 112.5 38.5t70 91t20.5 97.5v600h282v-1044h-266l-8 121q-33 -48 -84.5 -80.5t-110 -46.5t-108.5 -14q-169 0 -256.5 85.5t-87.5 247.5zM270 1423h334l180 -282h-272z" />
<glyph unicode="&#xfa;" horiz-adv-x="1231" d="M152 313v731h282v-663q0 -46 10.5 -77.5t30.5 -50.5t48.5 -27.5t64.5 -8.5q63 0 112.5 38.5t70 91t20.5 97.5v600h282v-1044h-266l-8 121q-33 -48 -84.5 -80.5t-110 -46.5t-108.5 -14q-169 0 -256.5 85.5t-87.5 247.5zM456 1141l181 282h334l-242 -282h-273z" />
<glyph unicode="&#xfb;" horiz-adv-x="1231" d="M152 313v731h282v-663q0 -46 10.5 -77.5t30.5 -50.5t48.5 -27.5t64.5 -8.5q63 0 112.5 38.5t70 91t20.5 97.5v600h282v-1044h-266l-8 121q-33 -48 -84.5 -80.5t-110 -46.5t-108.5 -14q-169 0 -256.5 85.5t-87.5 247.5zM219 1141l269 282h241l269 -282h-275l-119 133 l-118 -133h-267z" />
<glyph unicode="&#xfc;" horiz-adv-x="1231" d="M152 313v731h282v-663q0 -46 10.5 -77.5t30.5 -50.5t48.5 -27.5t64.5 -8.5q63 0 112.5 38.5t70 91t20.5 97.5v600h282v-1044h-266l-8 121q-33 -48 -84.5 -80.5t-110 -46.5t-108.5 -14q-169 0 -256.5 85.5t-87.5 247.5zM250 1282q0 43 23 77t58 48t69 14q49 0 86.5 -22 t52 -54.5t14.5 -62.5q0 -44 -24 -77t-60 -45.5t-69 -12.5t-60.5 10t-47.5 28t-31 43t-11 54zM660 1282q0 43 23 77t58 48t68 14q49 0 87 -22.5t52.5 -54.5t14.5 -62q0 -29 -11 -54t-31.5 -43t-49 -28t-62.5 -10q-33 0 -60.5 10t-47 28t-30.5 43t-11 54z" />
<glyph unicode="&#xfd;" horiz-adv-x="1120" d="M-29 -389l56 205q18 -8 53 -15.5t82 -7.5q86 0 141 53.5t103 161.5l36 90q-92 162 -185.5 359t-146 332t-94.5 255h306q25 -95 82 -245.5t101.5 -249.5t86.5 -182q66 179 121.5 347t95.5 330h295q-73 -234 -145.5 -436.5t-137.5 -357.5t-121 -270q-47 -95 -93 -171.5 t-103.5 -130.5t-132.5 -83t-178 -29q-82 0 -138 15.5t-84 29.5zM409 1141l181 282h334l-242 -282h-273z" />
<glyph unicode="&#xfe;" horiz-adv-x="1235" d="M158 -414v1919h274v-581q22 43 64 75t100.5 49t122.5 17q94 0 169 -35.5t127.5 -103.5t80.5 -166t28 -223q0 -128 -30 -231.5t-87.5 -176.5t-142.5 -112.5t-196 -39.5q-55 0 -109.5 13.5t-79.5 27.5t-39 27v-459h-282zM440 274q34 -34 76.5 -52.5t91.5 -18.5q62 0 104 25 t62 61.5t29 70.5q11 41 15.5 85t4.5 87q0 146 -45 222.5t-141 76.5q-65 0 -112.5 -46t-66 -120.5t-18.5 -152.5v-238z" />
<glyph unicode="&#xff;" horiz-adv-x="1120" d="M-29 -389l56 205q18 -8 53 -15.5t82 -7.5q86 0 141 53.5t103 161.5l36 90q-92 162 -185.5 359t-146 332t-94.5 255h306q25 -95 82 -245.5t101.5 -249.5t86.5 -182q66 179 121.5 347t95.5 330h295q-73 -234 -145.5 -436.5t-137.5 -357.5t-121 -270q-47 -95 -93 -171.5 t-103.5 -130.5t-132.5 -83t-178 -29q-82 0 -138 15.5t-84 29.5zM211 1282q0 43 23 77t58 48t69 14q49 0 86.5 -22t52 -54.5t14.5 -62.5q0 -44 -24 -77t-60 -45.5t-69 -12.5t-60.5 10t-47.5 28t-31 43t-11 54zM621 1282q0 43 23 77t58 48t68 14q49 0 87 -22.5t52.5 -54.5 t14.5 -62q0 -29 -11 -54t-31.5 -43t-49 -28t-62.5 -10q-33 0 -60.5 10t-47 28t-30.5 43t-11 54z" />
<glyph unicode="&#x152;" horiz-adv-x="2042" d="M119 711q0 174 42.5 312t120 233t187 145.5t244.5 50.5q57 0 109 -9t97 -26t80 -42.5t58 -59.5v108h870v-235h-592v-322h504v-235h-504v-395h627v-236h-905v111q-57 -63 -148 -101.5t-200 -38.5q-134 0 -243 50t-186 145.5t-119 233t-42 311.5zM426 711 q0 -132 22.5 -227.5t63.5 -157.5t98 -91.5t127 -29.5q108 0 181 67t102 187t29 252q0 133 -22.5 229.5t-63.5 158t-98.5 91t-127.5 29.5t-127 -29.5t-98 -91t-63.5 -158t-22.5 -229.5z" />
<glyph unicode="&#x153;" horiz-adv-x="1827" d="M111 512q0 123 31.5 225.5t93.5 176t153 114.5t211 41q116 0 202.5 -35.5t149.5 -113.5q60 78 145 113.5t203 35.5q205 0 315.5 -130t110.5 -376q0 -83 -4 -129h-628q12 -124 77.5 -181.5t186.5 -57.5q64 0 137 10t123 26l53 -211q-84 -23 -168.5 -34t-185.5 -11 q-115 0 -206 37.5t-157 120.5q-37 -49 -98 -87t-134.5 -54.5t-137.5 -16.5q-110 0 -197.5 40.5t-149 112.5t-94 170.5t-32.5 213.5zM410 522q0 -77 12 -138t36.5 -103.5t62.5 -65t89 -22.5q103 0 152 87.5t49 241.5q0 117 -27 193.5t-74.5 106.5t-99.5 30q-51 0 -89 -22.5 t-62.5 -65.5t-36.5 -104t-12 -138zM1085 625h357v30q0 110 -43 162.5t-123 52.5q-85 0 -134.5 -62.5t-56.5 -182.5z" />
<glyph unicode="&#x178;" horiz-adv-x="1309" d="M16 1423h308q59 -112 139.5 -247.5t193.5 -301.5q95 140 171 267t161 282h303q-100 -200 -237 -415.5t-256 -374.5v-633h-291v631q-55 73 -117 162.5t-126 191t-127.5 212.5t-121.5 226zM307 1669q0 43 23 77t58 48t69 14q49 0 86.5 -22t52 -54.5t14.5 -62.5 q0 -44 -24 -77t-60 -45.5t-69 -12.5t-60.5 10t-47.5 28t-31 43t-11 54zM717 1669q0 43 23 77t58 48t68 14q49 0 87 -22.5t52.5 -54.5t14.5 -62q0 -29 -11 -54t-31.5 -43t-49 -28t-62.5 -10q-33 0 -60.5 10t-47 28t-30.5 43t-11 54z" />
<glyph unicode="&#x2c6;" horiz-adv-x="889" d="M55 1141l269 282h241l269 -282h-275l-119 133l-118 -133h-267z" />
<glyph unicode="&#x2dc;" horiz-adv-x="889" d="M66 1196q34 128 91.5 184t135.5 56q36 0 63 -5.5t56 -21t57 -33.5q52 -36 74.5 -45.5t44.5 -9.5q23 0 39.5 12t27.5 34.5t19 51.5l147 -41q-26 -104 -67 -162t-84.5 -73t-81.5 -15q-51 0 -96 20.5t-82.5 43t-62.5 37t-48 14.5q-32 0 -53 -20t-39 -80z" />
<glyph unicode="&#x2000;" horiz-adv-x="911" />
<glyph unicode="&#x2001;" horiz-adv-x="1823" />
<glyph unicode="&#x2002;" horiz-adv-x="911" />
<glyph unicode="&#x2003;" horiz-adv-x="1823" />
<glyph unicode="&#x2004;" horiz-adv-x="607" />
<glyph unicode="&#x2005;" horiz-adv-x="455" />
<glyph unicode="&#x2006;" horiz-adv-x="303" />
<glyph unicode="&#x2007;" horiz-adv-x="303" />
<glyph unicode="&#x2008;" horiz-adv-x="227" />
<glyph unicode="&#x2009;" horiz-adv-x="364" />
<glyph unicode="&#x200a;" horiz-adv-x="101" />
<glyph unicode="&#x2010;" horiz-adv-x="782" d="M106 483v269h570v-269h-570z" />
<glyph unicode="&#x2011;" horiz-adv-x="782" d="M106 483v269h570v-269h-570z" />
<glyph unicode="&#x2012;" horiz-adv-x="782" d="M106 483v269h570v-269h-570z" />
<glyph unicode="&#x2013;" horiz-adv-x="1024" d="M0 422v219h1024v-219h-1024z" />
<glyph unicode="&#x2014;" horiz-adv-x="2048" d="M0 422v219h2048v-219h-2048z" />
<glyph unicode="&#x2018;" horiz-adv-x="543" d="M111 1104q0 102 44.5 202.5t85.5 152t56 67.5l141 -94q-15 -20 -39.5 -67t-36.5 -93.5t-12 -83.5q0 -48 15 -84.5t61 -61.5l-18 -106h-263q-15 28 -24.5 74t-9.5 94z" />
<glyph unicode="&#x2019;" horiz-adv-x="543" d="M104 1010q21 28 40.5 67.5t34 88.5t14.5 87q0 48 -15 84.5t-61 61.5l18 106h262q16 -28 25.5 -74t9.5 -94q0 -102 -44.5 -202t-86.5 -153t-55 -67z" />
<glyph unicode="&#x201a;" horiz-adv-x="543" d="M104 -178q21 29 40.5 68t34 88.5t14.5 87.5q0 48 -15 84t-61 61l18 106h262q16 -27 25.5 -73t9.5 -94q0 -78 -24 -148t-55.5 -126t-62 -94.5t-44.5 -53.5z" />
<glyph unicode="&#x201c;" horiz-adv-x="958" d="M96 1104q0 102 44 201t86.5 152.5t56.5 68.5l141 -94q-15 -20 -39.5 -67t-36.5 -93.5t-12 -83.5q0 -35 7.5 -66t26.5 -49.5t42 -30.5l-19 -106h-262q-15 28 -25 74t-10 94zM543 1104q0 102 44.5 202.5t86 152.5t55.5 67l141 -94q-15 -20 -39.5 -67t-36.5 -93.5t-12 -83.5 q0 -48 15 -84.5t61 -61.5l-18 -106h-262q-16 28 -25.5 74t-9.5 94z" />
<glyph unicode="&#x201d;" horiz-adv-x="958" d="M88 1010q22 30 44 77t33 87.5t11 78.5q0 48 -15 84.5t-61 61.5l19 106h262q15 -28 25 -74t10 -94q0 -78 -24 -148t-55.5 -126t-62.5 -94.5t-45 -53.5zM535 1010q22 30 41.5 71t33 87.5t13.5 84.5q0 48 -15 84.5t-61 61.5l18 106h262q16 -28 25.5 -74t9.5 -94 q0 -102 -44.5 -202t-86 -152.5t-55.5 -67.5z" />
<glyph unicode="&#x201e;" horiz-adv-x="958" d="M88 -178q22 31 44 77.5t33 87.5t11 79q0 47 -15 83.5t-61 61.5l19 106h262q15 -27 25 -73t10 -94q0 -102 -44.5 -201t-86.5 -152t-56 -69zM535 -178q22 31 41 71.5t33 87.5t14 85q0 48 -15 84t-61 61l18 106h262q16 -27 25.5 -73t9.5 -94q0 -78 -24 -148t-55.5 -126 t-62 -94.5t-44.5 -53.5z" />
<glyph unicode="&#x2022;" horiz-adv-x="889" d="M84 690q0 109 60 198.5t142.5 126t157.5 36.5q107 0 196 -58.5t127 -143t38 -159.5q0 -74 -28.5 -139.5t-77.5 -114.5t-114.5 -77.5t-140.5 -28.5q-74 0 -139.5 28.5t-114.5 77.5t-77.5 114.5t-28.5 139.5z" />
<glyph unicode="&#x2026;" horiz-adv-x="2048" d="M156 147q0 54 29 95.5t71.5 58t83.5 16.5q62 0 106 -27.5t62 -67t18 -75.5q0 -54 -30 -94.5t-72 -56.5t-84 -16q-41 0 -75 13t-58 35.5t-37.5 53t-13.5 65.5zM838 147q0 54 29 95.5t71.5 58t83.5 16.5q62 0 106 -27.5t62 -67t18 -75.5q0 -54 -30 -94.5t-72 -56.5t-84 -16 q-41 0 -75 13t-58 35.5t-37.5 53t-13.5 65.5zM1520 147q0 54 29 95.5t71 58t84 16.5q62 0 106 -27.5t62 -67t18 -75.5q0 -54 -30 -94.5t-72 -56.5t-84 -16q-41 0 -75 13t-58 35.5t-37.5 53t-13.5 65.5z" />
<glyph unicode="&#x202f;" horiz-adv-x="364" />
<glyph unicode="&#x2039;" horiz-adv-x="674" d="M63 522l269 412h278l-278 -412l278 -411h-278z" />
<glyph unicode="&#x203a;" horiz-adv-x="674" d="M63 111l279 411l-279 412h279l268 -412l-268 -411h-279z" />
<glyph unicode="&#x205f;" horiz-adv-x="455" />
<glyph unicode="&#x20ac;" horiz-adv-x="1235" d="M55 530l31 123h139q-2 22 -2 45v47q0 51 6 107h-174l31 123h164q32 131 95.5 221t145.5 145t175.5 79t185.5 24q121 0 210 -22t140 -44l-74 -225q-41 16 -69 23.5t-83.5 17.5t-94.5 10q-46 0 -96 -9t-96.5 -34t-85 -70t-62.5 -116h520l-33 -123h-512q-8 -62 -8 -104 q0 -52 6 -95h444l-32 -123h-396q16 -94 51.5 -153t82.5 -92t100.5 -44.5t105.5 -11.5q96 0 162 14t107 29l73 -227q-37 -16 -97 -30.5t-139 -24.5t-142 -10q-102 0 -198.5 28t-176.5 92.5t-137.5 170t-81.5 259.5h-185z" />
<glyph unicode="&#x2122;" horiz-adv-x="1870" d="M49 1255v168h688v-168h-248v-651h-188v651h-252zM813 604q1 120 8.5 321t15.5 307t17 191h205l198 -495l195 495h203q14 -159 20 -275.5t13.5 -287.5t7.5 -256h-183q0 165 -10 510l-176 -446h-147l-174 440q-3 -65 -5 -138t-3.5 -142t-2 -128t-0.5 -96h-182z" />
<glyph unicode="&#x25fc;" horiz-adv-x="1045" d="M0 0v1045h1045v-1045h-1045z" />
<glyph unicode="&#xfb01;" horiz-adv-x="1206" d="M33 823v221h123v78q0 195 113.5 299.5t340.5 104.5q96 0 179.5 -13t140.5 -28v-215q-42 9 -130.5 23t-158.5 14q-57 0 -96 -10t-62.5 -32t-34 -56.5t-10.5 -82.5v-82h611v-1044h-283v823h-328v-823h-282v823h-123z" />
<glyph unicode="&#xfb02;" horiz-adv-x="1221" d="M33 823v221h123v62q0 169 82.5 268.5t190 125.5t194.5 26q116 0 220 -23.5t156 -46.5t64 -29v-1427h-283v1272q-20 9 -66 24t-100 15q-72 0 -111.5 -26.5t-52 -76t-12.5 -106.5v-58h209v-221h-209v-823h-282v823h-123z" />
</font>
</defs>
</svg>
