<?xml version="1.0" standalone="no"?>
<!DOCTYPE svg PUBLIC "-//W3C//DTD SVG 1.1//EN" "http://www.w3.org/Graphics/SVG/1.1/DTD/svg11.dtd" >
<svg xmlns="http://www.w3.org/2000/svg">
<metadata>Generated by IcoMoon</metadata>
<defs>
<font id="icomoon" horiz-adv-x="1024">
<font-face units-per-em="1024" ascent="960" descent="-64" />
<missing-glyph horiz-adv-x="1024" />
<glyph unicode="&#x20;" d="" horiz-adv-x="512" />
<glyph unicode="&#xe600;" d="M419.84 594.773c44.373-20.48 98.987-3.413 119.467 40.96s3.413 98.987-40.96 119.467c-44.373 20.48-95.573 3.413-119.467-40.96-20.48-44.373 0-95.573 40.96-119.467zM447.147 260.267v116.053c0 6.827 3.413 13.653 6.827 17.067s10.24 6.827 17.067 6.827h40.96v10.24c0 13.653 10.24 23.893 23.893 23.893h58.027v75.093c0 27.307-30.72 54.613-58.027 54.613h-23.893l-51.2-37.547-51.2 37.547h-23.893c-27.307 0-51.2-23.893-51.2-54.613v-150.187c0-6.827 3.413-17.067 10.24-20.48l30.72-23.893c6.827-3.413 10.24-13.653 10.24-20.48v-201.387c0-6.827 3.413-13.653 10.24-13.653h126.293c6.827 0 20.48 6.827 20.48 13.653v139.947h-68.267c-13.653 3.413-27.307 13.653-27.307 27.307zM669.013 376.32c0 3.413-3.413 10.24-10.24 10.24h-44.373v23.893c0 3.413-3.413 10.24-10.24 10.24h-71.68c-3.413 0-10.24-3.413-10.24-10.24v-23.893h-47.787c-3.413 0-10.24-3.413-10.24-10.24v-105.813c0-3.413 3.413-10.24 10.24-10.24l180.907 3.413c3.413 0 10.24 3.413 10.24 10.24l3.413 102.4zM549.547 383.147v13.653h47.787v-13.653h-47.787z" />
<glyph unicode="&#xe601;" d="M512 789.333c-188.518 0-341.333-152.883-341.333-341.333 0-188.518 152.815-341.333 341.333-341.333 188.45 0 341.333 152.815 341.333 341.333 0 188.45-152.883 341.333-341.333 341.333zM512 182.477c-146.398 0-265.489 119.125-265.489 265.523 0 146.33 119.091 265.421 265.489 265.421s265.489-119.091 265.489-265.421c0-146.398-119.091-265.523-265.489-265.523zM390.519 571.87v-240.333c0-16.555 13.312-30.003 29.798-30.003h184.422c16.486 0 29.867 13.449 29.867 30.003v176.503l-93.15 93.867h-121.105c-16.521 0-29.833-13.449-29.833-30.037zM409.293 573.030c0 5.564 4.54 10.103 10.138 10.103h111.889v-40.482c0-25.225 18.773-44.032 43.895-44.032h40.585v-168.243c0-5.564-4.574-10.103-10.138-10.103h-186.231c-5.598 0-10.138 4.54-10.138 10.103v242.654zM536.269 461.107c0 5.188 4.198 9.387 9.387 9.387h36.932c5.188 0 9.387-4.198 9.387-9.387s-4.198-9.387-9.387-9.387h-36.932c-5.188-0.034-9.387 4.164-9.387 9.387zM536.269 414.174c0 5.188 4.198 9.387 9.387 9.387h36.932c5.188 0 9.387-4.198 9.387-9.387s-4.198-9.387-9.387-9.387h-36.932c-5.188-0.034-9.387 4.164-9.387 9.387zM431.957 367.241c0 5.154 4.198 9.353 9.387 9.353h140.595c5.154 0 9.353-4.198 9.353-9.353 0-5.188-4.198-9.387-9.353-9.387h-140.595c-5.188-0.034-9.387 4.164-9.387 9.387zM431.616 486.98h86.391v-87.142h-86.391v87.142z" />
<glyph unicode="&#xe602;" d="M234.667 721.067v-546.133c0-37.717 30.31-68.267 67.755-68.267h419.157c37.478 0 67.755 30.549 67.755 68.267v401.067l-211.695 213.333h-275.217c-37.444 0-67.755-30.583-67.755-68.267zM277.333 723.695c0 12.698 10.342 22.972 23.040 22.972h254.293v-91.887c0-57.446 42.667-100.113 99.806-100.113h92.194v-382.362c0-12.663-10.342-22.972-23.040-22.972h-423.253c-12.698 0-23.040 10.308-23.040 22.972v551.39zM565.965 469.333c0 11.776 9.557 21.333 21.333 21.333h83.934c11.776 0 21.333-9.557 21.333-21.333s-9.557-21.333-21.333-21.333h-83.934c-11.776 0-21.333 9.557-21.333 21.333zM565.965 362.667c0 11.776 9.557 21.333 21.333 21.333h83.934c11.776 0 21.333-9.557 21.333-21.333 0-11.81-9.557-21.333-21.333-21.333h-83.934c-11.776 0-21.333 9.523-21.333 21.333zM328.875 256c0 11.776 9.557 21.333 21.333 21.333h319.454c11.81 0 21.333-9.557 21.333-21.333 0-11.81-9.523-21.333-21.333-21.333h-319.454c-11.776 0-21.333 9.523-21.333 21.333zM328.090 528.145h196.301v-198.076h-196.301v198.076z" />
<glyph unicode="&#xe603;" d="M512 789.333c-188.518 0-341.333-152.849-341.333-341.333s152.815-341.333 341.333-341.333c188.484 0 341.333 152.849 341.333 341.333s-152.849 341.333-341.333 341.333zM512 182.511c-146.398 0-265.489 119.091-265.489 265.489 0 146.364 119.091 265.455 265.489 265.455s265.489-119.091 265.489-265.455c0-146.398-119.091-265.489-265.489-265.489zM524.22 614.093h-118.272c-16.077 0-24.849-13.961-24.849-30.14v-234.701c0-16.179 8.772-28.467 24.849-28.467h103.492v18.33h-104.346c-5.461 0-5.666 3.584-5.666 9.079v236.885c0 5.427 0.205 10.684 5.666 10.684h113.527v-40.311c0-24.678 14.063-42.189 38.605-42.189h43.895v-91.682h18.33v100.045l-95.232 92.467zM551.049 485.751h-110.046c-5.052 0-9.148-4.096-9.148-9.182 0-5.052 4.096-9.148 9.148-9.148h110.012c5.052 0 9.216 4.096 9.216 9.148 0 5.086-4.13 9.182-9.182 9.182zM551.049 439.91h-110.046c-5.052 0-9.148-4.096-9.148-9.182 0-5.052 4.096-9.148 9.148-9.148h110.012c5.052 0 9.216 4.096 9.216 9.148 0 5.086-4.13 9.182-9.182 9.182zM441.037 531.593h36.659c5.086 0 9.182 4.096 9.182 9.148 0 5.086-4.096 9.182-9.182 9.182h-36.659c-5.052 0-9.182-4.096-9.182-9.182 0-5.052 4.13-9.148 9.182-9.148zM647.236 339.422l4.54 11.196-8.090 8.977 0.444 12.049-10.65 5.666-3.686 11.469-11.981 1.673-7.407 9.523-11.81-2.526-10.206 6.417-10.206-6.417-11.81 2.526-7.441-9.523-11.981-1.673-3.686-11.469-10.65-5.666 0.444-12.049-8.090-8.977 4.54-11.196-4.54-11.127 8.090-8.943-0.444-12.083 10.65-5.632 3.686-11.503 9.66-1.331-18.5-32.085 17.101 0.273 10.172 17.613c1.024 1.741 3.277 2.321 5.018 1.331s2.355-3.277 1.331-4.983l-10.138-17.613 8.329-14.985 18.398 31.881 18.398-31.881 8.26 14.95-10.138 17.647c-0.99 1.741-0.41 3.994 1.331 4.983 1.775 0.99 3.994 0.41 5.018-1.331l10.138-17.613 17.237-0.273-18.569 32.085 9.66 1.331 3.686 11.503 10.65 5.632-0.444 12.083 8.090 8.943-4.403 11.127zM588.356 293.513c-25.361 0-46.012 20.617-46.012 45.943 0 25.395 20.617 46.046 46.012 46.046s46.012-20.617 46.012-46.046c0-25.361-20.651-45.943-46.012-45.943zM588.356 299.486c-22.050 0-39.97 17.92-39.97 40.004 0 22.016 17.886 39.936 39.97 39.936 22.016 0 39.97-17.92 39.97-39.936 0-22.050-17.954-40.004-39.97-40.004z" />
<glyph unicode="&#xe604;" d="M530.159 886.101h-275.729c-37.547 0-57.958-32.529-57.958-70.315v-547.191c0-37.786 20.446-66.458 57.958-66.458h241.22v42.735h-243.268c-12.732 0-13.175 8.397-13.175 21.129v552.414c0 12.698 0.444 24.951 13.175 24.951h264.704v-94.003c0-57.515 32.802-98.372 90.112-98.372h102.263v-213.743h42.769v233.199l-222.071 215.654zM592.623 586.854h-256.444c-11.844 0-21.402-9.557-21.402-21.367 0-11.844 9.557-21.402 21.402-21.402h256.478c11.81 0 21.367 9.557 21.367 21.402-0.034 11.844-9.591 21.367-21.402 21.367zM592.623 480.017h-256.444c-11.844 0-21.402-9.557-21.402-21.367 0-11.844 9.557-21.367 21.402-21.367h256.478c11.81 0 21.367 9.523 21.367 21.367-0.034 11.81-9.591 21.367-21.402 21.367zM336.145 693.76h85.504c11.844 0 21.367 9.557 21.367 21.367 0 11.844-9.523 21.367-21.367 21.367h-85.504c-11.81 0-21.367-9.523-21.367-21.367s9.557-21.367 21.367-21.367zM816.947 245.794l10.615 26.078-18.91 20.855 1.058 28.126-24.883 13.141-8.636 26.795-27.853 3.857-17.271 22.187-27.546-5.939-23.791 14.985-23.825-14.985-27.546 5.939-17.271-22.187-27.887-3.857-8.602-26.795-24.883-13.141 1.024-28.126-18.842-20.855 10.581-26.078-10.581-26.146 18.842-20.787-1.024-28.194 24.883-13.141 8.602-26.795 22.562-3.072-43.247-74.854 40.004 0.683 23.62 40.994c2.389 4.062 7.646 5.461 11.742 3.072 4.096-2.321 5.53-7.612 3.174-11.674l-23.62-40.994 19.354-34.987 42.94 74.274 42.906-74.274 19.319 34.918-23.654 41.062c-2.389 4.062-0.99 9.318 3.106 11.674 4.096 2.389 9.353 0.99 11.776-3.072l23.62-40.994 40.073-0.683-43.213 74.854 22.528 3.072 8.636 26.795 24.883 13.141-1.058 28.194 18.91 20.787-10.615 26.146zM679.697 138.547c-59.153 0-107.247 48.060-107.247 107.281 0 59.119 48.060 107.213 107.247 107.213 59.085 0 107.213-48.060 107.213-107.213 0-59.221-48.094-107.281-107.213-107.281zM679.697 152.61c-51.371 0-93.184 41.813-93.184 93.184 0 51.337 41.847 93.15 93.184 93.15s93.15-41.813 93.15-93.15c0.034-51.405-41.779-93.184-93.15-93.184z" />
<glyph unicode="&#xe605;" d="M661.231 269.449c-9.114 0-17.783 0.956-26.249 2.355v-48.981h-319.522v479.3h319.556v-123.051c3.243 0.375 6.485 0.819 9.83 0.819 12.322 0 23.689-2.833 33.758-7.475v173.329c0 24.098-19.49 43.588-43.588 43.588h-319.556c-24.098 0-43.554-19.49-43.554-43.588v-595.524c0-24.098 19.456-43.554 43.554-43.554h319.522c24.098 0 43.588 19.456 43.588 43.52v120.422c-5.666-0.614-11.366-1.161-17.34-1.161zM511.522 143.531h-72.602c-12.049 0-21.811 9.796-21.811 21.811 0 12.083 9.762 21.777 21.811 21.777h72.602c12.083 0 21.845-9.694 21.845-21.777 0-12.015-9.762-21.811-21.845-21.811zM725.948 520.397c-14.438 0-26.18-11.742-26.18-26.214v17.476c0 14.473-11.742 26.18-26.146 26.18-14.473 0-26.214-11.708-26.214-26.18v17.476c0 14.37-11.81 26.146-26.146 26.146-14.404 0-26.214-11.776-26.214-26.146v103.697c0 14.37-11.776 26.146-26.214 26.146-14.404 0-26.146-11.776-26.146-26.146v-205.892l-24.474 42.359c-9.591 16.589-27.682 24.337-40.107 17.169-12.459-7.202-14.848-26.692-5.222-43.349l74.889-129.707c7.134-12.288 41.95-19.831 64.58-19.831h69.871c38.537 0 69.803 31.232 69.803 69.769v130.833c0.068 14.473-11.674 26.214-26.078 26.214z" />
<glyph unicode="&#xe606;" d="M512 789.333c-188.518 0-341.333-152.849-341.333-341.333 0-188.518 152.815-341.333 341.333-341.333 188.484 0 341.333 152.815 341.333 341.333 0 188.484-152.849 341.333-341.333 341.333zM512 182.511c-146.398 0-265.489 119.091-265.489 265.489s119.091 265.455 265.489 265.455 265.489-119.057 265.489-265.455-119.091-265.489-265.489-265.489zM386.867 439.501c-23.347 0-42.257-17.749-42.257-39.561s18.944-39.526 42.257-39.526c23.381 0 42.291 17.749 42.291 39.526 0 21.811-18.91 39.561-42.291 39.561zM386.867 381.542c-10.82 0-19.627 8.26-19.627 18.398 0 10.172 8.806 18.398 19.627 18.398 10.854 0 19.661-8.226 19.661-18.398 0-10.138-8.806-18.398-19.661-18.398zM631.535 439.501c-23.381 0-42.291-17.749-42.291-39.561s18.944-39.526 42.291-39.526c23.347 0 42.257 17.749 42.257 39.526 0 21.811-18.91 39.561-42.257 39.561zM631.535 381.542c-10.854 0-19.661 8.26-19.661 18.398 0 10.172 8.806 18.398 19.661 18.398 10.82 0 19.661-8.226 19.661-18.398 0-10.138-8.841-18.398-19.661-18.398zM664.371 477.628c-26.18 9.796-41.847 12.083-49.391 12.493-1.57 0.068-2.765 0.102-3.618 0.068-1.604 0.307-3.447 1.024-4.745 2.697-4.642 5.461-11.844 17.135-23.484 29.662-27.204 29.286-25.020 24.713-33.894 29.15-1.707 0.887-10.65 5.222-28.945 8.226-0.478 0.068-16.657 3.857-45.022 4.54-16.213 0.58-49.562 1.161-75.537-0.205-5.154-0.273-5.427-4.301-5.427-4.301-0.512-4.847-5.53-7.885-5.53-7.885-63.59-43.179-68.813-95.437-68.813-95.437s-16.521-24.576-16.521-37.205c0.034-25.975 11.264-30.618 11.264-30.618h19.319c-0.819 3.584-1.297 7.339-1.297 11.127 0 28.638 24.883 51.917 55.501 51.917 30.583 0 55.501-23.279 55.501-51.917 0-3.789-0.444-7.543-1.297-11.127h136.226c-0.819 3.584-1.297 7.339-1.297 11.127 0 28.638 24.883 51.917 55.501 51.917s55.501-23.279 55.501-51.917c0-3.789-0.444-7.543-1.297-11.127h11.878c0 0 13.687 0.273 13.687 18.33 0.034 28.092-9.079 55.808-48.265 70.485zM451.925 496.981c0 0-0.922-6.588-9.25-6.588h-40.141c-5.666 0.307-18.33 4.71-22.050 12.937-3.891 8.738 19.251 30.583 20.924 31.846 1.468 1.092 2.97 2.116 4.403 3.174 1.604 1.058 3.311 1.98 4.983 2.799l-0.034 0.068c11.913 4.676 19.9 7.714 33.417 7.919 0.887-0.034 7.782-0.614 7.782-8.226v-43.93zM576.307 490.359h-106.906v58.231c16.623-0.683 28.843-0.614 38.332-1.502 4.71-0.375 8.567-0.717 10.752-1.126 6.007-0.922 10.718-2.082 14.336-3.106 0.137-0.068 11.196-4.335 18.876-10.684 8.192-6.622 15.906-16.828 27.273-33.007 6.281-9.011-0.273-8.738-2.662-8.806z" />
<glyph unicode="&#xe607;" d="M259.345 399.462c-48.674 0-88.166-36.932-88.166-82.466s39.492-82.432 88.166-82.432c48.742 0 88.166 36.898 88.166 82.432s-39.458 82.466-88.166 82.466zM259.345 278.665c-22.596 0-40.96 17.169-40.96 38.332 0 21.197 18.364 38.332 40.96 38.332 22.63 0 40.994-17.135 40.994-38.332 0-21.163-18.364-38.332-40.994-38.332zM769.502 399.462c-48.742 0-88.166-36.932-88.166-82.466s39.424-82.432 88.166-82.432c48.674 0 88.166 36.898 88.166 82.432s-39.492 82.466-88.166 82.466zM769.502 278.665c-22.63 0-40.994 17.169-40.994 38.332 0 21.197 18.364 38.332 40.994 38.332s40.96-17.135 40.96-38.332c0-21.163-18.33-38.332-40.96-38.332zM838.007 479.027c-54.613 20.412-87.313 25.156-103.049 26.044-3.243 0.205-5.769 0.205-7.578 0.171-3.379 0.614-7.134 2.15-9.865 5.598-9.626 11.401-24.713 35.703-48.981 61.85-56.73 61.099-52.156 51.575-70.656 60.791-3.584 1.877-22.255 10.889-60.382 17.169-0.922 0.137-34.748 8.055-93.867 9.489-33.86 1.126-103.322 2.423-157.491-0.444-10.752-0.546-11.298-8.977-11.298-8.977-1.058-10.103-11.537-16.521-11.537-16.521-132.676-89.975-143.531-198.963-143.531-198.963s-34.441-51.234-34.441-77.585c0.102-54.135 23.484-63.863 23.484-63.863h40.414c-1.775 7.509-2.731 15.258-2.731 23.245 0 59.665 51.917 108.237 115.746 108.237s115.746-48.572 115.746-108.237c0-7.953-0.956-15.735-2.731-23.245h284.126c-1.741 7.509-2.697 15.258-2.697 23.245 0 59.665 51.917 108.237 115.712 108.237s115.746-48.572 115.746-108.237c0-7.953-0.956-15.735-2.697-23.245h24.678c0 0 28.57 0.58 28.57 38.263-0.034 58.47-19.012 116.395-100.693 146.978zM394.923 519.305c0 0-1.911-13.756-19.183-13.756h-83.661c-11.844 0.546-38.195 9.728-46.012 26.965-8.192 18.159 40.107 63.693 43.622 66.355 3.072 2.253 6.178 4.471 9.182 6.588 3.413 2.219 6.861 4.13 10.377 5.837l-0.068 0.137c24.849 9.762 41.506 16.077 69.666 16.555 1.877-0.068 16.111-1.229 16.111-17.169v-91.511zM654.336 505.583h-222.891v121.446c34.645-1.399 60.143-1.331 79.94-3.174 9.796-0.751 17.818-1.536 22.494-2.287 12.39-2.048 22.289-4.403 29.833-6.554 0.239-0.102 23.381-9.011 39.322-22.323 17.033-13.79 33.178-35.089 56.866-68.813 13.175-18.739-0.546-18.227-5.564-18.295z" />
<glyph unicode="&#xe608;" d="M555.145 443.529h-10.479c34.406 24.917 59.221 45.602 59.221 84.105 0 48.777-39.526 88.815-88.201 88.815-48.777 0-88.303-40.346-88.303-89.088 0-38.502 24.849-58.914 59.255-83.831h-10.513c-43.725 0-113.664-32.87-113.664-76.629v-47.957h299.179v47.957c-0.034 43.759-62.839 76.629-106.496 76.629zM512 789.333c-188.553 0-341.402-152.849-341.402-341.333 0-188.518 152.849-341.333 341.402-341.333 188.518 0 341.402 152.815 341.402 341.333 0 188.484-152.883 341.333-341.402 341.333zM512 182.545c-146.398 0-265.523 119.057-265.523 265.455 0 146.364 119.125 265.455 265.523 265.455s265.523-119.091 265.523-265.455c0-146.398-119.125-265.455-265.523-265.455z" />
<glyph unicode="&#xe609;" d="M889.617 186.266c0 108.476-154.761 189.918-262.315 189.918h-25.839c84.719 61.747 145.954 113.050 145.954 208.452 0 120.866-97.417 220.092-217.463 220.092-120.218 0-217.6-100.011-217.6-220.843 0-95.403 61.201-145.954 146.022-207.701h-25.907c-107.793 0-280.132-81.476-280.132-189.918v-118.921h737.28v118.921z" />
<glyph unicode="&#xe60a;" d="M851.593 212.48c0 98.987-143.394 177.493-242.415 177.493h-23.859c78.541 58.027 136.533 105.813 136.533 194.56 0 112.64-88.815 204.8-201.387 204.8-112.606 0-201.387-92.16-201.387-204.8 0-88.781 58.027-136.533 136.533-191.181h-23.893c-98.987 0-259.413-75.093-259.413-177.493v-109.193l679.356 1.126-0.068 104.687z" />
<glyph unicode="&#xe60b;" d="M512 789.333c-188.484 0-341.333-152.781-341.333-341.333 0-188.45 152.849-341.333 341.333-341.333s341.333 152.883 341.333 341.333c0 188.553-152.849 341.333-341.333 341.333zM512 182.545c-146.364 0-265.455 119.057-265.455 265.455s119.091 265.489 265.455 265.489c146.398 0 265.489-119.091 265.489-265.489s-119.091-265.455-265.489-265.455zM500.122 311.33h0.41c15.735 0.171 28.467 7.407 28.467 17.783h-57.31c0-10.377 12.698-17.613 28.433-17.783zM646.315 465.169c0 0.034-0.034 0.068-0.034 0.102-6.929-1.843-14.063-3.072-21.538-3.072-1.843 0-3.584 0.444-5.393 0.546 1.024-4.233 2.014-8.465 2.56-12.834l1.604-11.776h19.319c3.174 0 5.905-2.799 5.905-6.076s-2.731-6.042-5.905-6.042h-293.956c-3.174 0-5.871 2.765-5.871 6.042s2.697 6.076 5.871 6.076h19.319l1.604 11.776c6.007 45.056 34.475 83.149 74.308 101.239v-23.006c0-7.475 6.007-13.653 13.312-13.653s13.312 6.212 13.312 13.653v32.188l0.102 15.838c7.134 5.734 15.804 8.841 25.054 8.841 9.114 0 17.783-3.106 24.883-8.704v-47.855c0-7.475 6.042-13.619 13.312-13.619 4.096 0 7.612 2.048 10.069 5.018-3.072 8.806-5.052 18.125-5.052 27.989 0 13.107 3.174 25.395 8.431 36.454v3.652l-3.891 3.925c-12.766 13.21-29.73 20.412-47.753 20.412-18.125 0-35.055-7.202-47.821-20.412l-3.891-3.925v-7.339c-50.244-18.295-87.654-62.054-98.782-115.439-16.247-1.843-28.979-15.974-28.979-33.109 0-18.295 14.541-33.28 32.461-33.28h13.892l0.068-0.068c1.263-74.206 60.314-133.939 132.983-133.939 72.772 0 131.857 59.733 133.018 134.007h13.995c17.886 0 32.427 14.95 32.427 33.28 0 17.135-12.732 31.3-28.945 33.109zM495.821 292.079c-50.62 0-93.15 36.454-103.834 85.060 12.698 5.564 25.634 10.103 38.81 13.517-0.956-2.389-1.434-4.915-1.434-7.646 0-11.298 8.909-20.412 19.9-20.412 11.059 0 20.002 9.114 20.002 20.412 0 5.427-2.048 10.308-5.427 13.926 9.079 1.195 18.261 1.673 27.375 1.877h9.523c9.114-0.137 18.159-0.683 27.238-1.809-3.379-3.686-5.53-8.533-5.53-13.995 0-11.298 8.943-20.412 19.968-20.412s19.968 9.114 19.968 20.412c0 2.731-0.512 5.325-1.502 7.714 13.21-3.379 26.146-7.885 38.878-13.449-10.684-48.742-53.214-85.197-103.936-85.197zM625.118 620.851c-40.585 0-73.455-32.87-73.455-73.455 0-40.55 32.87-73.421 73.455-73.421s73.455 32.87 73.455 73.421c0.034 40.619-32.836 73.455-73.455 73.455zM625.118 490.257c-31.505 0-57.139 25.634-57.139 57.139 0 31.539 25.634 57.173 57.139 57.173 31.539 0 57.139-25.634 57.139-57.173 0-31.505-25.6-57.139-57.139-57.139zM629.282 527.155c-4.54 0-8.738 1.365-11.605 4.642-1.399 1.468-2.389 3.55-3.038 6.246h22.699v6.349h-23.927v1.468c0 0.819 0 1.877 0.068 2.697h23.859v6.417h-22.528c0.614 2.321 1.673 4.403 2.935 5.803 2.799 3.413 6.758 4.813 11.093 4.813 3.959 0 7.646-1.092 10.035-2.116l2.56 10.172c-3.311 1.434-8.090 2.697-13.551 2.697-8.533 0-15.735-3.379-20.89-9.114-2.97-3.379-5.086-7.441-6.246-12.254h-6.076v-6.417h5.052c0-0.819-0.137-1.775-0.137-2.628v-1.536h-4.949v-6.349h5.837c0.819-4.779 2.662-8.602 5.086-11.605 5.052-6.656 13.175-10.24 22.050-10.24 5.803 0 10.957 1.707 14.097 3.413l-2.15 9.933c-1.877-1.024-6.076-2.389-10.274-2.389z" />
<glyph unicode="&#xe60c;" d="M497.835 195.925h0.819c30.174 0.239 54.477 14.097 54.477 33.997h-109.773c0-19.9 24.337-33.758 54.477-33.997zM778.103 490.769c0 0.068-0.034 0.137-0.068 0.205-13.278-3.482-26.965-5.871-41.301-5.871-3.55 0-6.827 0.819-10.342 1.058 1.946-8.124 3.823-16.282 4.949-24.644l3.004-22.562h37.103c6.11 0 11.332-5.359 11.332-11.571 0-6.281-5.222-11.537-11.332-11.537h-563.575c-6.11 0-11.264 5.257-11.264 11.537 0 6.246 5.154 11.571 11.264 11.571h37.069l3.038 22.562c11.469 86.391 66.082 159.403 142.473 194.116v-44.134c0-14.336 11.537-26.112 25.498-26.112 13.995 0 25.532 11.776 25.532 26.112v61.679l0.205 30.447c13.619 10.991 30.31 16.93 47.991 16.93 17.476 0 34.133-5.939 47.753-16.691v-91.716c0-14.302 11.503-26.146 25.532-26.146 7.817 0 14.575 3.857 19.251 9.626-5.939 16.93-9.728 34.782-9.728 53.692 0 25.088 6.11 48.64 16.213 69.939v6.895l-7.475 7.509c-24.439 25.327-56.934 39.151-91.546 39.151-34.714 0-67.209-13.858-91.682-39.151l-7.509-7.509v-14.097c-96.29-35.089-168.038-118.955-189.372-221.321-31.164-3.482-55.535-30.583-55.535-63.386 0-35.123 27.921-63.761 62.259-63.761h26.624l0.171-0.137c2.458-142.268 115.644-256.785 254.942-256.785 139.503 0 252.757 114.517 255.044 256.922h26.795c34.304 0 62.225 28.638 62.225 63.761 0.034 32.836-24.405 60.041-55.535 63.42zM489.574 158.993c-97.041 0-178.551 69.837-199.066 163.021 24.337 10.65 49.152 19.354 74.445 25.873-1.843-4.676-2.799-9.387-2.799-14.643 0-21.641 17.135-39.117 38.195-39.117 21.129 0 38.332 17.476 38.332 39.117 0 10.411-3.925 19.763-10.411 26.726 17.408 2.287 34.987 3.209 52.497 3.584h18.295c17.476-0.273 34.816-1.297 52.156-3.482-6.417-7.1-10.547-16.418-10.547-26.863 0-21.641 17.067-39.117 38.332-39.117 21.094 0 38.229 17.476 38.229 39.117 0 5.222-0.956 10.24-2.867 14.78 25.327-6.383 50.142-15.087 74.445-25.737-20.446-93.423-101.956-163.26-199.236-163.26zM737.519 789.333c-77.824 0-140.834-63.078-140.834-140.834 0-77.79 63.010-140.868 140.834-140.868 77.756 0 140.834 63.078 140.834 140.868 0 77.756-63.044 140.834-140.834 140.834zM737.519 538.931c-60.416 0-109.568 49.152-109.568 109.568 0 60.382 49.152 109.534 109.568 109.534 60.382 0 109.534-49.152 109.534-109.534 0-60.416-49.152-109.568-109.534-109.568zM745.506 609.69c-8.704 0-16.794 2.628-22.357 8.806-2.628 2.867-4.574 6.827-5.734 12.015h43.52v12.117h-45.943v2.765c0 1.707 0 3.652 0.102 5.291h45.841v12.186h-43.247c1.229 4.403 3.209 8.431 5.632 11.162 5.359 6.519 13.005 9.182 21.265 9.182 7.646 0 14.746-2.082 19.217-4.062l4.915 19.524c-6.281 2.731-15.531 5.154-26.044 5.154-16.316 0-30.106-6.417-40.038-17.442-5.598-6.417-9.694-14.234-11.981-23.484h-11.571v-12.186h9.694c0-1.638-0.273-3.447-0.273-5.12v-2.935h-9.421v-12.117h11.196c1.536-9.148 5.086-16.486 9.694-22.289 9.762-12.732 25.259-19.593 42.291-19.593 11.162 0 21.094 3.243 27.102 6.519l-4.13 19.046c-3.618-1.911-11.742-4.54-19.729-4.54z" />
<glyph unicode="&#xe60d;" d="M579.106 274.842c-18.466-21.436-43.281-39.595-73.079-52.668l-180.326-82.773 1.911 2.458c9.489 12.39 12.766 28.945 8.636 44.032-4.164 15.189-15.326 27.75-29.867 33.553-72.226 29.082-117.077 86.255-117.077 149.47 0 54.647 33.485 103.117 85.060 133.837-3.686 10.581-6.554 21.367-8.67 32.358-65.57-35.977-108.715-96.939-108.715-166.229 0-78.882 56.047-146.807 137.284-179.405 5.291-2.116 9.25-6.588 10.786-12.117 1.502-5.461 0.341-11.366-3.14-15.906l-36.523-47.582c-5.052-6.588-4.983-15.872 0.205-22.391 5.222-6.519 14.234-8.738 21.845-5.188l231.595 106.325c36.762 16.077 67.823 39.731 90.351 68.267l-30.276 13.961zM706.765 368.469c94.857 38.093 160.222 117.35 160.222 209.34 0 129.024-128.375 233.54-286.618 233.54-158.31 0-286.618-104.516-286.618-233.54 0-88.917 61.065-166.263 150.801-205.722l270.268-124.006c8.875-4.028 19.354-1.536 25.463 6.076 6.11 7.646 6.212 18.432 0.239 26.18l-42.633 55.501c-4.062 5.325-5.359 12.117-3.618 18.603 1.707 6.349 6.349 11.571 12.493 14.029zM451.174 537.498c-22.323 0-40.414 17.988-40.414 40.311 0 22.357 18.057 40.38 40.414 40.38 22.255 0 40.38-18.022 40.38-40.38-0.034-22.323-18.125-40.311-40.38-40.311zM580.369 537.498c-22.323 0-40.448 17.988-40.448 40.311 0 22.357 18.091 40.38 40.448 40.38 22.255 0 40.38-18.022 40.38-40.38 0-22.323-18.125-40.311-40.38-40.311zM669.15 577.809c0 22.357 18.057 40.38 40.414 40.38 22.255 0 40.346-18.022 40.346-40.38 0-22.289-18.057-40.311-40.346-40.311-22.323 0-40.414 17.988-40.414 40.311z" />
<glyph unicode="&#xe60e;" d="M596.719 776.67h-169.472zM297.643 776.67h-73.079c-29.798 0-53.897-24.166-53.897-53.897v-549.649c0-29.73 24.098-53.794 53.897-53.794h574.908c29.798 0 53.862 24.064 53.862 53.794v549.649c0 29.73-24.064 53.897-53.862 53.897h-73.079zM790.391 600.713v-403.797c0-12.561-10.206-22.767-22.801-22.767h-511.113c-12.698 0-22.903 10.206-22.903 22.767v403.797zM315.392 518.281h68.267v-68.267h-68.267v68.267zM417.792 518.281h68.267v-68.267h-68.267v68.267zM520.192 518.281h68.267v-68.267h-68.267v68.267zM622.592 518.281h68.267v-68.267h-68.267v68.267zM315.392 415.881h68.267v-68.267h-68.267v68.267zM417.792 415.881h68.267v-68.267h-68.267v68.267zM520.192 415.881h68.267v-68.267h-68.267v68.267zM622.592 415.881h68.267v-68.267h-68.267v68.267zM315.392 313.481h68.267v-68.267h-68.267v68.267zM417.792 313.481h68.267v-68.267h-68.267v68.267zM520.192 313.481h68.267v-68.267h-68.267v68.267z" />
<glyph unicode="&#xe60f;" d="M512 789.333c-188.518 0-341.333-152.815-341.333-341.333 0-188.484 152.815-341.333 341.333-341.333 188.484 0 341.333 152.849 341.333 341.333 0 188.518-152.849 341.333-341.333 341.333zM512 182.545c-146.398 0-265.489 119.091-265.489 265.455 0 146.398 119.091 265.489 265.489 265.489 146.364 0 265.421-119.091 265.421-265.489 0-146.364-119.057-265.455-265.421-265.455zM455.851 517.393h37.444c5.154 0 9.353 4.198 9.353 9.353 0 5.12-4.198 9.284-9.353 9.284h-37.444c-5.188 0-9.353-4.164-9.353-9.284 0-5.154 4.164-9.353 9.353-9.353zM568.183 377.549h-112.333c-5.188 0-9.353-4.164-9.353-9.318s4.164-9.318 9.353-9.318h112.333c5.154 0 9.318 4.164 9.318 9.318s-4.164 9.318-9.318 9.318zM420.045 601.361c-16.418 0-29.73-13.38-29.73-29.867v-238.763c0-16.452 13.312-29.798 29.73-29.798h183.91c16.384 0 29.662 13.346 29.662 29.798v175.377l-92.877 93.252h-120.695zM574.498 498.756h40.482v-167.117c0-5.564-4.574-10.069-10.138-10.069h-185.685c-5.564 0-10.103 4.506-10.103 10.069v241.050c0 5.53 4.54 10.035 10.103 10.035h111.548v-40.175c0-25.156 18.739-43.793 43.793-43.793zM446.498 461.483c0-5.154 4.164-9.318 9.353-9.318h112.333c5.154 0 9.318 4.164 9.318 9.318s-4.164 9.284-9.318 9.284h-112.333c-5.188 0-9.353-4.13-9.353-9.284zM568.183 424.175h-112.333c-5.188 0-9.353-4.164-9.353-9.318 0-5.12 4.164-9.284 9.353-9.284h112.333c5.154 0 9.318 4.164 9.318 9.284 0 5.154-4.164 9.318-9.318 9.318z" />
<glyph unicode="&#xe610;" d="M389.769 600.781h85.641c11.81 0 21.402 9.523 21.402 21.333 0 11.776-9.591 21.333-21.402 21.333h-85.641c-11.844 0-21.402-9.557-21.402-21.333 0-11.81 9.557-21.333 21.402-21.333zM646.656 387.482h-256.887c-11.844 0-21.402-9.557-21.402-21.333 0-11.81 9.557-21.333 21.402-21.333h256.887c11.844 0 21.402 9.523 21.402 21.333 0 11.742-9.557 21.333-21.402 21.333zM646.656 280.815h-256.887c-11.844 0-21.402-9.557-21.402-21.333 0-11.81 9.557-21.333 21.402-21.333h256.887c11.844 0 21.402 9.523 21.402 21.333 0 11.742-9.557 21.333-21.402 21.333zM389.769 494.114c-11.844 0-21.402-9.557-21.402-21.333 0-11.81 9.557-21.333 21.402-21.333h256.887c11.844 0 21.402 9.523 21.402 21.333 0 11.776-9.557 21.333-21.402 21.333h-256.887zM584.055 792.781h-276.139c-37.581 0-67.994-30.549-67.994-68.267v-546.133c0-37.717 30.413-68.267 67.994-68.267h420.625c37.547 0 67.959 30.549 67.959 68.267v401.067l-212.446 213.333zM753.698 175.753c0-12.698-10.377-22.972-23.108-22.972h-424.721c-12.766 0-23.142 10.274-23.142 22.972v551.39c0 12.663 10.377 22.972 23.142 22.972h255.147v-91.887c0-57.446 42.871-100.113 100.215-100.113h92.501v-382.362z" />
<glyph unicode="&#xe611;" d="M696.32 577.707h-126.293v75.093c0 27.307 20.48 34.133 34.133 34.133h88.747v129.707h-122.88c-136.533 0-167.253-95.573-167.253-153.6v-85.333h-75.093v-129.707h78.507v-368.64h163.84v368.64h112.64l13.653 129.707z" />
<glyph unicode="&#xe612;" d="M618.462 128.649h-106.598v215.381c46.524 4.779 90.146 23.859 124.211 56.798 80.35 77.756 85.845 276.685 9.83 360.789l-6.383 7.066h-22.289l-32.836-65.468c-3.516-7.066-3.379-15.462 0.375-22.323l40.755-75.059c5.188-9.489 3.345-21.436-4.403-28.809l-120.525-113.903 77.483 108.578c6.485 9.114 5.769 21.709-1.707 29.935l-72.465 79.77c-5.154 5.7-7.236 13.619-5.564 21.265l14.507 66.048h-171.383l-6.383-7.1c-75.913-84.105-70.451-283.068 9.933-360.789 34.031-32.939 77.585-52.019 124.143-56.798v-215.381h-106.598c-11.81 0-21.333-9.557-21.333-21.333 0-11.81 9.557-21.299 21.333-21.299h255.863c11.776 0 21.333 9.489 21.333 21.299 0.034 11.742-9.523 21.333-21.299 21.333z" />
<glyph unicode="&#xe613;" d="M512 789.333c-188.484 0-341.333-152.781-341.333-341.333 0-188.45 152.849-341.333 341.333-341.333s341.333 152.883 341.333 341.333c0 188.553-152.849 341.333-341.333 341.333zM512 182.545c-146.364 0-265.455 119.057-265.455 265.455s119.091 265.489 265.455 265.489c146.398 0 265.489-119.091 265.489-265.489s-119.091-265.455-265.489-265.455zM590.746 408.030c44.988 43.52 48.060 155.034 5.461 202.172l-3.55 3.925h-12.493l-18.398-36.693c-1.98-3.925-1.911-8.636 0.239-12.493l22.801-42.052c2.935-5.291 1.877-12.015-2.458-16.145l-67.55-63.829 43.383 60.826c3.652 5.12 3.277 12.186-0.922 16.794l-40.585 44.681c-2.901 3.209-4.062 7.68-3.14 11.947l8.124 37.001h-96.017l-3.55-3.925c-42.564-47.138-39.492-158.618 5.53-202.172 19.081-18.432 43.486-29.15 69.598-31.846v-120.695h-59.733c-6.622 0-11.947-5.325-11.947-11.947s5.325-11.947 11.947-11.947h143.36c6.554 0 11.947 5.291 11.947 11.947 0 6.588-5.359 11.947-11.947 11.947h-59.733v120.695c26.078 2.662 50.517 13.38 69.632 31.812z" />
<glyph unicode="&#xe614;" d="M462.268 106.667c-19.422 0-37.854 10.65-49.801 29.013l-164.83 252.791c-21.197 32.529-16.077 79.223 11.435 104.277 27.511 25.088 67.004 19.046 88.235-13.483l107.827-165.41 217.054 438.647c17.545 35.465 56.081 47.377 86.050 26.658 29.969-20.753 40.073-66.287 22.528-101.751l-264.192-533.914c-10.581-21.367-29.423-35.089-50.313-36.659-1.297-0.102-2.628-0.171-3.994-0.171z" />
<glyph unicode="&#xe615;" d="M621.227 541.696h-226.987c-7.475 0-13.517-6.076-13.517-13.551v-126.327c0-7.509 6.076-13.551 13.517-13.551h226.987c7.475 0 13.517 6.076 13.517 13.551v126.327c0 7.475-6.042 13.551-13.517 13.551zM616.721 406.255h-218.010v117.385h218.010v-117.385zM462.609 376.081h90.317v-18.057h-90.317v18.057zM351.061 541.73h-22.733c-7.475 0-13.551-6.076-13.551-13.585v-156.57c0-7.509 6.11-13.551 13.551-13.551h22.733c7.509 0 13.517 6.076 13.517 13.551v156.57c0.034 7.475-6.007 13.585-13.517 13.585zM339.695 379.529c-6.929 0-12.561 5.666-12.561 12.595 0 6.895 5.632 12.561 12.561 12.561 6.963 0 12.595-5.666 12.595-12.561 0-6.929-5.632-12.595-12.595-12.595zM687.138 541.73h-22.733c-7.475 0-13.551-6.076-13.551-13.585v-156.57c0-7.509 6.11-13.551 13.551-13.551h22.733c7.475 0 13.517 6.076 13.517 13.551v156.57c0 7.475-6.042 13.585-13.517 13.585zM675.772 379.529c-6.929 0-12.595 5.666-12.595 12.595 0 6.895 5.666 12.561 12.595 12.561 6.963 0 12.595-5.666 12.595-12.561 0-6.929-5.632-12.595-12.595-12.595zM512 789.333c-188.518 0-341.333-152.849-341.333-341.333 0-188.518 152.815-341.333 341.333-341.333 188.45 0 341.333 152.815 341.333 341.333 0 188.484-152.883 341.333-341.333 341.333zM512 182.545c-146.398 0-265.489 119.057-265.489 265.455 0 146.364 119.091 265.455 265.489 265.455s265.455-119.091 265.455-265.455c0-146.398-119.057-265.455-265.455-265.455z" />
<glyph unicode="&#xe616;" d="M713.387 610.133h-399.36c-13.653 0-23.893-10.24-23.893-23.893v-221.867c0-13.653 10.24-23.893 23.893-23.893h402.773c13.653 0 23.893 10.24 23.893 23.893v221.867c-3.379 13.653-13.653 23.893-27.307 23.893zM706.56 371.2h-385.707v208.213h385.707v-208.213zM433.493 316.553h160.427v-30.686h-160.427v30.686zM235.52 610.133h-40.96c-13.653 0-23.893-10.24-23.893-23.893v-276.48c0-13.653 10.24-23.893 23.893-23.893h40.96c13.653 0 23.893 10.24 23.893 23.893v276.48c0 13.653-10.24 23.893-23.893 23.893zM215.040 323.413c-13.653 0-23.893 10.24-23.893 23.893s10.24 23.893 23.893 23.893 23.893-10.24 23.893-23.893-10.24-23.893-23.893-23.893zM829.44 610.133h-40.926c-13.653 0-23.893-10.24-23.893-23.893v-276.48c0-13.653 10.24-23.893 23.893-23.893h40.926c13.653 0 23.893 10.24 23.893 23.893v276.48c0 13.653-10.24 23.893-23.893 23.893zM808.96 323.413c-13.653 0-23.893 10.24-23.893 23.893s10.24 23.893 23.893 23.893 23.893-10.24 23.893-23.893-10.206-23.893-23.893-23.893z" />
<glyph unicode="&#xe617;" d="M602.317 550.366c0 10.103-8.226 18.33-18.33 18.33-10.138 0-18.295-8.226-18.295-18.33v-76.971h-6.451v111.957c0 10.103-8.226 18.33-18.33 18.33-10.138 0-18.295-8.226-18.295-18.33v-111.957h-6.485v127.454c0 10.103-8.226 18.33-18.33 18.33s-18.295-8.226-18.295-18.33v-127.454h-6.451v93.628c0 10.138-8.192 18.33-18.33 18.33-10.103 0-18.295-8.192-18.295-18.33v-114.278l-13.244 22.050c-5.871 9.796-18.569 13.005-28.331 7.134-9.796-5.871-12.971-18.534-7.1-28.331l48.674-81.203v-0.58c0-41.097 37.137-79.36 82.978-79.36l2.219 0.034c-3.721 3.584-6.827 7.782-9.079 12.39l-0.171 0.273-49.084 31.846c-5.905 3.823-7.578 11.742-3.755 17.647 3.857 5.905 11.776 7.612 17.715 3.755l13.312-8.67-1.946 3.925-0.034 0.137-0.068 0.068-29.047 59.221c-2.697 5.598-0.41 12.356 5.188 15.087 5.632 2.765 12.39 0.444 15.155-5.154l25.361-51.917 3.584 1.809-34.577 70.622c-2.765 5.598-0.478 12.39 5.12 15.121 5.598 2.765 12.39 0.41 15.155-5.188l34.611-70.622 3.55 1.775-30.413 62.020c-2.731 5.598-0.444 12.356 5.188 15.121 5.598 2.731 12.356 0.444 15.121-5.154l30.379-62.054 3.584 1.741-20.89 42.633c-2.765 5.632-0.444 12.39 5.188 15.155 5.598 2.765 12.356 0.41 15.087-5.188l24.474-49.971 0.137-0.205c0 0 13.312-27.238 20.105-41.028 1.092 4.779 1.673 9.421 1.673 14.131v178.551zM512 789.333c-188.518 0-341.333-152.849-341.333-341.333 0-188.518 152.815-341.333 341.333-341.333 188.484 0 341.333 152.815 341.333 341.333 0 188.484-152.849 341.333-341.333 341.333zM512 182.511c-146.398 0-265.489 119.091-265.489 265.489 0 146.364 119.091 265.455 265.489 265.455s265.489-119.091 265.489-265.455c0-146.398-119.091-265.489-265.489-265.489z" />
<glyph unicode="&#xe618;" d="M739.328 645.564c0 21.129-17.203 38.298-38.332 38.298s-38.263-17.169-38.263-38.298v-160.802h-13.517v233.916c0 21.129-17.169 38.263-38.298 38.263s-38.263-17.135-38.263-38.263v-233.916h-13.517v266.308c0.034 21.129-17.135 38.263-38.263 38.263s-38.229-17.135-38.229-38.263v-266.308h-13.585v195.618c0 21.129-17.101 38.298-38.263 38.298s-38.263-17.169-38.263-38.298v-238.831l-27.648 46.114c-12.254 20.48-38.775 27.136-59.221 14.882s-27.102-38.741-14.848-59.153l101.717-169.779v-1.126c0-85.914 77.619-165.82 173.397-165.82l4.642 0.068c-7.782 7.509-14.302 16.179-18.978 25.907l-0.375 0.546-102.434 66.526c-12.322 8.021-15.838 24.542-7.851 36.864 8.021 12.322 24.508 15.872 36.898 7.817l27.819-18.057-4.028 8.158-0.102 0.239-0.102 0.205-60.621 123.733c-5.7 11.776-0.887 25.907 10.82 31.642 11.742 5.734 25.907 0.853 31.642-10.82l53.077-108.373 7.509 3.618-72.294 147.558c-5.7 11.742-0.887 25.907 10.82 31.607 11.708 5.769 25.873 0.887 31.642-10.82l72.26-147.558 7.509 3.686-63.488 129.57c-5.734 11.708-0.887 25.839 10.82 31.607 11.674 5.734 25.805 0.887 31.539-10.82l63.488-129.638 7.475 3.652-43.622 89.088c-5.734 11.708-0.853 25.873 10.82 31.607 11.708 5.769 25.907 0.922 31.642-10.82l51.132-104.448 0.137-0.205 0.068-0.239c0 0 27.853-56.9 41.984-85.675 2.253 9.899 3.55 19.729 3.55 29.491v183.842l-0.068 0.375 0.068 0.41v188.553z" />
<glyph unicode="&#xe619;" d="M351.949 496.026c14.473-51.678 42.462-99.294 80.964-137.83 38.468-38.468 86.118-66.458 137.83-80.93 7.851-2.253 16.009-3.345 24.132-3.345 32.597 0 62.601 17.749 78.268 46.319l5.666 10.342c0.853 1.604 0.99 3.482 0.41 5.188-0.614 1.673-1.946 3.072-3.584 3.721l-117.794 48.572c-0.785 0.307-1.604 0.512-2.458 0.512-0.922 0-1.809-0.205-2.662-0.649-1.604-0.751-2.867-2.15-3.413-3.823l-8.738-28.126c-23.415 12.049-44.715 27.648-63.42 46.387-18.773 18.739-34.338 40.038-46.387 63.42l28.092 8.772c1.707 0.546 3.106 1.741 3.891 3.379 0.751 1.604 0.785 3.516 0.102 5.12l-48.572 117.828c-0.683 1.673-2.048 2.97-3.755 3.55-0.683 0.239-1.399 0.341-2.116 0.341-1.058 0-2.116-0.239-3.038-0.751l-10.342-5.632c-36.659-20.002-54.374-62.123-43.076-102.366zM594.057 280.337c2.082-0.068 4.062 0 6.076 0.137-1.741-0.137-3.482-0.205-5.257-0.205-0.273 0-0.546 0.068-0.819 0.068zM410.897 392.806c8.124-10.513 16.964-20.548 26.487-30.071 9.557-9.591 19.627-18.398 30.106-26.522-10.479 8.124-20.548 16.93-30.106 26.522-9.523 9.523-18.364 19.558-26.487 30.071zM408.337 598.494l-10.342-5.666c-6.315-3.482-12.049-7.68-17.135-12.459 5.086 4.813 10.82 9.011 17.135 12.459l10.342 5.666zM379.324 442.914c5.905-11.742 12.527-23.074 19.934-33.997-7.407 10.923-14.029 22.255-19.934 33.997zM512 789.333c-188.518 0-341.333-152.849-341.333-341.333s152.815-341.333 341.333-341.333c188.45 0 341.333 152.849 341.333 341.333s-152.883 341.333-341.333 341.333zM512 182.545c-146.398 0-265.489 119.091-265.489 265.455s119.091 265.455 265.489 265.455 265.523-119.091 265.523-265.455-119.125-265.455-265.523-265.455z" />
<glyph unicode="&#xe61a;" d="M177.596 564.838c29.867-106.598 87.586-204.902 167.014-284.297 79.36-79.36 177.664-137.114 284.331-167.014 16.247-4.574 33.007-6.861 49.801-6.861 67.277 0 129.058 36.625 161.417 95.607l11.674 21.333c1.775 3.277 2.082 7.134 0.853 10.65-1.263 3.55-3.925 6.349-7.407 7.748l-243.063 100.181c-1.604 0.683-3.311 0.99-4.983 0.99-1.877 0-3.789-0.41-5.564-1.263-3.345-1.604-5.871-4.471-6.963-7.953l-18.091-57.958c-48.265 24.849-92.194 57.003-130.867 95.676s-70.793 82.637-95.642 130.867l57.958 18.091c3.516 1.058 6.417 3.584 7.919 6.963 1.604 3.345 1.707 7.168 0.307 10.581l-100.215 243.029c-1.468 3.413-4.267 6.11-7.748 7.407-1.434 0.444-2.901 0.717-4.369 0.717-2.219 0-4.369-0.546-6.349-1.638l-21.299-11.674c-75.503-41.335-111.991-128.171-88.713-211.183zM677.035 119.876c4.198-0.068 8.397 0 12.527 0.307-3.584-0.239-7.168-0.375-10.82-0.375-0.546 0-1.126 0.068-1.707 0.068zM299.145 351.949c16.759-21.675 35.021-42.394 54.75-62.089s40.414-37.956 62.089-54.716c-21.709 16.725-42.394 34.987-62.089 54.716s-37.99 40.414-54.75 62.089zM293.956 776.192l-21.333-11.674c-13.107-7.168-24.917-15.804-35.328-25.702 10.445 9.899 22.221 18.569 35.328 25.737l21.333 11.639zM234.086 455.236c12.117-24.166 25.873-47.582 41.097-70.144-15.223 22.562-28.979 45.978-41.097 70.144z" />
<glyph unicode="&#xe61b;" d="M853.333 430.933c0-188.513-152.82-341.333-341.333-341.333s-341.333 152.82-341.333 341.333c0 188.513 152.82 341.333 341.333 341.333s341.333-152.82 341.333-341.333zM593.92 526.507l-184.32-23.893v-40.96c40.96 0 58.027-6.827 61.44-10.24s6.827-6.827 6.827-13.653c0-6.827-3.413-23.893-10.24-51.2l-37.547-133.12c-6.827-20.48-13.653-64.853 40.96-64.853 27.307 0 95.573 13.653 112.64 37.547l-10.24 37.547c-17.067-13.653-78.507-20.48-68.267 6.827l88.747 256zM563.2 669.867c-27.307 0-51.2-23.893-51.2-51.2s23.893-51.2 51.2-51.2 51.2 20.48 51.2 51.2c0 27.307-23.893 51.2-51.2 51.2z" />
<glyph unicode="&#xe61c;" d="M600.269 216.747l16.043-54.443c-27.204-35.874-122.573-55.637-163.669-55.637-78.268 0-68.915 61.611-60.348 91.238l52.804 188.211c10.854 37.922 16.179 61.986 16.179 71.817 0 7.441-2.662 13.517-8.021 18.5-5.461 5.052-32.188 16.111-89.634 16.111v59.358l267.162 30.891-130.15-357.444c-14.95-39.595 76.117-27.136 99.635-8.602zM586.24 640.922c-40.994 0-74.24 33.178-74.24 74.206 0 40.994 33.246 74.206 74.24 74.206s74.206-33.212 74.206-74.206c0-41.028-33.212-74.206-74.206-74.206z" />
<glyph unicode="&#xe61d;" d="M512 789.265c-188.518 0-341.333-152.781-341.333-341.265 0-188.45 152.815-341.265 341.333-341.265s341.333 152.849 341.333 341.265c0 188.484-152.815 341.265-341.333 341.265zM512 182.579c-146.398 0-265.489 119.057-265.489 265.421s119.091 265.455 265.489 265.455 265.455-119.091 265.455-265.455-119.057-265.421-265.455-265.421zM650.069 330.24l-27.614 124.143c-1.161 5.393-6.007 9.25-11.537 9.25h-5.052l-13.107-17.749h13.449l24.951-112.299h-251.324l24.951 112.299h95.539l-13.107 17.749h-87.177c-5.53 0-10.342-3.857-11.537-9.25l-27.58-124.143c-0.785-3.55 0.068-7.202 2.321-10.001 2.219-2.799 5.632-4.403 9.216-4.403h266.069c3.584 0 6.963 1.604 9.216 4.403s3.106 6.451 2.321 10.001zM438.17 360.175c0 6.519-7.407 11.81-16.589 11.81-9.148 0-16.589-5.257-16.589-11.81s7.441-11.81 16.589-11.81c9.182 0 16.589 5.257 16.589 11.81zM449.775 355.635c-0.956 0-1.946 0.034-2.97 0.102-2.423 0.205-4.267 2.287-4.062 4.745 0.171 2.458 2.321 4.198 4.745 4.096 12.8-0.922 21.845 6.212 24.098 13.756 2.253 7.407 7.748 13.414 15.121 16.486 7.885 3.277 16.657 2.867 24.098-1.058 12.595-6.69 25.429-4.028 31.949 6.656 1.263 2.082 3.994 2.697 6.11 1.468 2.082-1.331 2.731-3.994 1.468-6.144-9.011-14.746-26.965-18.739-43.691-9.83-5.018 2.662-11.196 2.935-16.521 0.717-4.983-2.082-8.567-5.939-10.035-10.854-3.106-10.342-14.37-20.139-30.31-20.139zM472.644 537.498c0-16.418 5.359-31.573 14.438-43.861l59.46-80.452 59.46 80.452c9.079 12.288 14.438 27.443 14.438 43.861 0 40.823-33.075 73.899-73.899 73.899s-73.899-33.109-73.899-73.899zM546.543 575.932c21.231 0 38.468-17.203 38.468-38.434 0-21.197-17.237-38.4-38.468-38.4s-38.4 17.203-38.4 38.4c-0.034 21.231 17.169 38.434 38.4 38.434z" />
<glyph unicode="&#xe61e;" d="M845.926 139.913l-63.727 286.686c-2.731 12.493-13.858 21.402-26.658 21.402h-11.674l-30.31-40.926h31.061l57.617-259.413h-580.54l57.651 259.413h220.672l-30.276 40.926h-201.318c-12.8 0-23.893-8.909-26.658-21.402l-63.727-286.686c-1.809-8.090 0.171-16.555 5.359-23.006 5.154-6.451 13.005-10.24 21.299-10.24h614.571c8.294 0 16.145 3.789 21.333 10.24 5.154 6.417 7.134 14.882 5.325 23.006zM356.454 209.067c0 15.053-17.135 27.341-38.298 27.341s-38.332-12.254-38.332-27.341 17.169-27.307 38.332-27.307c21.163 0 38.298 12.254 38.298 27.307zM383.283 198.588c-2.253 0-4.506 0.068-6.827 0.273-5.632 0.41-9.865 5.325-9.455 10.957 0.444 5.666 5.427 9.694 10.991 9.421 29.594-2.185 50.449 14.268 55.706 31.744 5.12 17.135 17.852 31.061 34.918 38.127 18.159 7.612 38.434 6.656 55.637-2.458 29.116-15.462 58.778-9.284 73.83 15.326 2.935 4.847 9.25 6.383 14.063 3.447 4.847-2.97 6.383-9.25 3.413-14.097-20.753-33.963-62.225-43.349-100.898-22.767-11.605 6.178-25.839 6.793-38.127 1.673-11.537-4.779-19.763-13.687-23.177-25.088-7.202-23.859-33.246-46.558-70.076-46.558zM436.122 618.667c0-37.956 12.39-72.977 33.348-101.342l137.318-185.788 137.318 185.788c20.992 28.365 33.348 63.351 33.348 101.342 0 94.276-76.39 170.667-170.667 170.667s-170.667-76.39-170.667-170.667zM606.788 707.447c49.015 0 88.747-39.731 88.747-88.781 0-49.015-39.731-88.747-88.747-88.747s-88.747 39.731-88.747 88.747c0 49.050 39.765 88.781 88.747 88.781z" />
<glyph unicode="&#xe61f;" d="M672.529 499.678l-0.375 0.922 21.402 10.991c2.935 1.502 4.062 5.154 2.458 8.055l-8.567 15.394c-1.604 3.004-5.325 4.233-8.431 2.799l-17.783-8.158-2.458 6.417c-6.417 16.828-18.193 31.266-34.099 41.643-15.292 9.967-32.939 15.223-51.029 15.223h-126.020c-18.057 0-35.703-5.257-51.029-15.223-15.906-10.377-27.716-24.815-34.099-41.643l-2.014-5.291-15.428 7.031c-3.14 1.434-6.758 0.205-8.465-2.799l-8.567-15.394c-1.57-2.901-0.478-6.554 2.458-8.055l19.012-9.762-1.331-3.379c-40.209-16.657-43.315-88.951-26.453-140.902h0.205v-29.73c0-3.857 3.14-6.997 6.997-6.997h82.671c3.891 0 6.997 3.14 6.997 6.997v15.872c60.962-7.066 126.054-7.066 186.982 0v-15.872c0-3.857 3.14-6.997 6.997-6.997h82.671c3.891 0 7.031 3.14 7.031 6.997v29.73h0.068c17.271 53.316 13.551 128.102-29.798 142.131zM407.484 449.331c0-1.673-1.263-2.97-2.867-2.97h-55.945l-0.341 0.171h-0.137l-0.205 0.137-1.468 0.887-0.307 0.819-0.341 0.956 0.068 0.137-0.068 0.341c1.843 13.312 6.076 22.596 12.561 27.58l3.379 0.956c0 0 29.286 0.102 38.707-9.694 4.71-4.745 6.929-11.093 6.929-18.944l-0.068-0.205 0.102-0.171zM384.99 499.507l-1.638 0.41 9.318 24.678c8.090 21.333 30.959 36.011 54.852 36.011h126.020c23.859 0 46.797-14.677 54.784-36.011l9.557-25.088h-252.894zM680.004 449.331l-0.341-0.956-0.375-0.819-1.434-0.887-0.239-0.137h-0.034l-0.375-0.171h-55.979c-1.57 0-2.833 1.297-2.833 2.97l0.068 0.171-0.068 0.205c0 7.851 2.287 14.199 6.895 18.944 9.455 9.796 38.775 9.694 38.775 9.694l3.379-0.956c6.485-4.983 10.684-14.268 12.561-27.58l-0.068-0.341 0.068-0.137zM512 789.333c-188.484 0-341.333-152.815-341.333-341.333s152.849-341.333 341.333-341.333c188.518 0 341.333 152.815 341.333 341.333s-152.815 341.333-341.333 341.333zM512 182.545c-146.398 0-265.455 119.057-265.455 265.455s119.057 265.489 265.455 265.489 265.489-119.091 265.489-265.489-119.091-265.455-265.489-265.455z" />
<glyph unicode="&#xe620;" d="M786.125 521.114l-0.649 1.57 36.523 18.739c5.018 2.56 6.929 8.806 4.164 13.756l-14.643 26.249c-2.799 5.154-9.182 7.236-14.473 4.779l-30.413-13.858-4.164 10.923c-10.889 28.774-31.061 53.35-58.231 71.066-26.112 17.067-56.218 26.078-87.142 26.078h-215.108c-30.891 0-60.996-9.011-87.177-26.078-27.17-17.715-47.309-42.291-58.197-71.066l-3.447-9.045-26.317 11.981c-5.325 2.458-11.571 0.41-14.473-4.779l-14.575-26.249c-2.697-4.983-0.785-11.196 4.233-13.756l32.427-16.657-2.15-5.769c-68.642-28.433-73.967-151.893-45.193-240.538l0.341-0.068v-50.79c0-6.588 5.359-11.947 11.947-11.947h141.175c6.622 0 11.981 5.325 11.981 11.947v27.102c104.038-12.049 215.177-12.049 319.181 0.034v-27.136c0-6.588 5.325-11.947 11.981-11.947h141.175c6.622 0 11.947 5.325 11.947 11.947v50.825l0.137 0.034c29.423 90.999 23.074 218.658-50.859 242.654zM333.619 435.098c0-2.833-2.15-5.018-4.915-5.018h-95.505l-0.58 0.307h-0.205l-0.341 0.205-2.526 1.502-0.546 1.365-0.546 1.673 0.102 0.205-0.102 0.649c3.14 22.699 10.342 38.571 21.47 47.070l5.769 1.604c0 0 49.971 0.205 66.082-16.521 7.953-8.055 11.844-18.944 11.844-32.29l-0.137-0.478 0.137-0.273zM295.219 520.772l-2.833 0.717 15.974 42.155c13.824 36.386 52.907 61.474 93.696 61.474h215.108c40.755 0 79.906-25.054 93.628-61.474l16.282-42.871h-431.855zM798.822 435.098l-0.58-1.673-0.614-1.365-2.423-1.502-0.444-0.205h-0.068l-0.683-0.307h-95.539c-2.697 0-4.847 2.185-4.847 5.018l0.137 0.273-0.137 0.41c0 13.38 3.891 24.235 11.81 32.29 16.111 16.725 66.15 16.521 66.15 16.521l5.769-1.604c11.059-8.499 18.295-24.371 21.436-47.070l-0.137-0.649 0.171-0.137z" />
<glyph unicode="&#xe621;" d="M285.935 791.108l328.772-291.191 328.704 291.191zM618.837 445.85l-357.342 320.307v-364.442c6.281-7.066 12.595-14.063 19.285-20.787 31.505-31.539 66.935-58.334 105.438-79.906l12.151 38.844c2.15 6.997 7.202 12.766 13.824 15.804 6.588 3.14 14.404 3.345 21.094 0.478l135.782-55.91h349.901c31.539 0 57.242 26.146 57.242 58.231v407.689l-357.376-320.307zM420.284 246.613c-1.263-3.857-4.096-6.997-7.817-8.533-3.721-1.604-7.987-1.399-11.605 0.444-46.626 24.030-89.293 55.194-126.805 92.706-37.308 37.274-68.471 79.94-92.604 126.737-1.843 3.618-2.014 7.885-0.478 11.674 1.604 3.721 4.779 6.588 8.567 7.817l54.647 16.998-95.232 227.226-18.125-11.742c-65.536-35.874-97.143-111.241-77.005-183.296 27.477-98.167 80.657-188.689 153.839-261.769 73.079-73.216 163.635-126.464 261.905-154.010 14.199-3.959 28.706-5.973 43.281-5.973 58.334 0 111.991 31.778 139.981 83.046l10.991 20.070-228.318 92.399-15.223-53.794z" />
<glyph unicode="&#xe622;" d="M512 789.333c-188.45 0-341.333-152.781-341.333-341.333 0-188.45 152.883-341.333 341.333-341.333 188.518 0 341.333 152.883 341.333 341.333 0 188.553-152.815 341.333-341.333 341.333zM512 182.545c-146.398 0-265.455 119.057-265.455 265.455s119.057 265.557 265.455 265.557 265.455-119.159 265.455-265.557-119.057-265.455-265.455-265.455zM452.028 564.907c6.656 0 12.049 5.393 12.049 12.049 0 7.407 5.973 13.414 13.346 13.414h79.155c7.373 0 13.449-6.007 13.449-13.414 0-6.622 5.393-12.049 12.015-12.049s12.015 5.393 12.015 12.049c0 20.617-16.794 37.444-37.444 37.444h-79.155c-20.617 0-37.41-16.794-37.41-37.444-0.034-6.656 5.325-12.049 11.981-12.049zM637.611 555.93h-241.186c-20.855 0-37.751-16.862-37.751-37.717v-185.617c0-20.855 16.896-37.751 37.751-37.751h241.186c20.855 0 37.751 16.896 37.751 37.751v185.617c0 20.855-16.896 37.717-37.751 37.717zM516.847 344.917c-44.407 0-80.452 36.011-80.452 80.452 0 44.407 36.045 80.418 80.452 80.418 44.442 0 80.486-36.045 80.486-80.418 0-44.442-36.045-80.452-80.486-80.452zM534.391 478.549h-34.748v-35.942h-35.942v-34.816h35.942v-35.567h34.748v35.567h35.601v34.816h-35.601z" />
<glyph unicode="&#xe623;" d="M373.18 683.622c14.199 0 25.702 11.469 25.702 25.702 0 15.77 12.766 28.604 28.501 28.604h169.097c15.838 0 28.57-12.834 28.57-28.604 0-14.234 11.571-25.702 25.702-25.702 14.268 0 25.771 11.469 25.771 25.702 0 44.1-35.942 79.974-80.043 79.974h-169.097c-44.066 0-79.974-35.874-79.974-79.974 0.034-14.234 11.571-25.702 25.771-25.702zM769.604 664.474h-515.243c-44.578 0-80.657-36.079-80.657-80.657v-396.459c0-44.612 36.079-80.725 80.657-80.725h515.243c44.51 0 80.691 36.147 80.691 80.725v396.459c0 44.578-36.181 80.657-80.691 80.657zM511.659 213.811c-94.857 0-171.793 76.937-171.793 171.827 0 94.822 76.937 171.827 171.793 171.827 94.891 0 171.895-76.971 171.895-171.827-0.034-94.891-77.005-171.827-171.895-171.827zM549.137 499.132h-74.172v-76.766h-76.8v-74.274h76.8v-75.981h74.172v75.981h76.015v74.274h-76.015z" />
<glyph unicode="&#xe624;" d="M815.787 164.693l-160.427 167.253c37.547 47.787 61.44 109.227 61.44 177.493 0 150.187-116.053 269.653-259.413 269.653s-259.413-119.467-259.413-269.653c0-150.187 116.053-269.653 259.413-269.653 44.373 0 85.333 10.24 122.88 30.72l167.253-174.080 68.267 68.267zM296.96 506.027c0 95.573 71.68 170.667 163.84 170.667s163.84-75.093 163.84-170.667-71.68-170.667-163.84-170.667-163.84 78.507-163.84 170.667z" />
<glyph unicode="&#xe625;" d="M512 789.333c-188.518 0-341.333-152.815-341.333-341.333 0-188.484 152.815-341.333 341.333-341.333 188.484 0 341.333 152.849 341.333 341.333 0 188.518-152.849 341.333-341.333 341.333zM512 182.511c-146.398 0-265.489 119.091-265.489 265.489s119.091 265.489 265.489 265.489 265.489-119.091 265.489-265.489-119.091-265.489-265.489-265.489zM523.674 302.967c-41.301 0-78.882 16.691-102.502 47.479-11.196 13.995-19.831 31.881-23.518 53.999h-27.136v29.389h22.869v7.134c0 4.096 0.614 8.397 0.614 12.356h-23.484v29.628h27.955c5.495 22.46 15.497 41.438 29.047 56.866 24.064 26.692 57.617 42.325 97.007 42.325 25.498 0 47.957-5.837 63.147-12.493l-11.913-47.241c-10.923 4.676-28.126 9.796-46.524 9.796-20.207 0-38.605-6.485-51.712-22.255-5.905-6.588-10.65-16.282-13.483-26.999h104.619v-29.628h-111.036c-0.341-3.959-0.341-8.704-0.341-12.8v-6.69h111.377v-29.389h-105.506c2.867-12.527 7.646-22.118 13.995-29.082 13.449-14.985 33.007-21.367 54.067-21.367 19.456 0 39.083 6.383 48.026 10.957l9.967-46.148c-14.438-7.987-38.502-15.838-65.536-15.838z" />
<glyph unicode="&#xe626;" d="M619.076 106.667c-100.966 0-192.751 40.823-250.641 116.156-27.409 34.133-48.469 77.79-57.549 131.994h-66.321v71.817h55.945v17.442c0 10.035 1.365 20.514 1.365 30.242h-57.31v72.431h68.301c13.517 54.886 37.956 101.308 71.1 139.093 58.88 65.297 140.766 103.492 237.227 103.492 62.293 0 117.282-14.268 154.317-30.549l-29.047-115.507c-26.829 11.435-68.881 23.996-113.869 23.996-49.425 0-94.379-15.872-126.327-54.477-14.473-16.077-26.078-39.799-32.973-66.014h255.761v-72.431h-271.394c-0.853-9.728-0.853-21.333-0.853-31.266v-16.418h272.282v-71.817h-257.877c6.997-30.686 18.637-54.204 34.133-71.134 32.905-36.625 80.725-52.19 132.301-52.19 47.582 0 95.471 15.565 117.419 26.829l24.371-112.845c-35.396-19.593-94.242-38.844-160.358-38.844z" />
<glyph unicode="&#xe627;" d="M16157.457-4247.927c-188.518 0-341.333-152.849-341.333-341.333s152.815-341.333 341.333-341.333c188.45 0 341.333 152.849 341.333 341.333s-152.849 341.333-341.333 341.333zM16157.457-4854.75c-146.398 0-265.489 119.091-265.489 265.455 0 146.398 119.091 265.455 265.489 265.455 146.33 0 265.421-119.057 265.421-265.455 0.034-146.33-119.091-265.455-265.421-265.455zM16185.617-4478.805c-37.274 34.338-94.106 33.451-130.321-2.731 17.135-28.467 36.864-53.453 56.73-74.615l73.591 77.346zM16040.141-4497.271l-59.324-62.327c-37.649-39.526-37.649-104.277 0-143.804l2.15-2.253c37.615-39.526 99.226-39.526 136.841 0l59.597 62.669c-33.929 23.723-94.481 72.738-139.264 145.715zM16126.908-4571.273c26.18-25.6 50.893-44.373 67.447-55.876 33.007 36.796 34.884 93.559 5.598 132.574l-73.045-76.698zM16376.866-4594.517c-10.138-15.258-20.617-26.385-31.095-33.212-10.65-6.861-21.094-10.342-31.095-10.342-2.389 0-4.881 0.205-7.202 0.614-12.425 2.082-22.528 9.523-29.969 22.255-5.564 9.455-7.646 19.388-6.246 29.457 1.399 9.83 7.066 22.596 16.794 37.99 10.479 16.521 16.213 25.975 18.603 30.652 2.458 4.745 4.471 10.513 5.871 17.135 1.399 6.519 1.673 13.073 0.751 19.388-0.887 6.281-3.106 12.527-6.554 18.534-9.421 16.009-21.879 24.747-38.059 26.59-2.355 0.239-4.813 0.41-7.202 0.41-13.858 0-28.228-4.71-42.667-14.063-11.81-7.612-22.665-17.135-32.188-28.262l12.902-12.937c8.704 10.65 18.057 19.217 27.75 25.532 10.752 6.929 21.333 10.479 31.334 10.479 1.126 0 2.253-0.068 3.447-0.137 11.332-0.887 20.378-6.997 26.863-17.954 7.714-13.107 4.335-31.13-9.899-53.555-10.001-15.804-16.589-26.658-19.593-32.256-2.867-5.393-5.325-11.947-7.236-19.354-1.911-7.373-2.423-15.019-1.638-22.869 0.785-7.782 3.413-15.258 7.851-22.972 11.196-19.081 25.463-29.559 43.691-32.154 3.55-0.512 7.168-0.751 10.65-0.751 14.37 0 28.331 4.335 41.54 12.937 15.326 9.865 27.238 21.845 35.362 35.533l-12.766 13.312zM512 789.333c-188.518 0-341.333-152.849-341.333-341.367 0-188.45 152.815-341.299 341.333-341.299 188.45 0 341.333 152.849 341.333 341.299 0 188.518-152.883 341.367-341.333 341.367zM512 182.545c-146.398 0-265.489 119.091-265.489 265.421 0 146.398 119.091 265.489 265.489 265.489 146.33 0 265.455-119.091 265.455-265.489 0-146.33-119.125-265.421-265.455-265.421zM540.16 558.421c-37.274 34.338-94.106 33.485-130.321-2.697 17.101-28.467 36.864-53.453 56.73-74.615l73.591 77.312zM394.684 539.955l-59.324-62.327c-37.649-39.526-37.649-104.243 0-143.77l2.15-2.253c37.615-39.526 99.226-39.526 136.841 0l59.597 62.669c-33.929 23.723-94.481 72.772-139.264 145.681zM481.451 465.954c26.18-25.566 50.893-44.339 67.413-55.842 33.007 36.796 34.918 93.559 5.598 132.574l-73.011-76.732zM731.409 442.743c-10.138-15.258-20.617-26.385-31.061-33.212-10.65-6.861-21.129-10.342-31.13-10.342-2.389 0-4.881 0.205-7.202 0.614-12.39 2.082-22.528 9.523-29.935 22.255-5.598 9.455-7.68 19.388-6.281 29.457 1.399 9.83 7.066 22.596 16.794 37.99 10.479 16.486 16.213 25.975 18.603 30.652 2.458 4.745 4.471 10.513 5.871 17.135 1.399 6.519 1.673 13.073 0.785 19.388-0.922 6.281-3.14 12.527-6.588 18.534-9.387 16.009-21.879 24.713-38.059 26.59-2.321 0.239-4.813 0.41-7.202 0.41-13.858 0-28.194-4.71-42.667-14.063-11.81-7.612-22.665-17.135-32.188-28.297l12.902-12.902c8.67 10.65 18.057 19.217 27.716 25.532 10.786 6.929 21.333 10.479 31.334 10.479 1.126 0 2.253-0.068 3.482-0.137 11.332-0.887 20.343-6.997 26.863-17.954 7.68-13.141 4.335-31.13-9.933-53.555-10.001-15.804-16.589-26.658-19.593-32.29-2.867-5.393-5.325-11.913-7.202-19.319-1.946-7.407-2.458-15.053-1.673-22.869 0.785-7.782 3.413-15.258 7.851-22.972 11.196-19.081 25.463-29.559 43.725-32.154 3.55-0.512 7.134-0.751 10.615-0.751 14.404 0 28.331 4.335 41.54 12.937 15.326 9.865 27.273 21.845 35.396 35.533l-12.766 13.312z" />
<glyph unicode="&#xe628;" d="M285.867 639.351c70.724 66.833 181.658 68.437 254.43 4.983l-143.633-142.746c-38.775 39.049-77.414 85.197-110.797 137.762zM568.32 615.287c57.173-72.090 53.453-176.913-10.923-244.804-32.324 21.197-80.589 55.876-131.652 103.083l142.575 141.722zM140.425 495.206l115.849 115.098c87.45-134.758 205.687-225.348 271.94-269.175l-116.395-115.712c-73.455-73.011-193.673-73.011-267.162 0l-4.198 4.198c-73.489 73.011-73.489 192.512-0.034 265.591zM689.562 689.493c-2.253 0.137-4.437 0.239-6.758 0.239-19.524 0-40.107-6.519-61.133-19.354-18.978-11.639-37.171-27.546-54.17-47.138l-25.259 23.791c18.671 20.617 39.799 38.161 62.839 52.258 28.194 17.237 56.252 25.975 83.354 26.010 4.71 0 9.387-0.341 14.131-0.785 31.573-3.447 55.842-19.524 74.206-49.118 6.827-11.059 11.127-22.63 12.834-34.236 1.775-11.674 1.297-23.723-1.468-35.806-2.799-12.288-6.588-22.938-11.503-31.676-4.676-8.67-15.838-26.18-36.25-56.661-19.081-28.365-30.106-52.019-32.836-70.144-2.765-18.603 1.297-36.898 12.117-54.409 14.575-23.484 34.27-37.342 58.539-41.165 4.608-0.717 9.318-1.092 14.063-1.092 19.524 0 39.936 6.417 60.723 19.081 20.514 12.527 40.926 33.143 60.723 61.338l24.883-24.644c-15.872-25.259-39.049-47.343-69.052-65.673-25.737-15.804-53.043-23.791-81.033-23.791-6.758 0-13.756 0.444-20.753 1.399-35.601 4.813-63.522 24.166-85.333 59.358-8.704 14.234-13.756 28.058-15.36 42.462-1.57 14.404-0.512 28.604 3.174 42.155 3.755 13.756 8.533 25.771 14.165 35.738 5.871 10.445 18.705 30.481 38.229 59.665 27.819 41.438 34.372 74.684 19.354 98.918-12.663 20.343-30.276 31.573-52.429 33.28z" />
<glyph unicode="&#xe629;" d="M511.966 789.333c-188.484 0-341.299-152.849-341.299-341.333s152.815-341.333 341.299-341.333c188.518 0 341.367 152.815 341.367 341.333s-152.849 341.333-341.367 341.333zM511.966 182.477c-146.364 0-265.455 119.125-265.455 265.523s119.091 265.489 265.455 265.489c146.398 0 265.489-119.091 265.489-265.489s-119.091-265.523-265.489-265.523zM573.611 415.266c0 5.12-4.13 9.216-9.25 9.216h-111.65c-5.154 0-9.318-4.062-9.318-9.216 0-5.052 4.164-9.182 9.318-9.182h111.65c5.12-0.034 9.25 4.13 9.25 9.182zM452.676 378.402c-5.154 0-9.318-4.13-9.318-9.216s4.164-9.216 9.318-9.216h83.729c5.154 0 9.284 4.13 9.284 9.216s-4.13 9.216-9.284 9.216h-83.729zM452.676 516.574h37.205c5.154 0 9.318 4.13 9.318 9.216s-4.164 9.216-9.318 9.216h-37.205c-5.154 0-9.318-4.13-9.318-9.216s4.164-9.216 9.318-9.216zM564.326 470.562h-111.65c-5.154 0-9.318-4.13-9.318-9.216s4.164-9.216 9.318-9.216h111.65c5.12 0 9.25 4.13 9.25 9.216 0.034 5.086-4.096 9.216-9.25 9.216zM613.615 332.254c0-5.461-7.27-9.148-12.8-9.148h-184.593c-5.53 0-7.27 3.652-7.27 9.148v238.046c0 5.495 1.741 10.752 7.27 10.752h113.664v-40.482c0-24.815 15.838-42.428 40.789-42.428h42.94v-50.688c6.076 6.793 12.322 13.585 18.637 20.241v38.844l-95.095 92.945h-120.047c-16.316 0-26.761-14.029-26.761-30.31v-235.793c0-16.35 10.445-28.672 26.761-28.672h182.818c16.316 0 32.324 12.322 32.324 28.672v46.353c-6.315-4.949-12.527-9.66-18.637-13.858v-33.621zM735.403 522.752c-14.131 13.995-33.075-4.71-77.79-49.015-44.783-44.271-92.023-103.629-84.207-111.343 7.817-7.817 67.721 39.083 112.469 83.319 44.749 44.305 63.625 63.044 49.527 77.039z" />
<glyph unicode="&#xe62a;" d="M531.627 362.667c0 11.81-9.66 21.333-21.572 21.333h-258.56c-11.878 0-21.538-9.523-21.538-21.333 0-11.776 9.66-21.333 21.538-21.333h258.56c11.913 0 21.572 9.557 21.572 21.333zM251.494 277.333c-11.878 0-21.538-9.523-21.538-21.333s9.66-21.333 21.538-21.333h193.946c11.878 0 21.538 9.523 21.538 21.333s-9.66 21.333-21.538 21.333h-193.946zM251.494 597.333h86.187c11.913 0 21.572 9.557 21.572 21.333s-9.66 21.333-21.572 21.333h-86.187c-11.878 0-21.538-9.557-21.538-21.333s9.66-21.333 21.538-21.333zM510.054 490.667h-258.56c-11.878 0-21.538-9.523-21.538-21.333s9.66-21.333 21.538-21.333h258.56c11.913 0 21.572 9.523 21.572 21.333s-9.66 21.333-21.572 21.333zM624.196 170.394c0-12.663-16.828-21.060-29.662-21.060h-427.486c-12.834 0-16.862 8.397-16.862 21.060v551.39c0 12.698 4.028 24.883 16.862 24.883h263.236v-93.798c0-57.446 36.693-98.202 94.413-98.202h99.499v-117.419c13.995 15.77 28.467 31.471 43.11 46.831v90.010l-220.228 215.245h-277.982c-37.786 0-61.986-32.461-61.986-70.178v-546.133c0-37.717 24.201-66.355 61.986-66.355h423.322c37.82 0 74.854 28.638 74.854 66.355v107.383c-14.575-11.503-29.047-22.323-43.11-32.188v-77.824zM906.206 611.635c-32.768 32.427-76.561-10.923-180.156-113.493-103.629-102.571-213.060-240.094-195.004-257.98 18.091-17.886 156.911 90.487 260.54 193.092 103.595 102.605 147.354 145.954 114.62 178.381z" />
<glyph unicode="&#xe62b;" d="M508.587 765.44c-187.733 0-341.333-153.6-341.333-341.333s153.6-341.333 341.333-341.333 341.333 153.6 341.333 341.333-153.6 341.333-341.333 341.333zM508.587 157.867c-146.773 0-266.24 119.467-266.24 266.24s119.467 266.24 266.24 266.24 266.24-119.467 266.24-266.24-119.467-266.24-266.24-266.24zM634.88 417.28l-191.147-112.64c-10.24-6.827-17.067 0-17.067 10.24v228.693c0 10.24 6.827 17.067 17.067 10.24l194.56-116.053c6.827-3.413 6.827-13.653-3.413-20.48z" />
<glyph unicode="&#xe62c;" d="M580.267 509.44v208.213c0 34.133-27.307 58.027-58.027 58.027h-23.893c-34.133 0-58.027-27.307-58.027-61.44v-208.213l-208.213-3.413c-34.133 0-58.027-27.307-58.027-61.44v-23.893c0-34.133 27.307-58.027 58.027-58.027l208.213 3.413v-208.213c0-34.133 27.307-58.027 58.027-58.027h23.893c34.133 0 58.027 27.307 58.027 61.44v208.213l208.213 3.413c34.133 0 58.027 27.307 58.027 61.44v23.893c0 34.133-27.307 58.027-58.027 58.027l-208.213-3.413z" />
<glyph unicode="&#xe62d;" d="M512 789.333c-188.518 0-341.333-152.815-341.333-341.333s152.815-341.333 341.333-341.333c188.518 0 341.333 152.815 341.333 341.333s-152.815 341.333-341.333 341.333zM512 182.511c-146.398 0-265.489 119.091-265.489 265.489s119.091 265.489 265.489 265.489 265.455-119.091 265.455-265.489-119.057-265.489-265.455-265.489zM660.855 489.062l11.469 28.262-20.48 22.665 1.126 30.481-26.999 14.268-9.318 29.047-30.276 4.198-18.739 24.064-29.833-6.383-25.805 16.213-25.839-16.213-29.867 6.383-18.705-24.064-30.242-4.198-9.387-29.047-26.965-14.268 1.126-30.481-20.446-22.665 11.469-28.262-11.469-28.262 20.446-22.665-1.126-30.481 26.965-14.268 9.387-29.082 24.439-3.413-46.865-81.203 43.383 0.717 25.668 44.442c2.56 4.506 8.26 5.973 12.698 3.447 4.437-2.594 5.973-8.26 3.413-12.732l-25.668-44.476 21.060-37.922 46.524 80.623 46.524-80.589 20.992 37.854-25.737 44.544c-2.526 4.471-1.058 10.138 3.482 12.732 4.403 2.526 10.138 1.058 12.732-3.447l25.6-44.442 43.452-0.717-46.865 81.203 24.474 3.413 9.353 29.047 26.999 14.268-1.126 30.481 20.48 22.665-11.503 28.262zM512 372.77c-64.102 0-116.292 52.156-116.292 116.292s52.19 116.292 116.292 116.292c64.137 0 116.326-52.156 116.326-116.292s-52.19-116.292-116.326-116.292zM512 387.994c-55.74 0-101.069 45.329-101.069 101.035 0 55.74 45.329 101.069 101.069 101.069s101.069-45.329 101.069-101.069c0-55.706-45.329-101.035-101.069-101.035z" />
<glyph unicode="&#xe62e;" d="M754.688 523.844l18.773 46.080-33.417 36.932 1.809 49.732-43.93 23.279-15.292 47.343-49.289 6.861-30.549 39.253-48.708-10.445-42.086 26.453-42.155-26.453-48.64 10.445-30.583-39.253-49.289-6.861-15.292-47.343-43.964-23.279 1.843-49.732-33.382-36.932 18.739-46.080-18.739-46.114 33.382-36.898-1.843-49.732 43.964-23.313 15.292-47.309 39.868-5.53-76.425-132.403 70.758 1.195 41.813 72.431c4.198 7.305 13.517 9.728 20.719 5.53 7.27-4.164 9.762-13.449 5.564-20.685l-41.847-72.465 34.338-61.884 75.878 131.413 75.844-131.413 34.27 61.747-41.916 72.602c-4.198 7.27-1.707 16.521 5.564 20.685 7.236 4.198 16.486 1.775 20.685-5.53l41.882-72.431 70.861-1.195-76.425 132.403 39.868 5.53 15.292 47.343 43.93 23.313-1.809 49.732 33.417 36.898-18.773 46.080zM512 334.199c-104.55 0-189.645 85.060-189.645 189.645 0 104.55 85.060 189.645 189.645 189.645 104.516 0 189.611-85.094 189.611-189.645 0-104.585-85.094-189.645-189.611-189.645zM512 359.049c-90.863 0-164.796 73.933-164.796 164.83 0 90.863 73.933 164.796 164.796 164.796s164.796-73.933 164.796-164.796c0-90.897-73.933-164.83-164.796-164.83z" />
<glyph unicode="&#xe62f;" d="M580.267 362.667h-256c-10.24 0-20.48-10.24-20.48-20.48s10.24-20.48 20.48-20.48h256c10.24 0 20.48 10.24 20.48 20.48s-6.827 20.48-20.48 20.48zM689.493 147.627c0-13.653-10.24-20.48-23.893-20.48h-426.667c-13.653 0-23.893 6.827-23.893 20.48v552.96c0 13.653 10.24 23.893 23.893 23.893h293.547c10.24 17.067 17.067 23.893 40.96 44.373h-331.093c-37.547 0-68.267-34.133-68.267-71.68v-546.133c0-37.547 30.72-64.853 68.267-64.853h419.84c37.547 0 68.267 27.307 68.267 64.853v348.16c-17.067-10.24-20.48-10.24-44.373-13.653v-337.92zM580.267 253.44h-256c-10.24 0-20.48-10.24-20.48-20.48s10.24-20.48 20.48-20.48h256c10.24 0 20.48 10.24 20.48 20.48s-6.827 20.48-20.48 20.48zM754.347 560.64c17.067 20.48 27.307 47.787 27.307 78.507 0 68.267-51.2 119.467-116.053 119.467s-116.053-54.613-116.053-119.467c0-68.267 51.2-119.467 116.053-119.467 20.48 0 37.547 6.827 54.613 13.653l75.093-78.507 30.72 30.72-71.68 75.093zM665.6 564.053c-40.96 0-71.68 34.133-71.68 75.093s34.133 75.093 71.68 75.093 71.68-34.133 71.68-75.093-30.72-75.093-71.68-75.093zM324.267 574.293h85.333c10.24 0 20.48 10.24 20.48 20.48s-10.24 20.48-20.48 20.48h-85.333c-10.24 0-20.48-10.24-20.48-20.48s6.827-20.48 20.48-20.48zM580.267 468.48h-256c-10.24 0-20.48-10.24-20.48-20.48s10.24-20.48 20.48-20.48h256c10.24 0 20.48 10.24 20.48 20.48s-6.827 20.48-20.48 20.48z" />
<glyph unicode="&#xe630;" d="M512 789.333c-188.518 0-341.333-152.883-341.333-341.333 0-188.518 152.815-341.333 341.333-341.333 188.45 0 341.333 152.815 341.333 341.333 0 188.45-152.883 341.333-341.333 341.333zM512 182.477c-146.398 0-265.489 119.125-265.489 265.523 0 146.364 119.091 265.421 265.489 265.421s265.489-119.057 265.489-265.421c0-146.398-119.091-265.523-265.489-265.523zM561.391 411.921h-112.162c-5.154 0-9.318-4.198-9.318-9.353s4.164-9.353 9.318-9.353h112.162c5.154 0 9.353 4.198 9.353 9.353s-4.164 9.353-9.353 9.353zM561.391 365.193h-112.162c-5.154 0-9.318-4.198-9.318-9.353s4.164-9.353 9.318-9.353h112.162c5.154 0 9.353 4.198 9.353 9.353s-4.164 9.353-9.353 9.353zM608.393 318.327c0-5.53-4.813-9.25-10.377-9.25h-185.412c-5.564 0-9.83 3.686-9.83 9.25v241.562c0 5.564 4.267 10.889 9.83 10.889h127.659c4.779 8.021 7.543 11.093 17.203 18.671h-143.94c-16.384 0-29.423-14.165-29.423-30.686v-239.309c0-16.486 13.039-29.082 29.423-29.082h183.603c16.384 0 29.935 12.561 29.935 29.082v152.132c-7.987-4.335-9.284-4.574-18.671-5.495v-147.763zM636.928 498.961c7.612 9.25 12.186 21.231 12.186 34.372 0 29.15-22.63 52.804-50.517 52.804-27.955 0-50.62-23.62-50.62-52.804 0-29.15 22.665-52.804 50.62-52.804 8.533 0 16.623 2.219 23.723 6.212l32.631-34.099 13.175 13.722-31.198 32.597zM598.596 499.951c-17.715 0-32.017 14.95-32.017 33.382 0 18.466 14.336 33.417 32.017 33.417 17.647 0 31.983-14.95 31.983-33.417 0-18.432-14.336-33.382-31.983-33.382zM449.263 505.378h37.41c5.154 0 9.318 4.198 9.318 9.353s-4.164 9.353-9.318 9.353h-37.41c-5.154 0-9.318-4.198-9.318-9.353s4.164-9.353 9.318-9.353zM561.391 458.65h-112.162c-5.154 0-9.318-4.164-9.318-9.353 0-5.154 4.164-9.353 9.318-9.353h112.162c5.154 0 9.353 4.198 9.353 9.353 0.034 5.188-4.164 9.353-9.353 9.353z" />
<glyph unicode="&#xe631;" d="M592.759 383.863h-256.649c-11.81 0-21.367-9.591-21.367-21.402 0-11.878 9.557-21.402 21.367-21.402h256.649c11.844 0 21.402 9.523 21.402 21.402 0 11.81-9.557 21.402-21.402 21.402zM592.759 276.924h-256.649c-11.81 0-21.367-9.591-21.367-21.402s9.557-21.402 21.367-21.402h256.649c11.844 0 21.402 9.591 21.402 21.402s-9.557 21.402-21.402 21.402zM700.314 169.745c0-12.732-10.957-21.129-23.689-21.129h-424.311c-12.732 0-22.494 8.397-22.494 21.129v552.721c0 12.732 9.762 24.951 22.494 24.951h292.113c10.854 18.364 17.203 25.395 39.424 42.769h-329.523c-37.513 0-67.311-32.529-67.311-70.349v-547.533c0-37.786 29.798-66.526 67.311-66.526h420.215c37.547 0 68.574 28.74 68.574 66.526v348.058c-18.398-9.865-21.402-10.411-42.803-12.561v-338.057zM592.759 490.769h-256.649c-11.81 0-21.367-9.557-21.367-21.367 0-11.844 9.557-21.402 21.367-21.402h256.649c11.844 0 21.402 9.557 21.402 21.402 0 11.81-9.557 21.367-21.402 21.367zM336.111 597.709h85.572c11.81 0 21.367 9.557 21.367 21.402 0 11.81-9.557 21.367-21.367 21.367h-85.572c-11.81 0-21.367-9.557-21.367-21.367 0-11.844 9.557-21.402 21.367-21.402zM765.542 582.997c17.476 21.163 27.989 48.64 27.989 78.677 0 66.731-51.814 120.866-115.746 120.866s-115.814-54.135-115.814-120.866c0-66.697 51.883-120.798 115.814-120.798 19.661 0 38.161 5.12 54.374 14.165l74.684-77.995 30.106 31.369-71.407 74.581zM677.786 585.25c-40.482 0-73.216 34.202-73.216 76.425s32.734 76.459 73.216 76.459 73.216-34.236 73.216-76.459c0-42.223-32.734-76.425-73.216-76.425z" />
<glyph unicode="&#xe632;" d="M559.923 441.515c-5.666 0-10.206-4.608-10.206-10.206 0-35.055 28.638-63.625 63.659-63.625s63.659 28.57 63.659 63.625c0 5.598-4.574 10.206-10.206 10.206h-1.229l-42.769 121.003h14.029c5.632 0 10.103 4.54 10.103 10.24 0 5.53-4.471 10.103-10.103 10.103h-82.978c-4.676 20.070-22.665 35.191-44.1 35.191-21.538 0-39.424-15.121-44.1-35.191h-82.466c-5.632 0-10.103-4.574-10.103-10.103 0-5.7 4.471-10.24 10.103-10.24h11.981l-42.735-121.003h-1.331c-5.598 0-10.138-4.608-10.138-10.206 0-35.055 28.57-63.625 63.659-63.625 35.021 0 63.556 28.57 63.556 63.625 0 5.598-4.506 10.206-10.103 10.206h-1.297l-42.803 121.003h60.553c5.7 0 10.206 4.54 10.206 10.24 0 10.172 6.178 18.91 14.916 22.801v-285.286l-81.374 0.068c-5.598 0-10.206-4.471-10.206-10.138 0-5.598 4.608-10.069 10.206-10.069l1.57-0.068h186.846c5.632 0 10.206 4.471 10.206 10.069s-4.574 10.138-10.206 10.138h-86.733v285.184c8.67-3.891 14.848-12.595 14.848-22.733 0-5.7 4.574-10.24 10.206-10.24l0.171 0.137 0.307-0.137h58.47l-42.871-121.003h-1.195zM442.539 441.515h-75.742c11.708 33.075 31.164 88.064 37.888 107.076 6.758-19.012 26.146-74.035 37.854-107.076zM613.41 548.557c6.724-19.012 26.112-74.001 37.922-107.076h-75.776c11.742 33.075 31.095 88.098 37.854 107.076zM512 789.333c-188.518 0-341.333-152.849-341.333-341.333 0-188.518 152.815-341.333 341.333-341.333 188.45 0 341.333 152.815 341.333 341.333 0 188.484-152.883 341.333-341.333 341.333zM512 182.545c-146.398 0-265.489 119.057-265.489 265.455 0 146.364 119.091 265.455 265.489 265.455s265.489-119.091 265.489-265.455c0-146.398-119.091-265.455-265.489-265.455z" />
<glyph unicode="&#xe633;" d="M616.107 422.4c-10.24 0-20.48-10.274-20.48-20.514 0-71.68 58.027-129.707 129.707-129.707 71.714 0 129.707 58.027 129.707 129.707 0 10.24-10.24 20.514-20.48 20.514h-3.413l-85.333 245.76h27.307c10.24 0 20.48 10.24 20.48 20.48s-10.24 20.48-20.48 20.48h-167.253c-10.24 40.96-44.373 71.714-88.747 71.714s-78.507-30.72-88.747-71.714h-174.080c-10.24 0-20.48-10.24-20.48-20.48s10.24-20.48 20.48-20.48h23.893l-85.333-245.76h-3.413c-10.24 0-20.48-10.274-20.48-20.514 0-71.68 58.027-129.707 129.707-129.707s129.707 58.027 129.707 129.707c0 10.24-10.24 20.514-20.48 20.514h-3.413l-85.333 245.76h122.88c10.24 0 20.48 10.24 20.48 20.48 0 20.48 13.653 37.547 30.72 47.787v-580.301h-167.253c-10.24 0-20.48-10.24-20.48-20.48s10.24-20.48 20.48-20.48h382.293c10.24 0 20.514 10.24 20.514 20.48s-10.274 20.48-20.514 20.48h-174.080v576.887c17.067-6.827 30.686-27.307 30.686-47.753 0-10.274 10.274-20.514 20.514-20.514v0 0h119.467l-88.747-242.347zM377.173 422.4h-153.6c23.893 68.267 64.853 177.493 78.507 218.419 10.24-40.926 51.2-153.6 75.093-218.419zM721.92 640.819c13.619-37.547 54.613-150.153 78.507-218.419h-153.6c23.893 64.819 61.44 177.493 75.093 218.419z" />
<glyph unicode="&#xe634;" d="M512 789.333c-188.518 0-341.333-152.849-341.333-341.333s152.815-341.333 341.333-341.333c188.45 0 341.333 152.849 341.333 341.333s-152.883 341.333-341.333 341.333zM512 182.545c-146.398 0-265.489 119.057-265.489 265.455 0 146.364 119.091 265.455 265.489 265.455 146.364 0 265.489-119.091 265.489-265.455 0-146.398-119.125-265.455-265.489-265.455zM648.704 484.42c-6.451 81.613-66.97 145.613-140.8 145.613-73.796 0-134.315-64-140.766-145.613-14.302-11.503-23.689-30.345-23.689-51.678 0-28.843 17.101-53.214 40.448-60.757 3.652-1.195 7.612-0.41 10.65 2.185s4.847 6.656 4.847 10.957v84.821c0 67.686 48.674 122.846 108.51 122.846 59.87 0 108.544-55.125 108.544-122.846v-84.821c0-4.301 1.809-8.363 4.881-10.957 3.038-2.594 6.997-3.413 10.65-2.185 23.381 7.578 40.448 31.949 40.448 60.757-0.068 21.367-9.421 40.175-23.723 51.678zM614.639 361.404c-7.851-42.052-40.892-73.728-80.384-73.728h-7.782c-2.731 8.602-9.967 14.882-18.534 14.882-10.889 0-19.729-10.001-19.729-22.323s8.841-22.323 19.729-22.323c8.567 0 15.804 6.246 18.534 14.916h7.782c45.295 0 83.251 35.977 92.945 83.934-4.506 0.239-8.841 1.843-12.561 4.642z" />
<glyph unicode="&#xe635;" d="M793.361 522.24c-11.844 149.709-122.812 267.093-258.253 267.093s-246.409-117.385-258.253-267.093c-26.214-21.026-43.418-55.569-43.418-94.72 0-52.907 31.369-97.587 74.172-111.582 6.724-2.116 13.961-0.614 19.558 4.13 5.564 4.745 8.841 12.186 8.841 20.070v155.648c0 124.211 89.327 225.28 199.1 225.28 109.739 0 199.1-101.069 199.1-225.28v-155.648c0-7.851 3.277-15.326 8.875-20.070s12.8-6.281 19.524-4.13c42.871 13.995 74.206 58.675 74.206 111.582 0 39.151-17.203 73.694-43.452 94.72zM730.931 296.585c-14.473-77.278-75.127-135.339-147.524-135.339h-14.336c-4.983 15.872-18.193 27.341-33.929 27.341-20.002 0-36.215-18.398-36.215-40.994s16.179-40.926 36.215-40.926c15.735 0 28.979 11.401 33.929 27.273h14.336c83.081 0 152.713 66.014 170.462 154.010-8.192 0.512-16.145 3.516-22.938 8.636z" />
<glyph unicode="&#xe636;" d="M444.348 25.293c56.422 0 102.127 59.665 102.127 102.161h-204.22c0-42.496 45.739-102.161 102.093-102.161zM714.274 444.143l-189.815-154.897c-2.935-2.389-6.451-3.55-10.035-3.55s-7.202 1.126-10.138 3.618c-5.837 4.847-7.407 6.485-3.789 13.107l123.153 215.142-79.292-0.068c-5.53 0-10.684 6.144-13.517 10.889-2.935 4.745-3.072 12.356-0.546 17.169l81.852 172.066c-36.762 32.529-55.979 56.047-140.902 64.239v46.319c0 23.484 2.253 42.53-21.265 42.53-23.484 0-21.231-19.046-21.231-42.53v-46.285c-127.488-20.412-235.725-129.331-235.725-261.12 0-103.799-20.48-175.548-86.665-252.075-11.81-13.79-17.613-31.334-17.613-49.493v-0.956c0-25.19 5.222-48.265 30.31-48.265h650.581c25.122 0 41.574 23.074 41.574 48.265v0.956c0 18.159-4.642 35.703-16.486 49.459-48.572 56.183-70.929 109.909-80.452 175.479zM926.891 722.432h-78.199c-5.359 0-8.431-0.99-3.209 4.574 0 0 80.486 122.914 80.828 122.914h-194.048c-2.389 0-88.883-165.001-88.883-165.001-2.321-4.983 0.785-4.983 5.803-4.983h69.018c4.983 0 8.124-5.393 5.905-10.308l-99.703-218.795c-3.209-7.066 4.335-13.961 9.865-9.114l296.653 262.383c4.983 4.301 7.851 18.33-4.028 18.33z" />
<glyph unicode="&#xe637;" d="M512 789.333c-188.484 0-341.333-152.815-341.333-341.333s152.849-341.333 341.333-341.333c188.518 0 341.333 152.815 341.333 341.333s-152.815 341.333-341.333 341.333zM512 182.511c-146.398 0-265.455 119.091-265.455 265.489s119.057 265.489 265.455 265.489 265.489-119.091 265.489-265.489-119.091-265.489-265.489-265.489zM523.947 613.854v12.254c0 6.622-5.325 11.981-11.947 11.981s-11.947-5.359-11.947-11.981v-12.254c-109.193-5.564-198.417-86.699-216.405-192.171 20.48 10.889 43.725 17.067 68.506 17.067 29.423 0 56.9-8.806 79.906-23.825 23.040 15.019 50.449 23.825 79.94 23.825s56.9-8.806 79.94-23.825c23.074 15.019 50.483 23.825 79.94 23.825 24.747 0 47.991-6.178 68.506-17.033-18.022 105.438-107.213 186.573-216.439 192.137zM352.154 460.083c-12.595 0-25.156-1.434-37.444-4.267 25.737 69.632 86.426 120.388 159.676 133.564-108.749-40.892-122.231-129.297-122.231-129.297zM500.053 422.195v-128.785c0-16.452-13.449-29.867-29.901-29.867s-29.867 13.414-29.867 29.867c0 6.588-5.359 11.981-11.981 11.981s-11.981-5.359-11.981-11.981c0-29.662 24.132-53.794 53.794-53.794s53.76 24.132 53.76 53.794v128.785c-3.925 0.375-7.885 0.614-11.947 0.614-3.925 0-7.919-0.239-11.878-0.614z" />
<glyph unicode="&#xe638;" d="M532.48 747.793v21.060c0 11.298-9.182 20.48-20.48 20.48s-20.48-9.182-20.48-20.48v-21.060c-187.085-9.523-339.9-148.514-370.756-329.182 35.089 18.603 74.991 29.218 117.385 29.218 50.483 0 97.417-15.087 136.909-40.755 39.458 25.668 86.426 40.755 136.943 40.755s97.485-15.087 136.977-40.755c39.424 25.668 86.426 40.755 136.943 40.755 42.359 0 82.227-10.615 117.35-29.184-30.857 180.668-183.706 319.625-370.79 329.148zM238.182 484.386c-21.606 0-43.145-2.492-64.137-7.305 44.066 119.296 148.139 206.268 273.51 228.796-186.3-70.042-209.374-221.491-209.374-221.491zM491.52 419.499v-220.672c0-28.194-22.972-51.2-51.2-51.2s-51.2 23.006-51.2 51.2c0 11.332-9.182 20.514-20.48 20.514s-20.48-9.216-20.48-20.548c0-50.79 41.37-92.126 92.16-92.126s92.16 41.335 92.16 92.126v220.672c-6.793 0.614-13.619 1.058-20.48 1.058-6.827 0.034-13.653-0.41-20.48-1.024z" />
<glyph unicode="&#xe639;" d="M512 789.333c-188.518 0-341.333-152.849-341.333-341.333 0-188.518 152.815-341.333 341.333-341.333 188.484 0 341.333 152.815 341.333 341.333 0 188.484-152.849 341.333-341.333 341.333zM512 182.511c-146.398 0-265.489 119.091-265.489 265.489 0 146.364 119.091 265.455 265.489 265.455s265.489-119.091 265.489-265.455c0-146.398-119.091-265.489-265.489-265.489zM372.361 404.343c-24.098 0-43.622 19.524-43.622 43.622 0 24.132 19.524 43.657 43.622 43.657s43.622-19.524 43.622-43.657c0-24.098-19.524-43.622-43.622-43.622zM512 404.343c-24.098 0-43.622 19.524-43.622 43.622 0 24.132 19.524 43.657 43.622 43.657s43.622-19.524 43.622-43.657c0-24.098-19.524-43.622-43.622-43.622zM607.983 447.966c0 24.098 19.524 43.622 43.622 43.622 24.132 0 43.622-19.524 43.622-43.622s-19.49-43.622-43.622-43.622c-24.064 0-43.622 19.524-43.622 43.622z" />
<glyph unicode="&#xe63a;" d="M317.44 437.76c0-45.243-36.677-81.92-81.92-81.92s-81.92 36.677-81.92 81.92c0 45.243 36.677 81.92 81.92 81.92s81.92-36.677 81.92-81.92zM580.267 437.76c0-45.243-36.677-81.92-81.92-81.92s-81.92 36.677-81.92 81.92c0 45.243 36.677 81.92 81.92 81.92s81.92-36.677 81.92-81.92zM839.68 437.76c0-45.243-36.677-81.92-81.92-81.92s-81.92 36.677-81.92 81.92c0 45.243 36.677 81.92 81.92 81.92s81.92-36.677 81.92-81.92z" />
<glyph unicode="&#xe63b;" d="M512 789.333c-188.518 0-341.333-152.815-341.333-341.333 0-188.484 152.815-341.333 341.333-341.333 188.484 0 341.333 152.849 341.333 341.333 0 188.518-152.849 341.333-341.333 341.333zM512 182.545c-146.398 0-265.489 119.057-265.489 265.455s119.091 265.489 265.489 265.489 265.489-119.091 265.489-265.489-119.091-265.455-265.489-265.455zM426.155 456.602c9.865 6.588 16.35 17.783 16.35 30.447 0 20.309-16.691 36.83-37.205 36.83-14.507 0-27.614-8.465-33.655-21.129-3.311 0.887-6.793 1.399-10.377 1.399-22.084 0-40.073-17.783-40.073-39.629 0-13.961 7.373-26.214 18.432-33.28-24.678-11.981-43.008-42.257-43.008-68.13 0-3.209 2.628-5.837 5.905-5.837h117.419c3.243 0 5.871 2.628 5.871 5.837 0 8.192-1.843 16.794-5.086 25.156h38.4c3.243 0 5.871 2.594 5.871 5.837 0.034 23.552-16.486 51.166-38.844 62.498zM405.333 512.239c14.029 0 25.463-11.298 25.463-25.19 0-13.858-11.435-25.156-25.463-25.156-1.399 0-2.765 0.137-4.13 0.375 0.068 0.717 0.137 1.502 0.137 2.253 0 14.131-7.578 26.556-18.876 33.553 4.233 8.499 13.039 14.165 22.869 14.165zM361.301 492.51c15.599 0 28.297-12.561 28.297-27.989s-12.698-27.989-28.297-27.989-28.297 12.561-28.297 27.989 12.698 27.989 28.297 27.989zM396.117 368.913l-4.335 21.367c-0.41 2.082-2.458 3.482-4.608 3.072-2.116-0.444-3.482-2.458-3.072-4.608l4.028-19.831h-53.692l3.994 19.831c0.444 2.116-0.956 4.164-3.072 4.608-2.116 0.41-4.164-0.99-4.642-3.072l-4.301-21.367h-17.408c3.14 26.112 26.249 55.979 52.258 55.979s49.084-29.867 52.224-55.979h-17.374zM437.487 399.906l-3.823 19.183c-0.478 2.116-2.492 3.482-4.642 3.004-2.116-0.41-3.516-2.423-3.106-4.54l3.584-17.647h-14.404c-7.748 13.38-19.081 24.951-32.188 31.334 6.793 4.335 12.186 10.65 15.326 18.091 2.355 0.58 4.71 0.887 7.066 0.887 23.45 0 44.271-26.761 47.343-50.347h-15.155zM568.32 477.764v-7.782c0-8.67 14.95-15.633 33.417-15.633 18.5 0 33.451 6.963 33.451 15.633v7.782c-6.758-6.042-18.944-9.933-33.451-9.933-14.473 0-26.624 3.891-33.417 9.933zM568.32 458.581v-7.817c0-7.987 12.902-14.609 29.525-15.531 4.949 8.806 19.285 14.848 37.274 14.95 0.034 0.171 0.068 0.375 0.068 0.58v7.817c-6.758-6.042-18.944-9.933-33.451-9.933-14.473 0-26.624 3.891-33.417 9.933zM568.32 496.981v-7.782c0-8.636 14.95-15.633 33.417-15.633 18.5 0 33.451 6.997 33.451 15.633v7.782c-6.758-6.042-18.944-9.933-33.451-9.933-14.473 0-26.624 3.891-33.417 9.933zM601.771 506.266c-14.507 0-26.658 3.891-33.417 9.933v-7.817c0-8.636 14.95-15.633 33.417-15.633s33.451 6.997 33.451 15.633v7.817c-6.793-6.042-18.944-9.933-33.451-9.933zM601.771 511.966c18.466 0 33.451 6.997 33.451 15.633s-14.985 15.633-33.451 15.633-33.451-6.997-33.451-15.633 14.985-15.633 33.451-15.633zM675.294 413.525v-13.517c0.512 0 0.99 0 1.468 0 18.466 0 33.417 6.963 33.417 15.599v7.782c-6.724-6.007-18.91-9.865-33.417-9.865-0.478 0-0.956 0-1.468 0zM675.294 394.342v-11.503c0.512 0 0.99-0.034 1.468-0.034 18.466 0 33.417 6.997 33.417 15.633v5.803c-6.724-6.042-18.91-9.933-33.417-9.933-0.478 0-0.956 0.034-1.468 0.034zM676.762 476.877c18.466 0 33.417 6.963 33.417 15.599s-14.95 15.633-33.417 15.633c-18.432 0-33.417-6.997-33.417-15.633s14.985-15.599 33.417-15.599zM674.577 432.777c0.512-1.399 0.717-2.867 0.717-4.369v-9.148c0.512 0 0.99-0.068 1.468-0.068 18.466 0 33.417 6.997 33.417 15.633v7.817c-6.724-6.042-18.91-9.899-33.417-9.899-0.717 0-1.468 0-2.185 0.034zM643.345 481.075v-7.817c0-8.636 14.985-15.633 33.417-15.633 18.466 0 33.417 6.997 33.417 15.633v7.817c-6.724-6.042-18.91-9.933-33.417-9.933s-26.658 3.891-33.417 9.933zM643.345 461.824v-7.782c0-1.536 0.512-3.004 1.365-4.403 11.605-1.399 20.992-5.393 26.214-10.957 1.911-0.171 3.857-0.273 5.871-0.273 18.466 0 33.417 6.997 33.417 15.633v7.782c-6.724-6.042-18.91-9.933-33.417-9.933-14.541 0-26.692 3.925-33.451 9.933zM602.214 397.79v-7.817c0-8.602 14.95-15.599 33.417-15.599s33.451 6.997 33.451 15.599v7.817c-6.793-6.076-18.944-9.933-33.451-9.933s-26.624 3.891-33.417 9.933zM602.214 378.607v-5.803c0-8.67 14.95-15.667 33.417-15.667s33.451 6.997 33.451 15.667v5.803c-6.793-6.076-18.944-9.933-33.451-9.933s-26.624 3.857-33.417 9.933zM635.631 407.074c-14.507 0-26.624 3.891-33.417 9.933v-7.817c0-8.636 14.95-15.599 33.417-15.599s33.451 6.963 33.451 15.599v7.817c-6.793-6.042-18.91-9.933-33.451-9.933zM669.116 428.407c0-8.602-14.985-15.599-33.451-15.599s-33.417 6.997-33.417 15.599c0 8.636 14.95 15.633 33.417 15.633s33.451-6.997 33.451-15.633zM494.251 470.289v-7.782c0-8.67 14.95-15.633 33.417-15.633s33.451 6.963 33.451 15.633v7.782c-6.793-6.042-18.978-9.933-33.451-9.933s-26.624 3.925-33.417 9.933zM494.251 451.072v-7.782c0-8.021 12.902-14.609 29.491-15.497 4.983 8.738 19.285 14.78 37.308 14.95 0 0.171 0.068 0.375 0.068 0.58v7.748c-6.793-6.042-18.978-9.865-33.451-9.865s-26.624 3.823-33.417 9.865zM494.251 424.073c0-7.68 11.947-14.063 27.648-15.326v12.186c0 0.444 0.068 0.819 0.102 1.263-11.981 0.819-21.914 4.471-27.716 9.66v-7.782zM494.251 489.506v-7.817c0-8.636 14.95-15.599 33.417-15.599s33.451 6.963 33.451 15.599v7.782c-6.793-6.042-18.978-9.865-33.451-9.865s-26.624 3.857-33.417 9.899zM494.251 406.869c0-7.714 11.947-14.063 27.648-15.326v11.435c-11.947 0.887-21.811 4.506-27.648 9.694v-5.803zM527.667 498.79c-14.507 0-26.624 3.857-33.417 9.899v-7.782c0-8.67 14.95-15.633 33.417-15.633s33.451 6.963 33.451 15.633v7.782c-6.793-6.007-18.944-9.899-33.451-9.899zM527.667 504.491c18.466 0 33.451 6.997 33.451 15.633s-14.985 15.633-33.451 15.633-33.417-6.997-33.417-15.633 14.95-15.633 33.417-15.633zM528.111 390.349v-7.817c0-8.636 14.985-15.633 33.451-15.633s33.417 6.997 33.417 15.633v7.817c-6.793-6.076-18.944-9.933-33.417-9.933-14.541 0-26.658 3.857-33.451 9.933zM528.111 371.098v-5.803c0-8.636 14.985-15.633 33.451-15.633s33.417 6.997 33.417 15.633v5.803c-6.793-6.042-18.944-9.899-33.417-9.899-14.541 0-26.658 3.857-33.451 9.899zM561.562 399.599c-14.541 0-26.658 3.891-33.417 9.899v-7.782c0-8.67 14.95-15.599 33.417-15.599s33.417 6.929 33.417 15.599v7.782c-6.793-6.007-18.91-9.899-33.417-9.899zM595.012 420.932c0-8.636-14.985-15.633-33.451-15.633s-33.417 6.997-33.417 15.633c0 8.67 14.95 15.633 33.417 15.633s33.451-6.963 33.451-15.633z" />
<glyph unicode="&#xe63c;" d="M352.495 468.924c20.378 13.653 33.792 36.762 33.792 62.874 0 41.882-34.441 75.947-76.766 75.947-29.935 0-56.934-17.408-69.427-43.588-6.861 1.809-14.029 2.901-21.47 2.901-45.534 0-82.637-36.693-82.637-81.783 0-28.774 15.189-54.101 38.025-68.676-50.893-24.678-88.678-87.211-88.678-140.595 0-6.588 5.427-12.015 12.117-12.015h242.381c6.69 0 12.117 5.393 12.117 12.015 0 16.862-3.789 34.748-10.581 51.917h79.223c6.69 0 12.117 5.393 12.117 12.015 0.068 48.742-34.031 105.643-80.213 128.99zM309.521 583.748c28.979 0 52.531-23.313 52.531-51.951s-23.552-51.951-52.531-51.951c-2.867 0-5.7 0.273-8.499 0.717 0.102 1.57 0.239 3.14 0.239 4.71 0 29.218-15.599 54.784-38.912 69.257 8.704 17.579 26.965 29.218 47.172 29.218zM218.624 543.061c32.222 0 58.402-25.907 58.402-57.788 0-31.846-26.18-57.754-58.402-57.754-32.188 0-58.368 25.907-58.368 57.754 0 31.881 26.18 57.788 58.368 57.788zM290.611 287.983l-8.943 44.066c-0.853 4.335-5.12 7.134-9.489 6.281s-7.202-5.052-6.383-9.387l8.294-40.926h-110.865l8.26 40.926c0.853 4.335-2.014 8.533-6.383 9.387s-8.636-1.946-9.455-6.281l-8.977-44.066h-35.84c6.417 53.862 54.067 115.541 107.759 115.541 53.726 0 101.376-61.679 107.793-115.541h-35.772zM375.979 351.949l-7.987 39.526c-0.887 4.335-5.154 7.134-9.523 6.281s-7.202-5.052-6.349-9.387l7.373-36.386h-29.696c-15.94 27.682-39.322 51.541-66.492 64.683 14.063 8.977 25.19 22.016 31.744 37.444 4.847 1.092 9.694 1.809 14.541 1.809 48.401 0 91.341-55.194 97.69-103.902h-31.3zM645.905 512.649v-16.077c0-17.783 30.857-32.222 68.983-32.222s69.018 14.438 69.018 32.222v16.077c-13.995-12.459-39.117-20.48-69.018-20.48s-55.023 8.021-68.983 20.48zM645.905 473.020v-16.043c0-16.555 26.59-30.174 60.928-32.017 10.206 18.091 39.834 30.549 76.937 30.754 0.034 0.444 0.137 0.819 0.137 1.263v16.043c-13.995-12.459-39.117-20.48-69.018-20.48s-55.023 8.021-68.983 20.48zM645.905 552.311v-16.077c0-17.818 30.857-32.256 68.983-32.256s69.018 14.438 69.018 32.256v16.077c-13.995-12.459-39.117-20.48-69.018-20.48s-55.023 7.987-68.983 20.48zM714.854 571.46c-29.935 0-54.989 8.021-68.983 20.48v-16.077c0-17.818 30.891-32.256 68.983-32.256 38.127 0 68.983 14.438 68.983 32.256v16.077c-13.926-12.459-39.049-20.48-68.983-20.48zM714.854 583.236c38.093 0 68.983 14.438 68.983 32.256s-30.891 32.222-68.983 32.222c-38.059 0-68.983-14.404-68.983-32.222s30.925-32.256 68.983-32.256zM866.645 380.075v-27.785c1.024-0.068 2.014-0.068 3.038-0.068 38.093 0 68.983 14.473 68.983 32.256v16.009c-13.961-12.39-39.083-20.412-68.983-20.412-1.058 0-2.014 0-3.038 0zM866.645 340.48v-23.654c1.024 0 2.014-0.137 3.038-0.137 38.093 0 68.983 14.473 68.983 32.256v11.947c-13.961-12.39-39.083-20.48-68.983-20.48-1.058 0-2.014 0-3.038 0.068zM869.683 510.737c38.093 0 68.983 14.438 68.983 32.256s-30.891 32.222-68.983 32.222-68.983-14.404-68.983-32.222 30.857-32.256 68.983-32.256zM865.109 419.738c0.99-2.867 1.536-5.871 1.536-8.943v-18.944c1.024 0 2.014-0.068 3.038-0.068 38.093 0 68.983 14.473 68.983 32.29v16.043c-13.961-12.425-39.083-20.446-68.983-20.446-1.536 0-3.038 0.034-4.574 0.068zM800.7 519.441v-16.077c0-17.818 30.857-32.256 68.983-32.256s68.983 14.438 68.983 32.256v16.077c-13.961-12.459-39.083-20.48-68.983-20.48s-55.023 8.021-68.983 20.48zM800.7 479.812v-16.077c0-3.174 0.956-6.178 2.833-9.079 23.962-2.867 43.349-11.127 54.033-22.63 3.891-0.341 7.953-0.546 12.083-0.546 38.093 0 68.983 14.438 68.983 32.256v16.077c-13.961-12.459-39.083-20.48-68.983-20.48s-54.989 7.987-68.949 20.48zM715.81 347.614v-16.077c0-17.783 30.891-32.256 68.983-32.256s68.983 14.473 68.983 32.256v16.077c-13.961-12.459-39.083-20.48-68.983-20.48s-55.023 7.987-68.983 20.48zM715.81 307.917v-11.947c0-17.852 30.891-32.256 68.983-32.256s68.983 14.404 68.983 32.256v11.947c-13.961-12.459-39.083-20.412-68.983-20.412s-55.023 7.953-68.983 20.412zM784.794 366.729c-29.935 0-55.023 7.987-68.983 20.48v-16.009c0-17.852 30.891-32.256 68.983-32.256s68.983 14.404 68.983 32.256v16.009c-13.961-12.459-39.049-20.48-68.983-20.48zM853.811 410.795c0-17.783-30.891-32.188-69.018-32.188-38.059 0-68.983 14.404-68.983 32.188 0 17.818 30.891 32.256 68.983 32.256s69.018-14.438 69.018-32.256zM492.988 497.22v-16.077c0-17.818 30.891-32.222 68.983-32.222 38.127 0 68.983 14.404 68.983 32.222v16.077c-13.926-12.459-39.049-20.48-68.983-20.48s-54.989 8.021-68.983 20.48zM492.988 457.591v-16.077c0-16.555 26.624-30.106 60.928-32.051 10.206 18.125 39.834 30.618 76.937 30.822 0.034 0.41 0.102 0.819 0.102 1.229v16.077c-13.926-12.459-39.049-20.48-68.983-20.48s-54.989 8.055-68.983 20.48zM492.988 401.852c0-15.872 24.678-29.082 57.105-31.744v25.259c0 0.785 0.137 1.673 0.205 2.458-24.747 1.877-45.193 9.25-57.31 20.105v-16.077zM492.988 536.849v-16.077c0-17.818 30.891-32.222 68.983-32.222 38.127 0 68.983 14.404 68.983 32.222v16.077c-13.926-12.459-39.049-20.48-68.983-20.48s-54.989 8.021-68.983 20.48zM492.988 366.387c0-15.94 24.678-29.082 57.105-31.744v23.586c-24.678 1.877-44.988 9.25-57.105 20.070v-11.913zM562.005 556.066c-29.935 0-55.023 7.987-68.983 20.446v-16.043c0-17.818 30.891-32.256 68.983-32.256 38.127 0 68.983 14.438 68.983 32.256v16.043c-13.961-12.493-39.049-20.446-68.983-20.446zM562.005 567.808c38.093 0 68.983 14.438 68.983 32.256s-30.857 32.222-68.983 32.222-68.983-14.404-68.983-32.222 30.891-32.256 68.983-32.256zM562.927 332.117v-16.009c0-17.852 30.891-32.256 68.983-32.256s69.018 14.404 69.018 32.256v16.009c-13.995-12.459-39.117-20.412-69.018-20.412s-55.023 7.953-68.983 20.412zM562.927 292.523v-12.015c0-17.783 30.891-32.256 68.983-32.256s69.018 14.473 69.018 32.256v12.015c-13.995-12.459-39.117-20.48-69.018-20.48s-55.023 8.021-68.983 20.48zM631.91 351.334c-29.935 0-54.989 7.987-68.983 20.48v-16.077c0-17.783 30.891-32.256 68.983-32.256s69.018 14.473 69.018 32.256v16.077c-13.995-12.493-39.083-20.48-69.018-20.48zM700.894 395.332c0-17.783-30.857-32.188-68.983-32.188-38.093 0-68.983 14.404-68.983 32.188 0 17.852 30.891 32.29 68.983 32.29 38.127 0 68.983-14.438 68.983-32.29z" />
<glyph unicode="&#xe63d;" d="M455.305 155.341c0-31.3 25.361-49.903 56.661-49.903 31.334 0 56.661 15.223 56.661 46.49 39.151 0 70.861 26.59 70.861 60.723h-255.044c0.034-34.133 31.744-57.31 70.861-57.31zM511.966 790.562c-129.092 0-233.745-104.653-233.745-233.813 0-57.651 20.924-110.148 55.569-150.869 30.003-35.226 47.411-90.829 50.108-124.962h256.137c2.731 34.133 20.105 89.668 50.142 124.962 34.679 40.721 55.603 93.321 55.603 151.040 0 129.126-104.687 233.643-233.813 233.643z" />
<glyph unicode="&#xe63e;" d="M512 789.333c-188.518 0-341.333-152.849-341.333-341.333s152.815-341.333 341.333-341.333c188.45 0 341.333 152.849 341.333 341.333s-152.883 341.333-341.333 341.333zM512 182.545c-146.398 0-265.489 119.057-265.489 265.455 0 146.364 119.091 265.455 265.489 265.455s265.455-119.091 265.455-265.455c0-146.398-119.057-265.455-265.455-265.455zM678.946 446.259l-66.458 115.2c-2.458 4.335-8.055 5.803-12.39 3.345l-44.544-25.702 15.121-26.214-26.18-15.053-15.087 26.146-44.51-25.668c-4.335-2.526-5.803-8.055-3.277-12.39l66.458-115.166c2.526-4.335 8.055-5.803 12.39-3.345l115.132 66.492c4.403 2.492 5.871 8.021 3.345 12.356zM565.453 312.593c0 33.143-26.829 60.006-59.938 60.006-33.075 0-59.938-26.863-59.938-60.006 0-33.075 26.863-59.938 59.972-59.938s59.904 26.863 59.904 59.938zM505.549 286.003c-14.711 0-26.658 11.947-26.624 26.59-0.034 14.746 11.913 26.658 26.624 26.658 14.677 0 26.624-11.947 26.624-26.658 0-14.643-11.947-26.59-26.624-26.59zM671.266 407.654l-96.256-55.569c3.345-5.871 5.939-12.151 7.68-18.637l98.611 56.9c4.745 2.765 6.417 8.875 3.652 13.619-2.833 4.847-8.943 6.451-13.687 3.686zM337.749 575.59c0-5.53 4.471-10.001 10.001-10.001h41.677l53.009-91.785-6.724-3.891c-20.685-11.981-27.785-38.468-15.872-59.153l26.044-45.056c4.54 5.052 9.66 9.591 15.326 13.414l-24.064 41.677c-6.417 11.127-2.594 25.395 8.533 31.881l6.758 3.857 37.786-65.399c4.949 0.922 10.069 1.468 15.326 1.468 2.389 0 4.745-0.273 7.134-0.478l-108.851 188.518c-1.775 3.106-5.086 4.983-8.636 4.983h-47.445c-5.564-0.034-10.001-4.506-10.001-10.035z" />
<glyph unicode="&#xe63f;" d="M854.357 503.671l-136.363 236.203c-5.12 8.875-16.521 11.913-25.429 6.793l-91.238-52.668 30.959-53.692-53.658-30.993-30.959 53.658-91.238-52.634c-8.909-5.154-11.947-16.555-6.793-25.429l136.363-236.169c5.086-8.875 16.486-11.913 25.361-6.758l236.169 136.294c8.909 5.154 11.981 16.521 6.827 25.395zM621.705 229.581c-0.068 67.925-55.057 122.982-122.982 122.982-67.857-0.034-122.914-55.023-122.914-122.982 0-67.823 55.057-122.914 122.914-122.914 67.959 0 122.914 55.057 122.982 122.914zM498.756 174.967c-30.174 0.034-54.682 24.542-54.613 54.613-0.068 30.208 24.474 54.682 54.579 54.682 30.106-0.034 54.647-24.474 54.647-54.682 0-30.071-24.542-54.579-54.613-54.613zM838.554 424.516l-197.325-113.971c6.827-12.083 12.117-24.883 15.735-38.229l202.138 116.736c9.796 5.666 13.141 18.159 7.475 27.955-5.632 9.796-18.193 13.141-28.023 7.509zM154.692 768.853c0-11.332 9.182-20.48 20.48-20.48h85.47l108.715-188.314-13.824-7.987c-42.394-24.474-56.969-78.882-32.495-121.276l53.385-92.467c9.284 10.411 19.763 19.729 31.437 27.58l-49.323 85.367c-13.175 22.835-5.325 52.122 17.476 65.297l13.824 7.987 77.483-134.212c10.172 2.048 20.651 3.14 31.403 3.14 4.949 0 9.796-0.546 14.677-0.956l-223.232 386.56c-3.618 6.349-10.411 10.24-17.749 10.24h-97.28c-11.264 0-20.446-9.182-20.446-20.48z" />
<glyph unicode="&#xe640;" d="M512 789.333c-188.484 0-341.333-152.849-341.333-341.333s152.849-341.333 341.333-341.333c188.518 0 341.333 152.849 341.333 341.333s-152.815 341.333-341.333 341.333zM512 182.511c-146.398 0-265.489 119.091-265.489 265.489s119.091 265.523 265.489 265.523 265.489-119.125 265.489-265.523-119.091-265.489-265.489-265.489zM366.49 415.778c3.994 0.956 8.055 1.604 12.22 1.604h21.47c12.971 0 25.122-4.881 34.167-13.79 9.114-9.011 14.131-20.548 14.131-34.099h100.932l46.933 81.374c-13.653 4.471-27.511 6.929-39.902 6.929h-11.435c37.547 27.409 64.683 50.142 64.683 92.433 0 53.589-43.145 97.587-96.358 97.587-53.316 0-96.495-44.339-96.495-97.929 0-42.291 27.136-64.717 64.751-92.092h-11.469c-32.358-0.068-77.585-16.521-103.629-42.018zM615.117 443.29l-43.179-74.684c9.591-1.673 18.33-5.973 25.259-12.868 9.182-9.011 13.995-20.924 13.995-33.929v-1.024h61.542v52.736c0.068 29.764-26.283 54.955-57.617 69.769zM566.852 357.99h-128.068v13.244c0 19.763-15.292 34.714-35.055 34.714h-21.436c-19.729 0-36.489-14.95-36.489-34.714v-69.393c0-13.21 7.509-25.225 18.364-31.744l1.229-1.229c0.137-0.068 0.273-0.137 0.41-0.205l0.341 0.341c4.881-2.56 10.411-3.994 16.145-3.994h184.559c19.797 0 35.055 17.067 35.055 36.83v21.47c0.034 19.763-15.223 34.679-35.055 34.679zM357.956 371.234c0 6.144 2.628 11.708 7.066 15.974 4.54 4.369 10.786 6.588 17.237 6.588h21.47c3.277 0 6.349-0.649 9.182-1.741l-54.955-54.921v34.099zM364.305 285.525c-3.925 4.437-6.349 10.172-6.349 16.316v16.964l65.058 65.058c2.389-3.652 3.618-7.953 3.618-12.629v-23.415l-62.327-62.293zM382.293 277.163c-2.355 0-4.676 0.375-6.895 1.058l67.584 67.55h38.912l-68.13-68.096 0.58-0.58-32.051 0.068zM431.548 277.163l68.676 68.676h36.762l-68.13-68.096 0.58-0.58h-37.888zM486.605 277.163l68.676 68.676h11.605c6.417 0 12.083-2.15 16.35-6.417 0.99-0.922 1.843-2.014 2.594-3.106l-0.887 0.956-60.143-60.109h-38.195zM589.722 301.841c0-6.417-2.253-12.766-6.656-17.408-4.403-4.574-10.069-7.27-16.213-7.27h-23.757l46.626 46.592c0-0.171 0-0.341 0-0.512v-21.402z" />
<glyph unicode="&#xe641;" d="M241.698 375.569c7.1 1.741 14.336 2.867 21.811 2.867h38.263c23.211 0 44.783-8.738 60.928-24.644 16.247-16.077 25.225-36.557 25.225-60.826h179.917l83.763 145.067c-24.439 7.953-49.050 12.39-71.134 12.39h-20.446c67.004 48.879 115.405 89.395 115.405 164.864 0 95.607-77.039 174.080-171.998 174.080-95.095 0-172.1-79.087-172.1-174.626 0-75.435 48.401-115.405 115.507-164.25h-20.514c-57.515-0.068-138.206-29.491-184.627-74.923zM685.158 424.687l-76.902-133.154c17.067-2.935 32.597-10.65 44.988-22.903 16.316-16.043 24.917-37.308 24.917-60.518v-1.946h109.705v94.106c0.068 53.077-46.831 97.894-102.707 124.416zM599.108 272.555h-228.42v23.552c0 35.191-27.307 61.85-62.532 61.85h-38.263c-35.226 0.034-65.092-26.624-65.092-61.815v-123.802c0-23.484 13.346-44.885 32.7-56.559l2.219-2.185c0.239-0.137 0.478-0.239 0.717-0.375l0.58 0.614c8.772-4.608 18.603-7.168 28.877-7.168h329.216c35.191 0 62.532 30.515 62.532 65.707v38.298c0 35.26-27.341 61.884-62.532 61.884zM226.509 296.175c0 10.923 4.676 20.855 12.629 28.501 8.055 7.782 19.183 11.674 30.72 11.674h38.298c5.837 0 11.332-0.99 16.35-3.004l-97.997-98.031v60.86zM237.875 143.292c-6.997 7.817-11.366 18.159-11.366 29.082v30.242l116.019 116.019c4.301-6.485 6.451-14.131 6.451-22.46v-41.745l-111.104-111.138zM269.892 128.341c-4.267 0-8.397 0.717-12.322 2.014l120.525 120.525h69.393l-121.481-121.515 1.024-1.024h-57.139zM357.683 128.341l122.505 122.539h65.536l-121.481-121.515 1.024-1.024h-67.584zM455.919 128.341l122.47 122.539h20.651c11.332 0 21.538-3.857 29.218-11.503 1.775-1.707 3.243-3.55 4.642-5.53l-1.741 1.741-107.213-107.247h-68.028zM639.898 172.373c0-11.537-4.028-22.767-12.049-31.027-7.817-8.124-17.818-13.005-28.809-13.005h-42.325l83.149 83.217c0-0.307 0.034-0.614 0.034-0.819v-38.366z" />
<glyph unicode="&#xe642;" d="M787.661 721.374h-551.287c-36.25 0-65.707-29.457-65.707-65.741v-415.334c0-36.215 29.457-65.673 65.707-65.673h551.287c36.25 0 65.673 29.457 65.673 65.673v415.334c0 36.284-29.423 65.741-65.673 65.741zM811.793 240.299c0-13.312-10.82-24.132-24.132-24.132h-551.287c-13.312 0-24.166 10.82-24.166 24.132v415.334c0 13.312 10.854 24.132 24.166 24.132h551.287c13.312 0 24.132-10.82 24.132-24.132v-415.334zM654.711 460.698c-7.953 13.551-21.675 13.961-30.515 0.99l-58.914-86.596c-5.495-8.090-16.486-10.206-24.542-4.745-8.055 5.53-10.138 16.486-4.676 24.576l17.135 25.156-100.318 153.771c-8.602 13.141-21.777 12.663-29.355-1.126l-152.371-277.743c-7.543-13.756-0.853-25.020 14.848-25.020l452.403-0.102c15.735-0.068 22.050 10.991 14.131 24.542l-97.826 166.298z" />
</font>
</defs>
</svg>
