<?xml version="1.0" encoding="UTF-8" standalone="no"?>
<svg xmlns="http://www.w3.org/2000/svg">
<metadata>
This is a SVG font generated by Alphabet Type GmbH.
</metadata>
<defs>
<font id="PorscheNextWPaBold" horiz-adv-x="505" >
<font-face units-per-em="1000" ascent="1024" descent="-440" />
<missing-glyph horiz-adv-x="505" />
<glyph unicode="&#x20;" horiz-adv-x="183" />
<glyph unicode="&#x21;" horiz-adv-x="238" d="M79 233L159 233L186 712L52 712ZM58 0L180 0L180 135L58 135Z"/>
<glyph unicode="&#x22;" horiz-adv-x="351" d="M235 475L289 475L317 624L317 712L207 712L207 624ZM62 475L115 475L143 624L143 712L34 712L34 624Z"/>
<glyph unicode="&#x23;" horiz-adv-x="668" d="M101 459L183 459L127 253L23 253L23 153L100 153L59 0L161 0L202 153L357 153L316 0L418 0L459 153L567 153L567 253L486 253L542 459L645 459L645 559L569 559L610 712L508 712L467 559L312 559L353 712L251 712L210 559L101 559ZM285 459L440 459L384 253L229 253Z"/>
<glyph unicode="&#x24;" horiz-adv-x="560" d="M54 219C62 71 109 4 241 -9L241 -104L358 -104L358 -9C491 6 544 77 544 193C544 316 485 373 362 404L306 418C229 437 202 453 202 517C202 578 233 600 301 600C378 600 400 581 405 488L538 488C533 630 494 704 360 720L360 816L243 816L243 721C112 705 63 632 63 515C63 378 128 329 250 298L305 284C379 265 405 246 405 189C405 122 378 98 301 98C217 98 194 127 189 219Z"/>
<glyph unicode="&#x25;" horiz-adv-x="730" d="M169 348C281 348 315 402 315 536C315 663 285 720 169 720C53 720 23 663 23 536C23 401 57 348 169 348ZM169 423C129 423 123 440 123 536C123 624 129 637 169 637C209 637 215 624 215 536C215 440 209 423 169 423ZM91 0L184 0L640 712L547 712ZM561 -8C673 -8 707 46 707 180C707 307 677 364 561 364C445 364 415 307 415 180C415 45 449 -8 561 -8ZM561 67C521 67 515 84 515 180C515 268 521 281 561 281C601 281 607 268 607 180C607 84 601 67 561 67Z"/>
<glyph unicode="&#x26;" horiz-adv-x="635" d="M28 188C28 73 86 -12 274 -12C351 -12 409 8 449 39L484 0L643 0L523 139C536 176 542 220 542 269L542 371L427 371L427 251L280 423C239 471 209 502 209 542C209 583 225 605 285 605C352 605 366 579 369 488L492 488C489 647 455 724 287 724C133 724 73 661 73 543C73 481 100 442 148 384C63 323 28 275 28 188ZM276 95C193 95 162 127 162 195C162 241 175 265 219 302L379 120C356 103 321 95 276 95Z"/>
<glyph unicode="&#x27;" horiz-adv-x="177" d="M62 475L115 475L143 624L143 712L34 712L34 624Z"/>
<glyph unicode="&#x28;" horiz-adv-x="324" d="M174 312C174 652 214 676 282 676L298 676L298 772L270 772C135 772 62 711 62 312C62 -87 135 -148 270 -148L298 -148L298 -52L282 -52C214 -52 174 -28 174 312Z"/>
<glyph unicode="&#x29;" horiz-adv-x="324" d="M150 312C150 -28 110 -52 42 -52L26 -52L26 -148L54 -148C189 -148 262 -87 262 312C262 711 189 772 54 772L26 772L26 676L42 676C110 676 150 652 150 312Z"/>
<glyph unicode="&#x2a;" horiz-adv-x="398" d="M22 553L79 534L146 524L97 477L62 429L133 377L168 426L198 486L228 425L263 377L334 428L298 476L249 524L318 534L375 552L348 635L290 617L230 585L242 653L242 712L154 712L154 653L166 586L106 618L49 636Z"/>
<glyph unicode="&#x2b;" horiz-adv-x="560" d="M56 240L230 240L230 60L330 60L330 240L504 240L504 340L330 340L330 520L230 520L230 340L56 340Z"/>
<glyph unicode="&#x2c;" horiz-adv-x="217" d="M49 135L49 -128L115 -128L170 39L170 135Z"/>
<glyph unicode="&#x2d;" horiz-adv-x="388" d="M48 241L340 241L340 341L48 341Z"/>
<glyph unicode="&#x2e;" horiz-adv-x="217" d="M48 0L169 0L169 135L48 135Z"/>
<glyph unicode="&#x2f;" horiz-adv-x="488" d="M34 0L134 0L454 712L354 712Z"/>
<glyph unicode="&#x30;" horiz-adv-x="560" d="M280 -12C467 -12 527 74 527 359C527 627 476 724 280 724C84 724 33 626 33 359C33 73 93 -12 280 -12ZM280 98C189 98 176 137 176 359C176 563 196 600 280 600C364 600 384 563 384 359C384 137 371 98 280 98Z"/>
<glyph unicode="&#x31;" horiz-adv-x="560" d="M251 0L387 0L387 712L282 712L66 630L66 506L251 573Z"/>
<glyph unicode="&#x32;" horiz-adv-x="560" d="M53 0L505 0L505 110L186 110C189 158 227 188 296 231L377 283C454 331 515 388 515 505C515 641 453 724 280 724C101 724 47 637 42 488L175 488C180 577 204 600 278 600C346 600 378 576 378 505C378 423 335 393 275 355L193 304C97 244 53 179 53 79Z"/>
<glyph unicode="&#x33;" horiz-adv-x="560" d="M32 219C40 51 105 -12 277 -12C455 -12 522 64 522 197C522 290 487 341 422 366C482 394 513 447 513 514C513 642 451 724 276 724C100 724 42 637 37 488L169 488C174 577 200 600 274 600C342 600 376 576 376 505C376 441 346 413 273 413L214 413L214 295L275 295C358 295 386 265 386 192C386 124 356 98 279 98C196 98 170 127 165 219Z"/>
<glyph unicode="&#x34;" horiz-adv-x="560" d="M25 142L321 142L321 0L451 0L451 142L532 142L532 254L451 254L451 712L263 712L25 246ZM152 254L321 593L321 254Z"/>
<glyph unicode="&#x35;" horiz-adv-x="560" d="M53 277L177 277C188 326 211 347 278 347C358 347 384 317 384 225C384 126 361 98 278 98C207 98 178 121 174 192L41 192C49 66 115 -12 280 -12C447 -12 521 64 521 229C521 396 445 463 297 463C246 463 202 448 174 417L187 588L486 588L486 712L82 712L53 318Z"/>
<glyph unicode="&#x36;" horiz-adv-x="560" d="M40 226C40 50 124 -12 283 -12C442 -12 526 50 526 226C526 398 445 463 300 463C284 463 268 460 252 455L418 712L266 712L115 470C63 386 40 330 40 226ZM176 225C176 317 203 347 283 347C363 347 389 317 389 225C389 126 366 98 283 98C199 98 176 126 176 225Z"/>
<glyph unicode="&#x37;" horiz-adv-x="560" d="M44 588L370 588L105 0L250 0L514 602L514 712L44 712Z"/>
<glyph unicode="&#x38;" horiz-adv-x="560" d="M37 199C37 54 107 -12 280 -12C452 -12 523 54 523 199C523 288 494 337 433 364C482 392 511 442 511 522C511 639 455 724 280 724C108 724 48 639 48 522C48 441 76 391 125 363C65 338 37 287 37 199ZM173 199C173 267 197 296 280 296C363 296 386 267 386 199C386 128 363 98 280 98C197 98 173 128 173 199ZM280 410C203 410 183 441 183 505C183 570 203 600 280 600C356 600 377 570 377 505C377 441 356 410 280 410Z"/>
<glyph unicode="&#x39;" horiz-adv-x="560" d="M261 242C274 242 288 244 303 247L150 0L297 0L444 244C497 332 519 380 519 487C519 666 435 724 278 724C121 724 37 666 37 487C37 316 118 242 261 242ZM278 354C201 354 173 386 173 478C173 570 196 600 278 600C360 600 383 570 383 478C383 386 357 354 278 354Z"/>
<glyph unicode="&#x3a;" horiz-adv-x="217" d="M48 337L169 337L169 472L48 472ZM48 0L169 0L169 135L48 135Z"/>
<glyph unicode="&#x3b;" horiz-adv-x="217" d="M48 337L169 337L169 472L48 472ZM48 135L48 -128L114 -128L169 39L169 135Z"/>
<glyph unicode="&#x3c;" horiz-adv-x="560" d="M46 240L494 65L494 170L166 290L494 410L494 515L46 340Z"/>
<glyph unicode="&#x3d;" horiz-adv-x="560" d="M56 351L504 351L504 452L56 452ZM56 128L504 128L504 229L56 229Z"/>
<glyph unicode="&#x3e;" horiz-adv-x="560" d="M66 410L393 290L66 170L66 65L514 240L514 340L66 515Z"/>
<glyph unicode="&#x3f;" horiz-adv-x="408" d="M112 233L228 233L228 258C228 353 386 354 386 529C386 637 319 712 155 712L24 712L24 590L151 590C220 590 253 571 253 511C253 420 112 390 112 270ZM110 0L231 0L231 135L110 135Z"/>
<glyph unicode="&#x40;" horiz-adv-x="869" d="M233 284C233 103 282 48 399 48C454 48 502 67 521 130C542 63 598 48 659 48C746 48 833 91 833 316C833 631 722 724 435 724C150 724 34 630 34 290C34 -29 132 -146 460 -146L513 -146L513 -46L460 -46C224 -46 151 19 151 290C151 565 225 611 435 611C646 611 718 565 718 316C718 153 699 138 663 138C638 138 626 156 626 203L626 512L511 512L511 463C488 508 449 520 405 520C289 520 233 465 233 284ZM357 284C357 397 377 417 430 417C482 417 502 397 502 284C502 159 480 138 430 138C377 138 357 161 357 284Z"/>
<glyph unicode="&#x41;" horiz-adv-x="589" d="M4 0L130 0L167 135L406 135L444 0L585 0L379 712L210 712ZM287 567L375 249L199 249Z"/>
<glyph unicode="&#x42;" horiz-adv-x="581" d="M62 0L350 0C490 0 553 63 553 204C553 277 525 344 454 371C498 391 531 433 531 520C531 645 469 712 324 712L62 712ZM332 301C384 301 412 282 412 206C412 133 384 110 333 110L199 110L199 301ZM313 588C374 588 393 562 393 502C393 438 376 415 315 415L199 415L199 588Z"/>
<glyph unicode="&#x43;" horiz-adv-x="586" d="M310 -12C497 -12 551 67 559 259L426 259C421 134 401 98 310 98C195 98 178 125 178 360C178 566 195 600 310 600C401 600 421 567 426 444L559 444C551 638 518 724 310 724C99 724 35 649 35 358C35 78 89 -12 310 -12Z"/>
<glyph unicode="&#x44;" horiz-adv-x="620" d="M62 0L306 0C526 0 585 89 585 358C585 637 521 712 310 712L62 712ZM310 588C422 588 442 554 442 360C442 136 422 110 310 110L199 110L199 588Z"/>
<glyph unicode="&#x45;" horiz-adv-x="520" d="M62 0L484 0L484 110L199 110L199 299L460 299L460 415L199 415L199 588L484 588L484 712L62 712Z"/>
<glyph unicode="&#x46;" horiz-adv-x="504" d="M62 0L199 0L199 299L453 299L453 415L199 415L199 588L477 588L477 712L62 712Z"/>
<glyph unicode="&#x47;" horiz-adv-x="601" d="M310 276L435 276L435 259C435 126 407 98 310 98C195 98 178 125 178 360C178 566 195 600 310 600C390 600 426 578 431 488L563 488C552 644 508 724 310 724C99 724 35 649 35 358C35 78 89 -12 310 -12C511 -12 569 75 569 273L569 392L310 392Z"/>
<glyph unicode="&#x48;" horiz-adv-x="631" d="M62 0L199 0L199 299L432 299L432 0L569 0L569 712L432 712L432 415L199 415L199 712L62 712Z"/>
<glyph unicode="&#x49;" horiz-adv-x="261" d="M62 0L199 0L199 712L62 712Z"/>
<glyph unicode="&#x4a;" horiz-adv-x="403" d="M15 110L15 0L116 0C285 0 345 78 345 217L345 712L208 712L208 203C208 135 176 110 109 110Z"/>
<glyph unicode="&#x4b;" horiz-adv-x="591" d="M62 0L199 0L199 201L273 301L440 0L593 0L363 408L590 712L439 712L199 379L199 712L62 712Z"/>
<glyph unicode="&#x4c;" horiz-adv-x="486" d="M62 0L473 0L473 110L199 110L199 712L62 712Z"/>
<glyph unicode="&#x4d;" horiz-adv-x="778" d="M170 0L190 469L339 0L432 0L579 469L601 0L733 0L697 712L535 712L391 238L240 712L79 712L47 0Z"/>
<glyph unicode="&#x4e;" horiz-adv-x="631" d="M62 0L190 0L190 474L433 0L569 0L569 712L441 712L441 255L207 712L62 712Z"/>
<glyph unicode="&#x4f;" horiz-adv-x="620" d="M310 -12C531 -12 585 78 585 358C585 649 521 724 310 724C99 724 35 649 35 358C35 78 89 -12 310 -12ZM310 98C195 98 178 125 178 360C178 566 195 600 310 600C425 600 442 566 442 360C442 125 425 98 310 98Z"/>
<glyph unicode="&#x50;" horiz-adv-x="560" d="M62 0L199 0L199 247L322 247C471 247 536 299 536 483C536 652 473 712 324 712L62 712ZM303 588C374 588 395 569 395 478C395 379 377 363 303 363L199 363L199 588Z"/>
<glyph unicode="&#x51;" horiz-adv-x="620" d="M310 -12C390 -12 439 4 479 36L512 0L649 0L546 113C574 173 585 246 585 358C585 649 521 724 310 724C99 724 35 649 35 358C35 78 89 -12 310 -12ZM317 213L402 119C382 102 353 98 310 98C195 98 178 125 178 360C178 566 195 600 310 600C425 600 442 566 442 360C442 307 441 265 438 232L317 366Z"/>
<glyph unicode="&#x52;" horiz-adv-x="574" d="M62 0L199 0L199 247L284 247L406 0L557 0L416 271C496 290 536 351 536 483C536 659 468 712 319 712L62 712ZM297 588C371 588 395 574 395 478C395 373 370 363 301 363L199 363L199 588Z"/>
<glyph unicode="&#x53;" horiz-adv-x="546" d="M29 219C37 51 96 -12 272 -12C452 -12 517 61 517 193C517 316 456 373 333 404L278 418C201 438 173 453 173 517C173 578 204 600 272 600C349 600 371 581 376 488L509 488C504 651 455 724 270 724C97 724 35 647 35 515C35 378 99 329 221 298L276 284C351 265 378 246 378 189C378 122 351 98 274 98C190 98 169 127 164 219Z"/>
<glyph unicode="&#x54;" horiz-adv-x="529" d="M15 588L197 588L197 0L333 0L333 588L514 588L514 712L15 712Z"/>
<glyph unicode="&#x55;" horiz-adv-x="625" d="M57 229C57 70 125 -12 313 -12C500 -12 568 70 568 229L568 712L432 712L432 226C432 129 397 98 313 98C229 98 194 129 194 226L194 712L57 712Z"/>
<glyph unicode="&#x56;" horiz-adv-x="589" d="M210 0L379 0L585 712L458 712L302 145L145 712L4 712Z"/>
<glyph unicode="&#x57;" horiz-adv-x="898" d="M177 0L337 0L453 449L565 0L721 0L892 712L766 712L643 163L511 712L403 712L270 162L146 712L6 712Z"/>
<glyph unicode="&#x58;" horiz-adv-x="550" d="M0 0L137 0L269 248L400 0L550 0L355 361L545 712L407 712L281 474L155 712L5 712L194 361Z"/>
<glyph unicode="&#x59;" horiz-adv-x="560" d="M212 0L349 0L349 270L555 712L426 712L288 414L151 712L5 712L212 270Z"/>
<glyph unicode="&#x5a;" horiz-adv-x="500" d="M22 588L311 588L28 83L28 0L474 0L474 110L188 110L480 629L480 712L22 712Z"/>
<glyph unicode="&#x5b;" horiz-adv-x="319" d="M64 -148L293 -148L293 -50L175 -50L175 674L293 674L293 772L64 772Z"/>
<glyph unicode="&#x5c;" horiz-adv-x="488" d="M134 712L34 712L354 0L454 0Z"/>
<glyph unicode="&#x5d;" horiz-adv-x="319" d="M255 772L26 772L26 674L143 674L143 -50L26 -50L26 -148L255 -148Z"/>
<glyph unicode="&#x5e;" horiz-adv-x="560" d="M97 449L200 449L280 610L360 449L464 449L329 712L231 712Z"/>
<glyph unicode="&#x5f;" horiz-adv-x="622" d="M36 -14L36 -114L586 -114L586 -14Z"/>
<glyph unicode="&#x60;" horiz-adv-x="489" d="M214 568L299 568L226 724L101 724Z"/>
<glyph unicode="&#x61;" horiz-adv-x="465" d="M25 129C25 37 80 -8 175 -8C239 -8 275 17 292 52L292 0L418 0L418 333C418 426 392 512 232 512C90 512 40 449 37 337L154 337C155 394 175 405 224 405C275 405 286 385 286 326L286 306L223 294C87 268 25 229 25 129ZM286 167C286 108 258 87 213 87C174 87 155 106 155 143C155 182 178 200 245 211L286 217Z"/>
<glyph unicode="&#x62;" horiz-adv-x="515" d="M51 0L175 0L175 65C196 6 241 -8 293 -8C422 -8 483 55 483 252C483 452 429 512 297 512C249 512 207 497 183 453L183 712L51 712ZM266 93C205 93 183 114 183 252C183 381 205 399 266 399C330 399 348 379 348 252C348 117 330 93 266 93Z"/>
<glyph unicode="&#x63;" horiz-adv-x="466" d="M244 -8C377 -8 433 54 439 198L317 198C313 117 298 93 243 93C180 93 166 113 166 247C166 379 180 399 243 399C297 399 312 379 317 301L439 301C433 443 391 512 244 512C88 512 31 445 31 252C31 62 82 -8 244 -8Z"/>
<glyph unicode="&#x64;" horiz-adv-x="514" d="M214 -8C269 -8 313 9 337 65L337 0L463 0L463 712L331 712L331 457C307 500 269 512 222 512C94 512 31 449 31 252C31 52 84 -8 214 -8ZM248 93C184 93 166 117 166 252C166 379 184 399 248 399C309 399 331 381 331 252C331 114 309 93 248 93Z"/>
<glyph unicode="&#x65;" horiz-adv-x="474" d="M248 -8C378 -8 433 55 441 155L323 155C318 104 297 90 247 90C185 90 165 108 163 225L445 225L445 251C445 428 403 512 243 512C89 512 31 438 31 250C31 61 87 -8 248 -8ZM245 403C295 403 315 386 320 311L165 311C172 390 197 403 245 403Z"/>
<glyph unicode="&#x66;" horiz-adv-x="338" d="M19 395L77 395L77 0L209 0L209 395L324 395L324 504L209 504L209 539C209 586 230 599 267 599L330 599L330 712L247 712C134 712 77 660 77 547L77 504L19 504Z"/>
<glyph unicode="&#x67;" horiz-adv-x="514" d="M51 -39C59 -151 97 -216 254 -216C399 -216 463 -158 463 -17L463 504L339 504L339 437C316 496 274 512 222 512C94 512 31 449 31 257C31 62 84 1 214 1C263 1 306 16 331 63L331 -25C331 -97 308 -115 252 -115C193 -115 180 -95 177 -39ZM248 102C184 102 166 126 166 257C166 380 184 399 248 399C312 399 331 380 331 257C331 123 309 102 248 102Z"/>
<glyph unicode="&#x68;" horiz-adv-x="503" d="M51 0L183 0L183 300C183 378 201 397 254 397C306 397 323 375 323 298L323 0L456 0L456 327C456 448 413 512 298 512C242 512 204 494 183 457L183 712L51 712Z"/>
<glyph unicode="&#x69;" horiz-adv-x="234" d="M51 592L183 592L183 712L51 712ZM51 0L183 0L183 504L51 504Z"/>
<glyph unicode="&#x6a;" horiz-adv-x="234" d="M51 592L183 592L183 712L51 712ZM51 -42C51 -85 29 -107 -14 -107L-47 -107L-47 -208L6 -208C133 -208 183 -149 183 -25L183 504L51 504Z"/>
<glyph unicode="&#x6b;" horiz-adv-x="485" d="M51 0L183 0L183 131L233 195L341 0L488 0L322 297L488 504L346 504L183 296L183 712L51 712Z"/>
<glyph unicode="&#x6c;" horiz-adv-x="234" d="M51 0L183 0L183 712L51 712Z"/>
<glyph unicode="&#x6d;" horiz-adv-x="776" d="M51 0L183 0L183 306C183 378 201 397 254 397C306 397 323 375 323 298L323 0L456 0L456 306C456 378 474 397 527 397C579 397 596 375 596 298L596 0L729 0L729 327C729 448 686 512 571 512C502 512 455 483 438 435C415 486 371 512 298 512C234 512 194 488 177 445L177 504L51 504Z"/>
<glyph unicode="&#x6e;" horiz-adv-x="503" d="M51 0L183 0L183 298C183 375 199 397 254 397C306 397 323 375 323 298L323 0L456 0L456 327C456 448 413 512 298 512C234 512 194 488 177 445L177 504L51 504Z"/>
<glyph unicode="&#x6f;" horiz-adv-x="496" d="M248 -8C411 -8 465 56 465 252C465 446 408 512 248 512C88 512 31 452 31 252C31 56 85 -8 248 -8ZM248 93C184 93 165 114 165 252C165 379 184 399 248 399C313 399 330 379 330 252C330 115 313 93 248 93Z"/>
<glyph unicode="&#x70;" horiz-adv-x="515" d="M51 -208L183 -208L183 47C206 3 246 -8 293 -8C422 -8 483 55 483 252C483 452 429 512 297 512C244 512 200 495 177 440L177 504L51 504ZM266 93C205 93 183 114 183 252C183 381 205 399 266 399C330 399 348 379 348 252C348 117 330 93 266 93Z"/>
<glyph unicode="&#x71;" horiz-adv-x="514" d="M331 -208L463 -208L463 504L337 504L337 445C314 498 273 512 222 512C94 512 31 449 31 252C31 52 84 -8 214 -8C263 -8 306 7 331 52ZM248 93C184 93 166 117 166 252C166 379 184 399 248 399C312 399 331 379 331 252C331 117 312 93 248 93Z"/>
<glyph unicode="&#x72;" horiz-adv-x="319" d="M48 0L180 0L180 335C180 378 197 395 240 395L306 395L306 504L222 504C98 504 48 453 48 330Z"/>
<glyph unicode="&#x73;" horiz-adv-x="439" d="M28 153C33 62 59 -8 215 -8C366 -8 412 53 412 141C412 226 373 274 286 291L224 303C169 314 156 327 156 359C156 396 171 407 222 407C271 407 286 394 289 341L404 341C404 460 355 512 219 512C98 512 30 462 30 357C30 261 84 217 160 202L222 190C273 180 286 172 286 137C286 102 274 86 219 86C168 86 149 100 146 153Z"/>
<glyph unicode="&#x74;" horiz-adv-x="341" d="M14 395L72 395L72 175C72 47 121 0 245 0L323 0L323 101L270 101C221 101 204 113 204 168L204 395L325 395L325 504L204 504L204 624L76 624L76 504L14 504Z"/>
<glyph unicode="&#x75;" horiz-adv-x="503" d="M47 177C47 56 90 -8 205 -8C269 -8 309 17 326 61L326 0L452 0L452 504L319 504L319 192C319 113 302 93 249 93C196 93 179 114 179 194L179 504L47 504Z"/>
<glyph unicode="&#x76;" horiz-adv-x="470" d="M173 0L297 0L467 504L348 504L244 166L140 504L3 504Z"/>
<glyph unicode="&#x77;" horiz-adv-x="721" d="M151 0L276 0L359 280L448 0L570 0L718 504L599 504L515 176L422 504L318 504L224 176L141 504L4 504Z"/>
<glyph unicode="&#x78;" horiz-adv-x="460" d="M6 0L134 0L223 156L309 0L454 0L306 256L454 504L326 504L236 348L151 504L6 504L154 247Z"/>
<glyph unicode="&#x79;" horiz-adv-x="470" d="M43 -107L43 -208L98 -208C211 -208 247 -154 282 -48L467 504L349 504L245 165L141 504L3 504L181 -18L175 -39C159 -95 129 -107 84 -107Z"/>
<glyph unicode="&#x7a;" horiz-adv-x="417" d="M27 395L229 395L29 72L29 0L388 0L388 101L186 101L392 432L392 504L27 504Z"/>
<glyph unicode="&#x7b;" horiz-adv-x="357" d="M105 435C105 371 81 359 45 359L16 359L16 265L45 265C81 265 105 253 105 189L105 0C105 -108 165 -148 257 -148L331 -148L331 -50L284 -50C232 -50 216 -34 216 22L216 184C216 268 199 300 138 312C199 324 216 356 216 440L216 602C216 658 232 674 284 674L331 674L331 772L257 772C165 772 105 732 105 624Z"/>
<glyph unicode="&#x7c;" horiz-adv-x="336" d="M120 -208L216 -208L216 784L120 784Z"/>
<glyph unicode="&#x7d;" horiz-adv-x="356" d="M252 624C252 732 192 772 100 772L26 772L26 674L72 674C124 674 140 658 140 602L140 440C140 356 163 324 223 312C163 300 140 268 140 184L140 22C140 -34 124 -50 72 -50L26 -50L26 -148L100 -148C192 -148 252 -108 252 0L252 189C252 253 276 265 312 265L340 265L340 359L312 359C276 359 252 371 252 435Z"/>
<glyph unicode="&#x7e;" horiz-adv-x="560" d="M57 240C75 259 109 296 173 296C264 296 297 216 389 216C453 216 487 253 505 272L505 372C487 353 453 316 389 316C307 316 272 396 173 396C109 396 75 359 57 340Z"/>
<glyph unicode="&#xa0;" horiz-adv-x="183" />
<glyph unicode="&#xa1;" horiz-adv-x="238" d="M58 577L180 577L180 712L58 712ZM52 0L186 0L159 479L79 479Z"/>
<glyph unicode="&#xa2;" horiz-adv-x="560" d="M228 0L345 0L345 100C441 117 485 179 489 302L368 302C363 221 344 197 286 197C220 197 202 217 202 351C202 483 220 503 286 503C344 503 362 482 367 405L492 405C487 526 451 595 347 612L347 712L230 712L230 612C114 596 68 523 68 356C68 192 109 116 228 100Z"/>
<glyph unicode="&#xa3;" horiz-adv-x="560" d="M24 276L86 276L86 0L535 0L535 110L223 110L223 276L382 276L382 392L223 392L223 505C223 576 251 600 312 600C377 600 397 577 402 488L535 488C530 637 480 724 309 724C149 724 86 641 86 505L86 392L24 392Z"/>
<glyph unicode="&#xa4;" horiz-adv-x="560" d="M139 168L190 219C216 203 246 195 280 195C314 195 344 203 370 219L421 168L476 223L425 274C440 299 449 329 449 364C449 399 440 427 425 454L476 505L421 560L370 509C343 524 313 533 280 533C245 533 217 524 190 509L139 560L84 505L135 454C119 428 111 398 111 364C111 329 119 299 135 274L84 223ZM280 277C231 277 195 313 195 364C195 415 231 450 280 450C328 450 365 415 365 364C365 313 328 277 280 277Z"/>
<glyph unicode="&#xa5;" horiz-adv-x="560" d="M49 256L211 256L211 204L49 204L49 106L211 106L211 0L347 0L347 106L513 106L513 204L347 204L347 256L513 256L513 354L387 354L554 712L425 712L287 412L152 712L6 712L171 354L49 354Z"/>
<glyph unicode="&#xa6;" horiz-adv-x="336" d="M120 404L216 404L216 784L120 784ZM120 187L120 -208L216 -208L216 187Z"/>
<glyph unicode="&#xa7;" horiz-adv-x="540" d="M317 303C364 286 383 268 383 237C383 218 378 207 369 195L475 150C495 173 515 214 515 257C515 338 469 379 385 410L282 447C241 462 189 477 189 537C189 577 212 605 279 605C347 605 372 578 375 493L501 493C493 642 454 724 275 724C130 724 53 655 53 531C53 427 109 380 186 351ZM39 6C47 -134 89 -216 265 -216C410 -216 487 -147 487 -34C487 73 431 115 354 144L223 193C176 210 157 228 157 259C157 275 162 289 171 300L65 346C44 321 25 285 25 238C25 158 71 117 155 86L258 48C298 33 351 20 351 -40C351 -80 328 -109 261 -109C194 -109 168 -79 165 6Z"/>
<glyph unicode="&#xa8;" horiz-adv-x="489" d="M284 587L389 587L389 701L284 701ZM100 587L205 587L205 701L100 701Z"/>
<glyph unicode="&#xa9;" horiz-adv-x="696" d="M348 -12C585 -12 660 88 660 356C660 624 585 724 348 724C111 724 36 624 36 356C36 88 111 -12 348 -12ZM348 43C150 43 92 126 92 356C92 585 150 665 348 665C545 665 603 585 603 356C603 126 545 43 348 43ZM352 152C470 152 492 209 497 316L405 316C402 249 396 233 352 233C296 233 289 243 289 364C289 468 296 483 352 483C395 483 402 465 405 402L497 402C492 517 478 572 352 572C224 572 187 535 187 364C187 211 214 152 352 152Z"/>
<glyph unicode="&#xaa;" horiz-adv-x="381" d="M48 227L330 227L330 296L48 296ZM44 448C44 381 84 348 151 348C198 348 223 367 234 395L234 356L329 356L329 588C329 652 311 720 194 720C91 720 56 670 53 591L141 591C141 630 155 640 188 640C221 640 229 623 229 583L229 574L185 565C86 546 44 520 44 448ZM142 458C142 486 158 497 203 504L229 508L229 476C229 435 210 419 180 419C155 419 142 432 142 458Z"/>
<glyph unicode="&#xab;" horiz-adv-x="448" d="M309 64L414 64L330 256L414 448L309 448L213 256ZM120 64L225 64L141 256L225 448L120 448L24 256Z"/>
<glyph unicode="&#xac;" horiz-adv-x="560" d="M50 240L397 240L397 60L498 60L498 340L50 340Z"/>
<glyph unicode="&#xad;" horiz-adv-x="388" d="M48 241L340 241L340 341L48 341Z"/>
<glyph unicode="&#xae;" horiz-adv-x="425" d="M212 364C355 364 400 424 400 585C400 745 355 805 212 805C70 805 25 745 25 585C25 424 70 364 212 364ZM212 399C95 399 60 447 60 585C60 722 95 768 212 768C331 768 365 722 365 585C365 447 331 399 212 399ZM122 465L187 465L187 541L204 541L243 465L315 465L265 557C291 567 303 590 303 630C303 688 273 712 221 712L122 712ZM208 657C230 657 238 651 238 628C238 605 231 597 210 597L187 597L187 657Z"/>
<glyph unicode="&#xaf;" horiz-adv-x="489" d="M104 605L383 605L383 687L104 687Z"/>
<glyph unicode="&#xb0;" horiz-adv-x="326" d="M164 476C232 476 286 530 286 598C286 664 232 718 164 718C93 718 40 664 40 598C40 530 93 476 164 476ZM164 544C133 544 112 567 112 598C112 627 133 650 164 650C192 650 214 627 214 598C214 567 192 544 164 544Z"/>
<glyph unicode="&#xb1;" horiz-adv-x="560" d="M56 356L230 356L230 192L330 192L330 356L504 356L504 456L330 456L330 620L230 620L230 456L56 456ZM56 0L504 0L504 101L56 101Z"/>
<glyph unicode="&#xb2;" horiz-adv-x="325" d="M26 516L295 516L295 591L130 591C136 602 152 613 178 626L222 649C266 672 302 703 302 763C302 835 265 880 164 880C64 880 27 835 24 748L117 748C122 791 132 797 163 797C190 797 202 790 202 763C202 730 188 720 156 703L120 685C69 660 26 626 26 563Z"/>
<glyph unicode="&#xb3;" horiz-adv-x="325" d="M16 637C21 539 61 508 159 508C263 508 304 546 304 617C304 660 288 683 261 698C285 717 300 743 300 775C300 843 264 880 161 880C60 880 24 836 20 748L114 748C117 791 130 797 159 797C191 797 202 790 202 765C202 740 193 729 161 729L132 729L132 653L158 653C195 653 204 643 204 616C204 593 193 583 161 583C125 583 114 592 110 637Z"/>
<glyph unicode="&#xb4;" horiz-adv-x="489" d="M190 568L275 568L388 724L263 724Z"/>
<glyph unicode="&#xb5;" horiz-adv-x="526" d="M51 -208L173 -208L173 7C186 -3 204 -8 229 -8C281 -8 323 17 342 60C362 17 402 0 466 0L514 0L514 101L503 101C467 101 456 114 456 153L456 504L323 504L323 194C323 113 306 93 253 93C200 93 183 115 183 193L183 504L51 504Z"/>
<glyph unicode="&#xb6;" horiz-adv-x="601" d="M263 228L263 0L400 0L400 712L235 712C90 712 23 649 23 480C23 290 78 228 239 228ZM468 0L536 0L536 712L468 712Z"/>
<glyph unicode="&#xb7;" horiz-adv-x="215" d="M47 224L168 224L168 358L47 358Z"/>
<glyph unicode="&#xb8;" horiz-adv-x="489" d="M196 -87L233 -87C268 -87 281 -95 281 -122C281 -149 268 -159 233 -159L174 -159L174 -216L246 -216C335 -216 366 -176 366 -124C366 -76 346 -39 263 -34L263 0L222 0Z"/>
<glyph unicode="&#xb9;" horiz-adv-x="325" d="M139 516L239 516L239 872L166 872L56 837L56 753L139 776Z"/>
<glyph unicode="&#xba;" horiz-adv-x="399" d="M54 227L345 227L345 296L54 296ZM199 348C316 348 355 395 355 535C355 673 316 720 199 720C82 720 43 678 43 535C43 395 82 348 199 348ZM199 423C155 423 144 439 144 535C144 621 155 635 199 635C242 635 253 621 253 535C253 439 242 423 199 423Z"/>
<glyph unicode="&#xbb;" horiz-adv-x="448" d="M223 64L328 64L424 256L328 448L223 448L307 256ZM34 64L139 64L235 256L139 448L34 448L118 256Z"/>
<glyph unicode="&#xbc;" horiz-adv-x="716" d="M120 356L220 356L220 712L147 712L37 677L37 593L120 616ZM81 0L174 0L630 712L537 712ZM386 63L540 63L540 0L636 0L636 63L676 63L676 139L636 139L636 356L512 356L386 127ZM471 139L540 264L540 139Z"/>
<glyph unicode="&#xbd;" horiz-adv-x="716" d="M121 356L221 356L221 712L148 712L38 677L38 593L121 616ZM58 0L151 0L607 712L514 712ZM399 0L668 0L668 75L503 75C509 86 525 97 551 110L595 133C639 156 675 187 675 247C675 319 638 364 537 364C437 364 400 319 397 232L490 232C495 275 505 281 536 281C563 281 575 274 575 247C575 214 561 204 529 187L493 169C442 144 399 110 399 47Z"/>
<glyph unicode="&#xbe;" horiz-adv-x="716" d="M19 477C24 379 64 348 162 348C266 348 307 386 307 457C307 500 291 523 264 538C288 557 303 583 303 615C303 683 267 720 164 720C63 720 27 676 23 588L117 588C120 631 133 637 162 637C194 637 205 630 205 605C205 580 196 569 164 569L135 569L135 493L161 493C198 493 207 483 207 456C207 433 196 423 164 423C128 423 117 432 113 477ZM107 0L200 0L656 712L563 712ZM408 63L562 63L562 0L658 0L658 63L698 63L698 139L658 139L658 356L534 356L408 127ZM493 139L562 264L562 139Z"/>
<glyph unicode="&#xbf;" horiz-adv-x="407" d="M176 577L298 577L298 712L176 712ZM22 183C22 75 88 0 252 0L384 0L384 110L256 110C189 110 155 140 155 201C155 292 296 322 296 442L296 479L180 479L180 454C180 359 22 358 22 183Z"/>
<glyph unicode="&#xc0;" horiz-adv-x="589" d="M4 0L130 0L167 135L406 135L444 0L585 0L379 712L210 712ZM287 567L375 249L199 249ZM263 776L348 776L275 932L150 932Z"/>
<glyph unicode="&#xc1;" horiz-adv-x="589" d="M4 0L130 0L167 135L406 135L444 0L585 0L379 712L210 712ZM287 567L375 249L199 249ZM239 776L324 776L437 932L312 932Z"/>
<glyph unicode="&#xc2;" horiz-adv-x="589" d="M4 0L130 0L167 135L406 135L444 0L585 0L379 712L210 712ZM287 567L375 249L199 249ZM135 776L230 776L294 872L359 776L455 776L343 932L247 932Z"/>
<glyph unicode="&#xc3;" horiz-adv-x="589" d="M4 0L130 0L167 135L406 135L444 0L585 0L379 712L210 712ZM287 567L375 249L199 249ZM159 792L228 792L228 823C228 838 233 845 242 845C272 845 304 790 355 790C396 790 423 812 423 864L423 920L355 920L355 889C355 874 350 867 341 867C306 867 281 922 227 922C186 922 159 900 159 848Z"/>
<glyph unicode="&#xc4;" horiz-adv-x="589" d="M4 0L130 0L167 135L406 135L444 0L585 0L379 712L210 712ZM287 567L375 249L199 249ZM333 795L438 795L438 909L333 909ZM149 795L254 795L254 909L149 909Z"/>
<glyph unicode="&#xc5;" horiz-adv-x="589" d="M4 0L130 0L167 135L406 135L444 0L585 0L379 712L210 712ZM287 567L375 249L199 249ZM294 768C362 768 396 802 396 870C396 939 362 973 294 973C225 973 191 939 191 870C191 802 225 768 294 768ZM294 819C254 819 246 838 246 870C246 903 254 922 294 922C334 922 341 903 341 870C341 838 334 819 294 819Z"/>
<glyph unicode="&#xc6;" horiz-adv-x="841" d="M1 0L131 0L175 140L386 140L386 0L807 0L807 113L522 113L522 302L777 302L777 415L522 415L522 589L807 589L807 712L237 712ZM319 589L386 589L386 254L212 254Z"/>
<glyph unicode="&#xc7;" horiz-adv-x="586" d="M261 -87L298 -87C333 -87 346 -95 346 -122C346 -149 333 -159 298 -159L239 -159L239 -216L311 -216C400 -216 431 -176 431 -124C431 -76 411 -39 328 -34L328 -12C500 -7 551 73 559 259L426 259C421 134 401 98 310 98C195 98 178 125 178 360C178 566 195 600 310 600C401 600 421 567 426 444L559 444C551 638 518 724 310 724C99 724 35 649 35 358C35 89 84 -4 283 -11Z"/>
<glyph unicode="&#xc8;" horiz-adv-x="520" d="M62 0L484 0L484 110L199 110L199 299L460 299L460 415L199 415L199 588L484 588L484 712L62 712ZM242 776L327 776L254 932L129 932Z"/>
<glyph unicode="&#xc9;" horiz-adv-x="520" d="M62 0L484 0L484 110L199 110L199 299L460 299L460 415L199 415L199 588L484 588L484 712L62 712ZM218 776L303 776L416 932L291 932Z"/>
<glyph unicode="&#xca;" horiz-adv-x="520" d="M62 0L484 0L484 110L199 110L199 299L460 299L460 415L199 415L199 588L484 588L484 712L62 712ZM114 776L209 776L273 872L338 776L434 776L322 932L226 932Z"/>
<glyph unicode="&#xcb;" horiz-adv-x="520" d="M62 0L484 0L484 110L199 110L199 299L460 299L460 415L199 415L199 588L484 588L484 712L62 712ZM312 795L417 795L417 909L312 909ZM128 795L233 795L233 909L128 909Z"/>
<glyph unicode="&#xcc;" horiz-adv-x="261" d="M62 0L199 0L199 712L62 712ZM100 776L185 776L112 932L-13 932Z"/>
<glyph unicode="&#xcd;" horiz-adv-x="261" d="M62 0L199 0L199 712L62 712ZM76 776L161 776L274 932L149 932Z"/>
<glyph unicode="&#xce;" horiz-adv-x="261" d="M62 0L199 0L199 712L62 712ZM-28 776L67 776L131 872L196 776L292 776L180 932L84 932Z"/>
<glyph unicode="&#xcf;" horiz-adv-x="261" d="M62 0L199 0L199 712L62 712ZM170 795L275 795L275 909L170 909ZM-14 795L91 795L91 909L-14 909Z"/>
<glyph unicode="&#xd0;" horiz-adv-x="635" d="M22 305L73 305L73 0L320 0C541 0 600 89 600 358C600 637 536 712 325 712L73 712L73 409L22 409ZM325 588C437 588 457 554 457 360C457 136 437 110 325 110L210 110L210 305L324 305L324 409L210 409L210 588Z"/>
<glyph unicode="&#xd1;" horiz-adv-x="631" d="M62 0L190 0L190 474L433 0L569 0L569 712L441 712L441 255L207 712L62 712ZM180 792L249 792L249 823C249 838 254 845 263 845C293 845 325 790 376 790C417 790 444 812 444 864L444 920L376 920L376 889C376 874 371 867 362 867C327 867 302 922 248 922C207 922 180 900 180 848Z"/>
<glyph unicode="&#xd2;" horiz-adv-x="620" d="M310 -12C531 -12 585 78 585 358C585 649 521 724 310 724C99 724 35 649 35 358C35 78 89 -12 310 -12ZM310 98C195 98 178 125 178 360C178 566 195 600 310 600C425 600 442 566 442 360C442 125 425 98 310 98ZM279 776L364 776L291 932L166 932Z"/>
<glyph unicode="&#xd3;" horiz-adv-x="620" d="M310 -12C531 -12 585 78 585 358C585 649 521 724 310 724C99 724 35 649 35 358C35 78 89 -12 310 -12ZM310 98C195 98 178 125 178 360C178 566 195 600 310 600C425 600 442 566 442 360C442 125 425 98 310 98ZM255 776L340 776L453 932L328 932Z"/>
<glyph unicode="&#xd4;" horiz-adv-x="620" d="M310 -12C531 -12 585 78 585 358C585 649 521 724 310 724C99 724 35 649 35 358C35 78 89 -12 310 -12ZM310 98C195 98 178 125 178 360C178 566 195 600 310 600C425 600 442 566 442 360C442 125 425 98 310 98ZM151 776L246 776L310 872L375 776L471 776L359 932L263 932Z"/>
<glyph unicode="&#xd5;" horiz-adv-x="620" d="M310 -12C531 -12 585 78 585 358C585 649 521 724 310 724C99 724 35 649 35 358C35 78 89 -12 310 -12ZM310 98C195 98 178 125 178 360C178 566 195 600 310 600C425 600 442 566 442 360C442 125 425 98 310 98ZM175 792L244 792L244 823C244 838 249 845 258 845C288 845 320 790 371 790C412 790 439 812 439 864L439 920L371 920L371 889C371 874 366 867 357 867C322 867 297 922 243 922C202 922 175 900 175 848Z"/>
<glyph unicode="&#xd6;" horiz-adv-x="620" d="M310 -12C531 -12 585 78 585 358C585 649 521 724 310 724C99 724 35 649 35 358C35 78 89 -12 310 -12ZM310 98C195 98 178 125 178 360C178 566 195 600 310 600C425 600 442 566 442 360C442 125 425 98 310 98ZM349 795L454 795L454 909L349 909ZM165 795L270 795L270 909L165 909Z"/>
<glyph unicode="&#xd7;" horiz-adv-x="560" d="M156 94L280 218L405 93L477 165L352 290L476 414L404 486L280 362L155 487L83 415L208 290L84 166Z"/>
<glyph unicode="&#xd8;" horiz-adv-x="621" d="M28 0L91 67C132 10 200 -12 311 -12C531 -12 585 78 585 358C585 449 578 520 563 572L593 603L593 712L530 645C487 705 419 724 311 724C100 724 36 649 36 358C36 266 42 196 57 140L28 109ZM311 98C239 98 206 108 190 173L441 441C442 418 443 391 443 360C443 125 426 98 311 98ZM179 360C179 566 196 600 311 600C379 600 412 588 428 536L180 271C179 298 179 325 179 360Z"/>
<glyph unicode="&#xd9;" horiz-adv-x="625" d="M57 229C57 70 125 -12 313 -12C500 -12 568 70 568 229L568 712L432 712L432 226C432 129 397 98 313 98C229 98 194 129 194 226L194 712L57 712ZM282 776L367 776L294 932L169 932Z"/>
<glyph unicode="&#xda;" horiz-adv-x="625" d="M57 229C57 70 125 -12 313 -12C500 -12 568 70 568 229L568 712L432 712L432 226C432 129 397 98 313 98C229 98 194 129 194 226L194 712L57 712ZM258 776L343 776L456 932L331 932Z"/>
<glyph unicode="&#xdb;" horiz-adv-x="625" d="M57 229C57 70 125 -12 313 -12C500 -12 568 70 568 229L568 712L432 712L432 226C432 129 397 98 313 98C229 98 194 129 194 226L194 712L57 712ZM154 776L249 776L313 872L378 776L474 776L362 932L266 932Z"/>
<glyph unicode="&#xdc;" horiz-adv-x="625" d="M57 229C57 70 125 -12 313 -12C500 -12 568 70 568 229L568 712L432 712L432 226C432 129 397 98 313 98C229 98 194 129 194 226L194 712L57 712ZM352 795L457 795L457 909L352 909ZM168 795L273 795L273 909L168 909Z"/>
<glyph unicode="&#xdd;" horiz-adv-x="560" d="M212 0L349 0L349 270L555 712L426 712L288 414L151 712L5 712L212 270ZM225 776L310 776L423 932L298 932Z"/>
<glyph unicode="&#xde;" horiz-adv-x="559" d="M62 0L199 0L199 134L325 134C470 134 536 186 536 365C536 530 471 590 327 590L199 590L199 712L62 712ZM307 466C372 466 395 446 395 361C395 266 375 250 307 250L199 250L199 466Z"/>
<glyph unicode="&#xdf;" horiz-adv-x="556" d="M273 0L313 0C466 0 527 66 527 209C527 304 498 358 431 383C486 410 504 455 504 526C504 661 456 724 291 724C120 724 77 658 77 530L77 504L19 504L19 395L77 395L77 0L209 0L209 533C209 592 226 611 291 611C354 611 372 591 372 519C372 446 355 425 294 425L273 425L273 316L305 316C372 316 395 293 395 209C395 125 370 101 306 101L273 101Z"/>
<glyph unicode="&#xe0;" horiz-adv-x="465" d="M25 129C25 37 80 -8 175 -8C239 -8 275 17 292 52L292 0L418 0L418 333C418 426 392 512 232 512C90 512 40 449 37 337L154 337C155 394 175 405 224 405C275 405 286 385 286 326L286 306L223 294C87 268 25 229 25 129ZM286 167C286 108 258 87 213 87C174 87 155 106 155 143C155 182 178 200 245 211L286 217ZM193 568L278 568L205 724L80 724Z"/>
<glyph unicode="&#xe1;" horiz-adv-x="465" d="M25 129C25 37 80 -8 175 -8C239 -8 275 17 292 52L292 0L418 0L418 333C418 426 392 512 232 512C90 512 40 449 37 337L154 337C155 394 175 405 224 405C275 405 286 385 286 326L286 306L223 294C87 268 25 229 25 129ZM286 167C286 108 258 87 213 87C174 87 155 106 155 143C155 182 178 200 245 211L286 217ZM169 568L254 568L367 724L242 724Z"/>
<glyph unicode="&#xe2;" horiz-adv-x="465" d="M25 129C25 37 80 -8 175 -8C239 -8 275 17 292 52L292 0L418 0L418 333C418 426 392 512 232 512C90 512 40 449 37 337L154 337C155 394 175 405 224 405C275 405 286 385 286 326L286 306L223 294C87 268 25 229 25 129ZM286 167C286 108 258 87 213 87C174 87 155 106 155 143C155 182 178 200 245 211L286 217ZM65 568L160 568L224 664L289 568L385 568L273 724L177 724Z"/>
<glyph unicode="&#xe3;" horiz-adv-x="465" d="M25 129C25 37 80 -8 175 -8C239 -8 275 17 292 52L292 0L418 0L418 333C418 426 392 512 232 512C90 512 40 449 37 337L154 337C155 394 175 405 224 405C275 405 286 385 286 326L286 306L223 294C87 268 25 229 25 129ZM286 167C286 108 258 87 213 87C174 87 155 106 155 143C155 182 178 200 245 211L286 217ZM89 584L158 584L158 615C158 630 163 637 172 637C202 637 234 582 285 582C326 582 353 604 353 656L353 712L285 712L285 681C285 666 280 659 271 659C236 659 211 714 157 714C116 714 89 692 89 640Z"/>
<glyph unicode="&#xe4;" horiz-adv-x="465" d="M25 129C25 37 80 -8 175 -8C239 -8 275 17 292 52L292 0L418 0L418 333C418 426 392 512 232 512C90 512 40 449 37 337L154 337C155 394 175 405 224 405C275 405 286 385 286 326L286 306L223 294C87 268 25 229 25 129ZM286 167C286 108 258 87 213 87C174 87 155 106 155 143C155 182 178 200 245 211L286 217ZM263 587L368 587L368 701L263 701ZM79 587L184 587L184 701L79 701Z"/>
<glyph unicode="&#xe5;" horiz-adv-x="465" d="M25 129C25 37 80 -8 175 -8C239 -8 275 17 292 52L292 0L418 0L418 333C418 426 392 512 232 512C90 512 40 449 37 337L154 337C155 394 175 405 224 405C275 405 286 385 286 326L286 306L223 294C87 268 25 229 25 129ZM286 167C286 108 258 87 213 87C174 87 155 106 155 143C155 182 178 200 245 211L286 217ZM224 560C292 560 326 594 326 662C326 731 292 765 224 765C155 765 121 731 121 662C121 594 155 560 224 560ZM224 611C184 611 176 630 176 662C176 695 184 714 224 714C264 714 271 695 271 662C271 630 264 611 224 611Z"/>
<glyph unicode="&#xe6;" horiz-adv-x="729" d="M24 129C24 37 81 -8 174 -8C249 -8 301 19 322 66C355 13 412 -8 502 -8C632 -8 687 55 695 155L578 155C572 104 551 90 501 90C439 90 420 108 418 225L699 225L699 251C699 428 657 512 498 512C435 512 389 500 355 473C329 497 290 512 231 512C89 512 39 449 36 337L154 337C154 394 174 405 223 405C274 405 285 385 285 326L285 306L222 294C86 269 24 231 24 129ZM212 87C172 87 154 106 154 143C154 182 177 200 244 211L285 217L285 169C285 111 260 87 212 87ZM499 403C550 403 569 386 574 311L420 311C427 389 452 403 499 403Z"/>
<glyph unicode="&#xe7;" horiz-adv-x="466" d="M194 -87L231 -87C266 -87 279 -95 279 -122C279 -149 266 -159 231 -159L172 -159L172 -216L244 -216C333 -216 364 -176 364 -124C364 -76 344 -39 261 -34L261 -7C382 -2 433 60 439 198L317 198C313 117 298 93 243 93C180 93 166 113 166 247C166 379 180 399 243 399C297 399 312 379 317 301L439 301C433 443 391 512 244 512C88 512 31 445 31 252C31 72 76 0 218 -7Z"/>
<glyph unicode="&#xe8;" horiz-adv-x="474" d="M248 -8C378 -8 433 55 441 155L323 155C318 104 297 90 247 90C185 90 165 108 163 225L445 225L445 251C445 428 403 512 243 512C89 512 31 438 31 250C31 61 87 -8 248 -8ZM245 403C295 403 315 386 320 311L165 311C172 390 197 403 245 403ZM213 568L298 568L225 724L100 724Z"/>
<glyph unicode="&#xe9;" horiz-adv-x="474" d="M248 -8C378 -8 433 55 441 155L323 155C318 104 297 90 247 90C185 90 165 108 163 225L445 225L445 251C445 428 403 512 243 512C89 512 31 438 31 250C31 61 87 -8 248 -8ZM245 403C295 403 315 386 320 311L165 311C172 390 197 403 245 403ZM189 568L274 568L387 724L262 724Z"/>
<glyph unicode="&#xea;" horiz-adv-x="474" d="M248 -8C378 -8 433 55 441 155L323 155C318 104 297 90 247 90C185 90 165 108 163 225L445 225L445 251C445 428 403 512 243 512C89 512 31 438 31 250C31 61 87 -8 248 -8ZM245 403C295 403 315 386 320 311L165 311C172 390 197 403 245 403ZM85 568L180 568L244 664L309 568L405 568L293 724L197 724Z"/>
<glyph unicode="&#xeb;" horiz-adv-x="474" d="M248 -8C378 -8 433 55 441 155L323 155C318 104 297 90 247 90C185 90 165 108 163 225L445 225L445 251C445 428 403 512 243 512C89 512 31 438 31 250C31 61 87 -8 248 -8ZM245 403C295 403 315 386 320 311L165 311C172 390 197 403 245 403ZM283 587L388 587L388 701L283 701ZM99 587L204 587L204 701L99 701Z"/>
<glyph unicode="&#xec;" horiz-adv-x="234" d="M51 0L183 0L183 504L51 504ZM86 568L171 568L98 724L-27 724Z"/>
<glyph unicode="&#xed;" horiz-adv-x="234" d="M51 0L183 0L183 504L51 504ZM62 568L147 568L260 724L135 724Z"/>
<glyph unicode="&#xee;" horiz-adv-x="234" d="M51 0L183 0L183 504L51 504ZM-42 568L53 568L117 664L182 568L278 568L166 724L70 724Z"/>
<glyph unicode="&#xef;" horiz-adv-x="234" d="M51 0L183 0L183 504L51 504ZM156 587L261 587L261 701L156 701ZM-28 587L77 587L77 701L-28 701Z"/>
<glyph unicode="&#xf0;" horiz-adv-x="502" d="M94 500L253 559C273 526 289 495 302 467C282 479 259 482 234 482C103 482 30 420 30 235C30 48 105 -10 249 -10C401 -10 471 59 471 238C471 373 431 498 367 602L464 638L464 712L328 661L295 712L156 712L215 619L94 574ZM165 229C165 345 181 369 249 369C317 369 336 342 336 229C336 117 318 93 249 93C184 93 165 117 165 229Z"/>
<glyph unicode="&#xf1;" horiz-adv-x="503" d="M51 0L183 0L183 298C183 375 199 397 254 397C306 397 323 375 323 298L323 0L456 0L456 327C456 448 413 512 298 512C234 512 194 488 177 445L177 504L51 504ZM118 589L187 589L187 620C187 635 192 642 201 642C231 642 263 587 314 587C355 587 382 609 382 661L382 717L314 717L314 686C314 671 309 664 300 664C265 664 240 719 186 719C145 719 118 697 118 645Z"/>
<glyph unicode="&#xf2;" horiz-adv-x="496" d="M248 -8C411 -8 465 56 465 252C465 446 408 512 248 512C88 512 31 452 31 252C31 56 85 -8 248 -8ZM248 93C184 93 165 114 165 252C165 379 184 399 248 399C313 399 330 379 330 252C330 115 313 93 248 93ZM217 568L302 568L229 724L104 724Z"/>
<glyph unicode="&#xf3;" horiz-adv-x="496" d="M248 -8C411 -8 465 56 465 252C465 446 408 512 248 512C88 512 31 452 31 252C31 56 85 -8 248 -8ZM248 93C184 93 165 114 165 252C165 379 184 399 248 399C313 399 330 379 330 252C330 115 313 93 248 93ZM193 568L278 568L391 724L266 724Z"/>
<glyph unicode="&#xf4;" horiz-adv-x="496" d="M248 -8C411 -8 465 56 465 252C465 446 408 512 248 512C88 512 31 452 31 252C31 56 85 -8 248 -8ZM248 93C184 93 165 114 165 252C165 379 184 399 248 399C313 399 330 379 330 252C330 115 313 93 248 93ZM89 568L184 568L248 664L313 568L409 568L297 724L201 724Z"/>
<glyph unicode="&#xf5;" horiz-adv-x="496" d="M248 -8C411 -8 465 56 465 252C465 446 408 512 248 512C88 512 31 452 31 252C31 56 85 -8 248 -8ZM248 93C184 93 165 114 165 252C165 379 184 399 248 399C313 399 330 379 330 252C330 115 313 93 248 93ZM113 584L182 584L182 615C182 630 187 637 196 637C226 637 258 582 309 582C350 582 377 604 377 656L377 712L309 712L309 681C309 666 304 659 295 659C260 659 235 714 181 714C140 714 113 692 113 640Z"/>
<glyph unicode="&#xf6;" horiz-adv-x="496" d="M248 -8C411 -8 465 56 465 252C465 446 408 512 248 512C88 512 31 452 31 252C31 56 85 -8 248 -8ZM248 93C184 93 165 114 165 252C165 379 184 399 248 399C313 399 330 379 330 252C330 115 313 93 248 93ZM287 587L392 587L392 701L287 701ZM103 587L208 587L208 701L103 701Z"/>
<glyph unicode="&#xf7;" horiz-adv-x="560" d="M230 450L330 450L330 580L230 580ZM56 240L504 240L504 340L56 340ZM230 0L330 0L330 130L230 130Z"/>
<glyph unicode="&#xf8;" horiz-adv-x="504" d="M27 0L81 50C116 7 169 -8 252 -8C415 -8 469 56 469 252C469 311 464 357 452 394L477 417L477 504L422 453C387 496 333 512 252 512C92 512 35 452 35 252C35 193 40 145 51 109L27 87ZM252 93C211 93 190 101 179 140L334 285C335 274 335 264 335 252C335 115 316 93 252 93ZM170 252C170 379 187 399 252 399C291 399 312 392 323 361L170 219Z"/>
<glyph unicode="&#xf9;" horiz-adv-x="503" d="M47 177C47 56 90 -8 205 -8C269 -8 309 17 326 61L326 0L452 0L452 504L319 504L319 192C319 113 302 93 249 93C196 93 179 114 179 194L179 504L47 504ZM221 568L306 568L233 724L108 724Z"/>
<glyph unicode="&#xfa;" horiz-adv-x="503" d="M47 177C47 56 90 -8 205 -8C269 -8 309 17 326 61L326 0L452 0L452 504L319 504L319 192C319 113 302 93 249 93C196 93 179 114 179 194L179 504L47 504ZM197 568L282 568L395 724L270 724Z"/>
<glyph unicode="&#xfb;" horiz-adv-x="503" d="M47 177C47 56 90 -8 205 -8C269 -8 309 17 326 61L326 0L452 0L452 504L319 504L319 192C319 113 302 93 249 93C196 93 179 114 179 194L179 504L47 504ZM93 568L188 568L252 664L317 568L413 568L301 724L205 724Z"/>
<glyph unicode="&#xfc;" horiz-adv-x="503" d="M47 177C47 56 90 -8 205 -8C269 -8 309 17 326 61L326 0L452 0L452 504L319 504L319 192C319 113 302 93 249 93C196 93 179 114 179 194L179 504L47 504ZM291 587L396 587L396 701L291 701ZM107 587L212 587L212 701L107 701Z"/>
<glyph unicode="&#xfd;" horiz-adv-x="470" d="M45 -107L45 -208L100 -208C213 -208 249 -154 284 -48L469 504L351 504L247 165L143 504L5 504L183 -18L177 -39C161 -95 131 -107 86 -107ZM182 568L267 568L380 724L255 724Z"/>
<glyph unicode="&#xfe;" horiz-adv-x="515" d="M51 -208L183 -208L183 47C206 3 246 -8 293 -8C422 -8 483 55 483 252C483 452 429 512 297 512C249 512 207 497 183 453L183 712L51 712ZM266 93C202 93 183 117 183 252C183 379 202 399 266 399C330 399 348 379 348 252C348 117 330 93 266 93Z"/>
<glyph unicode="&#xff;" horiz-adv-x="470" d="M45 -107L45 -208L100 -208C213 -208 249 -154 284 -48L469 504L351 504L247 165L143 504L5 504L183 -18L177 -39C161 -95 131 -107 86 -107ZM276 587L381 587L381 701L276 701ZM92 587L197 587L197 701L92 701Z"/>
<glyph unicode="&#x100;" horiz-adv-x="589" d="M4 0L130 0L167 135L406 135L444 0L585 0L379 712L210 712ZM287 567L375 249L199 249ZM153 813L432 813L432 895L153 895Z"/>
<glyph unicode="&#x101;" horiz-adv-x="465" d="M25 129C25 37 80 -8 175 -8C239 -8 275 17 292 52L292 0L418 0L418 333C418 426 392 512 232 512C90 512 40 449 37 337L154 337C155 394 175 405 224 405C275 405 286 385 286 326L286 306L223 294C87 268 25 229 25 129ZM286 167C286 108 258 87 213 87C174 87 155 106 155 143C155 182 178 200 245 211L286 217ZM83 605L362 605L362 687L83 687Z"/>
<glyph unicode="&#x102;" horiz-adv-x="589" d="M4 0L130 0L167 135L406 135L444 0L585 0L379 712L210 712ZM287 567L375 249L199 249ZM294 768C379 768 430 806 434 922L362 922C359 859 342 839 294 839C245 839 228 859 225 922L153 922C157 806 207 768 294 768Z"/>
<glyph unicode="&#x103;" horiz-adv-x="465" d="M25 129C25 37 80 -8 175 -8C239 -8 275 17 292 52L292 0L418 0L418 333C418 426 392 512 232 512C90 512 40 449 37 337L154 337C155 394 175 405 224 405C275 405 286 385 286 326L286 306L223 294C87 268 25 229 25 129ZM286 167C286 108 258 87 213 87C174 87 155 106 155 143C155 182 178 200 245 211L286 217ZM224 560C309 560 360 598 364 714L292 714C289 651 272 631 224 631C175 631 158 651 155 714L83 714C87 598 137 560 224 560Z"/>
<glyph unicode="&#x104;" horiz-adv-x="589" d="M4 0L130 0L167 135L406 135L444 0L534 0C487 -45 442 -79 442 -128C442 -184 478 -216 554 -216L592 -216L592 -145L563 -145C531 -145 515 -130 515 -103C515 -72 541 -44 585 0L379 712L210 712ZM287 567L375 247L198 247Z"/>
<glyph unicode="&#x105;" horiz-adv-x="465" d="M25 129C25 37 80 -8 175 -8C239 -8 275 17 292 52L292 0L367 0C320 -45 275 -79 275 -128C275 -184 311 -216 387 -216L425 -216L425 -145L397 -145C365 -145 349 -130 349 -103C349 -72 374 -44 418 0L418 333C418 426 392 512 232 512C90 512 40 449 37 337L154 337C155 394 175 405 224 405C275 405 286 385 286 326L286 306L223 294C87 270 25 229 25 129ZM286 160C283 108 258 87 213 87C174 87 155 106 155 143C155 182 178 200 245 211L286 217Z"/>
<glyph unicode="&#x106;" horiz-adv-x="586" d="M310 -12C497 -12 551 67 559 259L426 259C421 134 401 98 310 98C195 98 178 125 178 360C178 566 195 600 310 600C401 600 421 567 426 444L559 444C551 638 518 724 310 724C99 724 35 649 35 358C35 78 89 -12 310 -12ZM255 776L340 776L453 932L328 932Z"/>
<glyph unicode="&#x107;" horiz-adv-x="466" d="M244 -8C377 -8 433 54 439 198L317 198C313 117 298 93 243 93C180 93 166 113 166 247C166 379 180 399 243 399C297 399 312 379 317 301L439 301C433 443 391 512 244 512C88 512 31 445 31 252C31 62 82 -8 244 -8ZM188 568L273 568L386 724L261 724Z"/>
<glyph unicode="&#x108;" horiz-adv-x="586" d="M310 -12C497 -12 551 67 559 259L426 259C421 134 401 98 310 98C195 98 178 125 178 360C178 566 195 600 310 600C401 600 421 567 426 444L559 444C551 638 518 724 310 724C99 724 35 649 35 358C35 78 89 -12 310 -12ZM151 776L246 776L310 872L375 776L471 776L359 932L263 932Z"/>
<glyph unicode="&#x109;" horiz-adv-x="466" d="M244 -8C377 -8 433 54 439 198L317 198C313 117 298 93 243 93C180 93 166 113 166 247C166 379 180 399 243 399C297 399 312 379 317 301L439 301C433 443 391 512 244 512C88 512 31 445 31 252C31 62 82 -8 244 -8ZM84 568L179 568L243 664L308 568L404 568L292 724L196 724Z"/>
<glyph unicode="&#x10a;" horiz-adv-x="586" d="M310 -12C497 -12 551 67 559 259L426 259C421 134 401 98 310 98C195 98 178 125 178 360C178 566 195 600 310 600C401 600 421 567 426 444L559 444C551 638 518 724 310 724C99 724 35 649 35 358C35 78 89 -12 310 -12ZM257 795L362 795L362 909L257 909Z"/>
<glyph unicode="&#x10b;" horiz-adv-x="466" d="M244 -8C377 -8 433 54 439 198L317 198C313 117 298 93 243 93C180 93 166 113 166 247C166 379 180 399 243 399C297 399 312 379 317 301L439 301C433 443 391 512 244 512C88 512 31 445 31 252C31 62 82 -8 244 -8ZM190 587L295 587L295 701L190 701Z"/>
<glyph unicode="&#x10c;" horiz-adv-x="586" d="M310 -12C497 -12 551 67 559 259L426 259C421 134 401 98 310 98C195 98 178 125 178 360C178 566 195 600 310 600C401 600 421 567 426 444L559 444C551 638 518 724 310 724C99 724 35 649 35 358C35 78 89 -12 310 -12ZM263 776L359 776L471 932L375 932L310 835L246 932L151 932Z"/>
<glyph unicode="&#x10d;" horiz-adv-x="466" d="M244 -8C377 -8 433 54 439 198L317 198C313 117 298 93 243 93C180 93 166 113 166 247C166 379 180 399 243 399C297 399 312 379 317 301L439 301C433 443 391 512 244 512C88 512 31 445 31 252C31 62 82 -8 244 -8ZM196 568L292 568L404 724L308 724L243 627L179 724L84 724Z"/>
<glyph unicode="&#x10e;" horiz-adv-x="620" d="M62 0L306 0C526 0 585 89 585 358C585 637 521 712 310 712L62 712ZM310 588C422 588 442 554 442 360C442 136 422 110 310 110L199 110L199 588ZM251 776L347 776L459 932L363 932L298 835L234 932L139 932Z"/>
<glyph unicode="&#x10f;" horiz-adv-x="523" d="M214 -8C269 -8 313 9 337 65L337 0L463 0L463 712L331 712L331 457C307 500 269 512 222 512C94 512 31 449 31 252C31 52 84 -8 214 -8ZM248 93C184 93 166 117 166 252C166 379 184 399 248 399C309 399 331 381 331 252C331 114 309 93 248 93ZM503 560L562 560L606 654L606 712L503 712Z"/>
<glyph unicode="&#x110;" horiz-adv-x="635" d="M22 305L73 305L73 0L320 0C541 0 600 89 600 358C600 637 536 712 325 712L73 712L73 409L22 409ZM325 588C437 588 457 554 457 360C457 136 437 110 325 110L210 110L210 305L324 305L324 409L210 409L210 588Z"/>
<glyph unicode="&#x111;" horiz-adv-x="514" d="M222 567L331 567L331 457C307 500 269 512 222 512C94 512 31 449 31 252C31 52 84 -8 214 -8C269 -8 313 9 337 65L337 0L463 0L463 567L512 567L512 644L463 644L463 712L331 712L331 644L222 644ZM248 93C184 93 166 117 166 252C166 379 184 399 248 399C312 399 331 379 331 252C331 117 312 93 248 93Z"/>
<glyph unicode="&#x112;" horiz-adv-x="520" d="M62 0L484 0L484 110L199 110L199 299L460 299L460 415L199 415L199 588L484 588L484 712L62 712ZM132 813L411 813L411 895L132 895Z"/>
<glyph unicode="&#x113;" horiz-adv-x="474" d="M248 -8C378 -8 433 55 441 155L323 155C318 104 297 90 247 90C185 90 165 108 163 225L445 225L445 251C445 428 403 512 243 512C89 512 31 438 31 250C31 61 87 -8 248 -8ZM245 403C295 403 315 386 320 311L165 311C172 390 197 403 245 403ZM103 605L382 605L382 687L103 687Z"/>
<glyph unicode="&#x114;" horiz-adv-x="520" d="M62 0L484 0L484 110L199 110L199 299L460 299L460 415L199 415L199 588L484 588L484 712L62 712ZM273 768C358 768 409 806 413 922L341 922C338 859 321 839 273 839C224 839 207 859 204 922L132 922C136 806 186 768 273 768Z"/>
<glyph unicode="&#x115;" horiz-adv-x="474" d="M248 -8C378 -8 433 55 441 155L323 155C318 104 297 90 247 90C185 90 165 108 163 225L445 225L445 251C445 428 403 512 243 512C89 512 31 438 31 250C31 61 87 -8 248 -8ZM245 403C295 403 315 386 320 311L165 311C172 390 197 403 245 403ZM244 560C329 560 380 598 384 714L312 714C309 651 292 631 244 631C195 631 178 651 175 714L103 714C107 598 157 560 244 560Z"/>
<glyph unicode="&#x116;" horiz-adv-x="520" d="M62 0L484 0L484 110L199 110L199 299L460 299L460 415L199 415L199 588L484 588L484 712L62 712ZM220 795L325 795L325 909L220 909Z"/>
<glyph unicode="&#x117;" horiz-adv-x="474" d="M248 -8C378 -8 433 55 441 155L323 155C318 104 297 90 247 90C185 90 165 108 163 225L445 225L445 251C445 428 403 512 243 512C89 512 31 438 31 250C31 61 87 -8 248 -8ZM245 403C295 403 315 386 320 311L165 311C172 390 197 403 245 403ZM191 587L296 587L296 701L191 701Z"/>
<glyph unicode="&#x118;" horiz-adv-x="520" d="M62 0L433 0C370 -45 334 -79 334 -128C334 -184 370 -216 446 -216L484 -216L484 -145L455 -145C423 -145 407 -130 407 -103C407 -72 440 -44 484 0L484 110L199 110L199 299L460 299L460 415L199 415L199 588L484 588L484 712L62 712Z"/>
<glyph unicode="&#x119;" horiz-adv-x="474" d="M248 -8C268 -8 286 -7 301 -4C255 -46 214 -81 214 -128C214 -184 250 -216 326 -216L363 -216L363 -145L335 -145C303 -145 287 -129 287 -103C287 -72 313 -44 356 0L386 31C423 70 438 104 441 155L323 155C318 104 297 90 247 90C185 90 165 108 163 225L445 225L445 251C445 428 403 512 243 512C89 512 31 438 31 250C31 61 87 -8 248 -8ZM245 403C295 403 315 386 320 311L165 311C172 390 197 403 245 403Z"/>
<glyph unicode="&#x11a;" horiz-adv-x="520" d="M62 0L484 0L484 110L199 110L199 299L460 299L460 415L199 415L199 588L484 588L484 712L62 712ZM226 776L322 776L434 932L338 932L273 835L209 932L114 932Z"/>
<glyph unicode="&#x11b;" horiz-adv-x="474" d="M248 -8C378 -8 433 55 441 155L323 155C318 104 297 90 247 90C185 90 165 108 163 225L445 225L445 251C445 428 403 512 243 512C89 512 31 438 31 250C31 61 87 -8 248 -8ZM245 403C295 403 315 386 320 311L165 311C172 390 197 403 245 403ZM197 568L293 568L405 724L309 724L244 627L180 724L85 724Z"/>
<glyph unicode="&#x11c;" horiz-adv-x="601" d="M310 276L435 276L435 259C435 126 407 98 310 98C195 98 178 125 178 360C178 566 195 600 310 600C390 600 426 578 431 488L563 488C552 644 508 724 310 724C99 724 35 649 35 358C35 78 89 -12 310 -12C511 -12 569 75 569 273L569 392L310 392ZM151 776L246 776L310 872L375 776L471 776L359 932L263 932Z"/>
<glyph unicode="&#x11d;" horiz-adv-x="514" d="M51 -39C59 -151 97 -216 254 -216C399 -216 463 -158 463 -17L463 504L339 504L339 437C316 496 274 512 222 512C94 512 31 449 31 257C31 62 84 1 214 1C263 1 306 16 331 63L331 -25C331 -97 308 -115 252 -115C193 -115 180 -95 177 -39ZM248 102C184 102 166 126 166 257C166 380 184 399 248 399C312 399 331 380 331 257C331 123 309 102 248 102ZM89 568L184 568L248 664L313 568L409 568L297 724L201 724Z"/>
<glyph unicode="&#x11e;" horiz-adv-x="601" d="M310 276L435 276L435 259C435 126 407 98 310 98C195 98 178 125 178 360C178 566 195 600 310 600C390 600 426 578 431 488L563 488C552 644 508 724 310 724C99 724 35 649 35 358C35 78 89 -12 310 -12C511 -12 569 75 569 273L569 392L310 392ZM310 768C395 768 446 806 450 922L378 922C375 859 358 839 310 839C261 839 244 859 241 922L169 922C173 806 223 768 310 768Z"/>
<glyph unicode="&#x11f;" horiz-adv-x="514" d="M51 -39C59 -151 97 -216 254 -216C399 -216 463 -158 463 -17L463 504L339 504L339 437C316 496 274 512 222 512C94 512 31 449 31 257C31 62 84 1 214 1C263 1 306 16 331 63L331 -25C331 -97 308 -115 252 -115C193 -115 180 -95 177 -39ZM248 102C184 102 166 126 166 257C166 380 184 399 248 399C312 399 331 380 331 257C331 123 309 102 248 102ZM248 560C333 560 384 598 388 714L316 714C313 651 296 631 248 631C199 631 182 651 179 714L107 714C111 598 161 560 248 560Z"/>
<glyph unicode="&#x120;" horiz-adv-x="601" d="M310 276L435 276L435 259C435 126 407 98 310 98C195 98 178 125 178 360C178 566 195 600 310 600C390 600 426 578 431 488L563 488C552 644 508 724 310 724C99 724 35 649 35 358C35 78 89 -12 310 -12C511 -12 569 75 569 273L569 392L310 392ZM257 795L362 795L362 909L257 909Z"/>
<glyph unicode="&#x121;" horiz-adv-x="514" d="M51 -39C59 -151 97 -216 254 -216C399 -216 463 -158 463 -17L463 504L339 504L339 437C316 496 274 512 222 512C94 512 31 449 31 257C31 62 84 1 214 1C263 1 306 16 331 63L331 -25C331 -97 308 -115 252 -115C193 -115 180 -95 177 -39ZM248 102C184 102 166 126 166 257C166 380 184 399 248 399C312 399 331 380 331 257C331 123 309 102 248 102ZM195 587L300 587L300 701L195 701Z"/>
<glyph unicode="&#x122;" horiz-adv-x="601" d="M310 276L435 276L435 259C435 126 407 98 310 98C195 98 178 125 178 360C178 566 195 600 310 600C390 600 426 578 431 488L563 488C552 644 508 724 310 724C99 724 35 649 35 358C35 78 89 -12 310 -12C511 -12 569 75 569 273L569 392L310 392ZM259 -56L259 -208L318 -208L362 -114L362 -56Z"/>
<glyph unicode="&#x123;" horiz-adv-x="514" d="M51 -39C59 -151 97 -216 254 -216C399 -216 463 -158 463 -17L463 504L339 504L339 437C316 496 274 512 222 512C94 512 31 449 31 257C31 62 84 1 214 1C263 1 306 16 331 63L331 -25C331 -97 308 -115 252 -115C193 -115 180 -95 177 -39ZM248 102C184 102 166 126 166 257C166 380 184 399 248 399C312 399 331 380 331 257C331 123 309 102 248 102ZM198 560L302 560L302 712L242 712L198 618Z"/>
<glyph unicode="&#x124;" horiz-adv-x="631" d="M62 0L199 0L199 299L432 299L432 0L569 0L569 712L432 712L432 415L199 415L199 712L62 712ZM156 776L251 776L315 872L380 776L476 776L364 932L268 932Z"/>
<glyph unicode="&#x125;" horiz-adv-x="503" d="M51 0L183 0L183 300C183 378 201 397 254 397C306 397 323 375 323 298L323 0L456 0L456 327C456 448 413 512 298 512C242 512 204 494 183 457L183 712L51 712ZM-42 776L53 776L117 872L182 776L278 776L166 932L70 932Z"/>
<glyph unicode="&#x126;" horiz-adv-x="640" d="M16 511L67 511L67 0L203 0L203 299L437 299L437 0L573 0L573 511L624 511L624 614L573 614L573 712L437 712L437 614L203 614L203 712L67 712L67 614L16 614ZM203 511L437 511L437 415L203 415Z"/>
<glyph unicode="&#x127;" horiz-adv-x="503" d="M2 567L51 567L51 0L183 0L183 304C183 378 201 397 254 397C306 397 323 375 323 298L323 0L456 0L456 327C456 448 413 512 298 512C242 512 204 494 183 457L183 567L293 567L293 644L183 644L183 712L51 712L51 644L2 644Z"/>
<glyph unicode="&#x128;" horiz-adv-x="261" d="M62 0L199 0L199 712L62 712ZM-4 792L65 792L65 823C65 838 70 845 79 845C109 845 141 790 192 790C233 790 260 812 260 864L260 920L192 920L192 889C192 874 187 867 178 867C143 867 118 922 64 922C23 922 -4 900 -4 848Z"/>
<glyph unicode="&#x129;" horiz-adv-x="234" d="M51 0L183 0L183 504L51 504ZM-18 584L51 584L51 615C51 630 56 637 65 637C95 637 127 582 178 582C219 582 246 604 246 656L246 712L178 712L178 681C178 666 173 659 164 659C129 659 104 714 50 714C9 714 -18 692 -18 640Z"/>
<glyph unicode="&#x12a;" horiz-adv-x="261" d="M62 0L199 0L199 712L62 712ZM-10 813L269 813L269 895L-10 895Z"/>
<glyph unicode="&#x12b;" horiz-adv-x="234" d="M51 0L183 0L183 504L51 504ZM-24 605L255 605L255 687L-24 687Z"/>
<glyph unicode="&#x12c;" horiz-adv-x="261" d="M62 0L199 0L199 712L62 712ZM131 768C216 768 267 806 271 922L199 922C196 859 179 839 131 839C82 839 65 859 62 922L-10 922C-6 806 44 768 131 768Z"/>
<glyph unicode="&#x12d;" horiz-adv-x="234" d="M51 0L183 0L183 504L51 504ZM117 560C202 560 253 598 257 714L185 714C182 651 165 631 117 631C68 631 51 651 48 714L-24 714C-20 598 30 560 117 560Z"/>
<glyph unicode="&#x12e;" horiz-adv-x="261" d="M62 0L148 0C93 -45 56 -79 56 -128C56 -184 92 -216 168 -216L206 -216L206 -145L177 -145C145 -145 129 -130 129 -103C129 -72 155 -44 199 0L199 712L62 712Z"/>
<glyph unicode="&#x12f;" horiz-adv-x="234" d="M51 0L133 0C86 -45 41 -79 41 -128C41 -184 77 -216 153 -216L190 -216L190 -145L162 -145C130 -145 114 -130 114 -103C114 -72 139 -44 183 0L183 504L51 504ZM51 592L183 592L183 712L51 712Z"/>
<glyph unicode="&#x130;" horiz-adv-x="261" d="M62 0L199 0L199 712L62 712ZM78 795L183 795L183 909L78 909Z"/>
<glyph unicode="&#x131;" horiz-adv-x="234" d="M51 0L183 0L183 504L51 504Z"/>
<glyph unicode="&#x132;" horiz-adv-x="657" d="M62 0L199 0L199 712L62 712ZM269 110L269 0L370 0C539 0 599 78 599 217L599 712L462 712L462 203C462 135 430 110 363 110Z"/>
<glyph unicode="&#x133;" horiz-adv-x="460" d="M51 592L183 592L183 712L51 712ZM51 0L183 0L183 504L51 504ZM277 592L409 592L409 712L277 712ZM277 -42C277 -85 255 -107 212 -107L179 -107L179 -208L232 -208C359 -208 409 -149 409 -25L409 504L277 504Z"/>
<glyph unicode="&#x134;" horiz-adv-x="403" d="M15 110L15 0L116 0C285 0 345 78 345 217L345 712L208 712L208 203C208 135 176 110 109 110ZM118 776L213 776L277 872L342 776L438 776L326 932L230 932Z"/>
<glyph unicode="&#x135;" horiz-adv-x="234" d="M51 -42C51 -85 29 -107 -14 -107L-47 -107L-47 -208L6 -208C133 -208 183 -149 183 -25L183 504L51 504ZM-42 568L53 568L117 664L182 568L278 568L166 724L70 724Z"/>
<glyph unicode="&#x136;" horiz-adv-x="591" d="M62 0L199 0L199 201L273 301L440 0L593 0L363 408L590 712L439 712L199 379L199 712L62 712ZM262 -56L262 -208L321 -208L365 -114L365 -56Z"/>
<glyph unicode="&#x137;" horiz-adv-x="485" d="M51 0L183 0L183 131L233 195L341 0L488 0L322 297L488 504L346 504L183 296L183 712L51 712ZM218 -56L218 -208L277 -208L321 -114L321 -56Z"/>
<glyph unicode="&#x139;" horiz-adv-x="486" d="M62 0L473 0L473 110L199 110L199 712L62 712ZM76 776L161 776L274 932L149 932Z"/>
<glyph unicode="&#x13a;" horiz-adv-x="234" d="M51 0L183 0L183 712L51 712ZM62 776L147 776L260 932L135 932Z"/>
<glyph unicode="&#x13b;" horiz-adv-x="486" d="M62 0L473 0L473 110L199 110L199 712L62 712ZM204 -56L204 -208L263 -208L307 -114L307 -56Z"/>
<glyph unicode="&#x13c;" horiz-adv-x="234" d="M51 0L183 0L183 712L51 712ZM66 -56L66 -208L125 -208L169 -114L169 -56Z"/>
<glyph unicode="&#x13d;" horiz-adv-x="486" d="M62 0L473 0L473 110L199 110L199 712L62 712ZM306 560L365 560L409 654L409 712L306 712Z"/>
<glyph unicode="&#x13e;" horiz-adv-x="243" d="M51 0L183 0L183 712L51 712ZM223 560L282 560L326 654L326 712L223 712Z"/>
<glyph unicode="&#x13f;" horiz-adv-x="486" d="M62 0L473 0L473 110L199 110L199 712L62 712ZM302 303L407 303L407 417L302 417Z"/>
<glyph unicode="&#x140;" horiz-adv-x="317" d="M51 0L183 0L183 712L51 712ZM223 303L328 303L328 417L223 417Z"/>
<glyph unicode="&#x141;" horiz-adv-x="504" d="M17 189L81 235L81 0L491 0L491 110L217 110L217 332L377 447L377 560L217 445L217 712L81 712L81 348L17 302Z"/>
<glyph unicode="&#x142;" horiz-adv-x="281" d="M18 233L75 274L75 0L208 0L208 369L264 409L264 498L208 458L208 712L75 712L75 363L18 322Z"/>
<glyph unicode="&#x143;" horiz-adv-x="631" d="M62 0L190 0L190 474L433 0L569 0L569 712L441 712L441 255L207 712L62 712ZM260 776L345 776L458 932L333 932Z"/>
<glyph unicode="&#x144;" horiz-adv-x="503" d="M51 0L183 0L183 298C183 375 199 397 254 397C306 397 323 375 323 298L323 0L456 0L456 327C456 448 413 512 298 512C234 512 194 488 177 445L177 504L51 504ZM198 573L283 573L396 729L271 729Z"/>
<glyph unicode="&#x145;" horiz-adv-x="631" d="M62 0L190 0L190 474L433 0L569 0L569 712L441 712L441 255L207 712L62 712ZM264 -56L264 -208L323 -208L367 -114L367 -56Z"/>
<glyph unicode="&#x146;" horiz-adv-x="503" d="M51 0L183 0L183 298C183 375 199 397 254 397C306 397 323 375 323 298L323 0L456 0L456 327C456 448 413 512 298 512C234 512 194 488 177 445L177 504L51 504ZM202 -56L202 -208L261 -208L305 -114L305 -56Z"/>
<glyph unicode="&#x147;" horiz-adv-x="631" d="M62 0L190 0L190 474L433 0L569 0L569 712L441 712L441 255L207 712L62 712ZM268 776L364 776L476 932L380 932L315 835L251 932L156 932Z"/>
<glyph unicode="&#x148;" horiz-adv-x="503" d="M51 0L183 0L183 298C183 375 199 397 254 397C306 397 323 375 323 298L323 0L456 0L456 327C456 448 413 512 298 512C234 512 194 488 177 445L177 504L51 504ZM206 573L302 573L414 729L318 729L253 632L189 729L94 729Z"/>
<glyph unicode="&#x149;" horiz-adv-x="503" d="M51 0L183 0L183 298C183 375 199 397 254 397C306 397 323 375 323 298L323 0L456 0L456 327C456 448 413 512 298 512C234 512 194 488 177 445L177 504L51 504ZM65 560L124 560L168 654L168 712L65 712Z"/>
<glyph unicode="&#x14a;" horiz-adv-x="631" d="M62 0L190 0L190 478L441 15L441 -5C441 -73 414 -98 347 -98L292 -98L292 -208L354 -208C514 -208 569 -130 569 9L569 712L441 712L441 279L207 712L62 712Z"/>
<glyph unicode="&#x14b;" horiz-adv-x="503" d="M225 -107L225 -208L278 -208C406 -208 456 -149 456 -25L456 327C456 448 413 512 298 512C234 512 194 488 177 445L177 504L51 504L51 0L183 0L183 298C183 375 199 397 254 397C306 397 323 375 323 298L323 -42C323 -85 301 -107 258 -107Z"/>
<glyph unicode="&#x14c;" horiz-adv-x="620" d="M310 -12C531 -12 585 78 585 358C585 649 521 724 310 724C99 724 35 649 35 358C35 78 89 -12 310 -12ZM310 98C195 98 178 125 178 360C178 566 195 600 310 600C425 600 442 566 442 360C442 125 425 98 310 98ZM169 813L448 813L448 895L169 895Z"/>
<glyph unicode="&#x14d;" horiz-adv-x="496" d="M248 -8C411 -8 465 56 465 252C465 446 408 512 248 512C88 512 31 452 31 252C31 56 85 -8 248 -8ZM248 93C184 93 165 114 165 252C165 379 184 399 248 399C313 399 330 379 330 252C330 115 313 93 248 93ZM107 605L386 605L386 687L107 687Z"/>
<glyph unicode="&#x14e;" horiz-adv-x="620" d="M310 -12C531 -12 585 78 585 358C585 649 521 724 310 724C99 724 35 649 35 358C35 78 89 -12 310 -12ZM310 98C195 98 178 125 178 360C178 566 195 600 310 600C425 600 442 566 442 360C442 125 425 98 310 98ZM310 768C395 768 446 806 450 922L378 922C375 859 358 839 310 839C261 839 244 859 241 922L169 922C173 806 223 768 310 768Z"/>
<glyph unicode="&#x14f;" horiz-adv-x="496" d="M248 -8C411 -8 465 56 465 252C465 446 408 512 248 512C88 512 31 452 31 252C31 56 85 -8 248 -8ZM248 93C184 93 165 114 165 252C165 379 184 399 248 399C313 399 330 379 330 252C330 115 313 93 248 93ZM248 560C333 560 384 598 388 714L316 714C313 651 296 631 248 631C199 631 182 651 179 714L107 714C111 598 161 560 248 560Z"/>
<glyph unicode="&#x150;" horiz-adv-x="620" d="M310 -12C531 -12 585 78 585 358C585 649 521 724 310 724C99 724 35 649 35 358C35 78 89 -12 310 -12ZM310 98C195 98 178 125 178 360C178 566 195 600 310 600C425 600 442 566 442 360C442 125 425 98 310 98ZM337 776L422 776L535 932L411 932ZM163 776L248 776L362 932L237 932Z"/>
<glyph unicode="&#x151;" horiz-adv-x="496" d="M248 -8C411 -8 465 56 465 252C465 446 408 512 248 512C88 512 31 452 31 252C31 56 85 -8 248 -8ZM248 93C184 93 165 114 165 252C165 379 184 399 248 399C313 399 330 379 330 252C330 115 313 93 248 93ZM275 568L360 568L473 724L349 724ZM101 568L186 568L300 724L175 724Z"/>
<glyph unicode="&#x152;" horiz-adv-x="880" d="M846 0L846 110L561 110L561 303L815 303L815 417L561 417L561 590L846 590L846 712L310 712C99 712 35 637 35 358C35 89 94 0 314 0ZM177 360C177 554 198 588 310 588L424 588L424 110L310 110C198 110 177 136 177 360Z"/>
<glyph unicode="&#x153;" horiz-adv-x="773" d="M547 -8C677 -8 733 55 740 155L623 155C617 104 596 90 546 90C485 90 465 108 463 225L744 225L744 251C744 428 702 512 543 512C477 512 430 494 398 455C368 494 320 512 248 512C87 512 31 451 31 252C31 57 86 -8 248 -8C319 -8 367 9 397 47C429 8 478 -8 547 -8ZM248 93C183 93 165 114 165 252C165 379 183 399 248 399C313 399 330 379 330 252C330 115 313 93 248 93ZM544 403C595 403 615 386 620 311L465 311C472 389 497 403 544 403Z"/>
<glyph unicode="&#x154;" horiz-adv-x="574" d="M62 0L199 0L199 247L284 247L406 0L557 0L416 271C496 290 536 351 536 483C536 659 468 712 319 712L62 712ZM297 588C371 588 395 574 395 478C395 373 370 363 301 363L199 363L199 588ZM226 776L311 776L424 932L299 932Z"/>
<glyph unicode="&#x155;" horiz-adv-x="319" d="M48 0L180 0L180 335C180 378 197 395 240 395L306 395L306 504L222 504C98 504 48 453 48 330ZM125 568L210 568L323 724L198 724Z"/>
<glyph unicode="&#x156;" horiz-adv-x="574" d="M62 0L199 0L199 247L284 247L406 0L557 0L416 271C496 290 536 351 536 483C536 659 468 712 319 712L62 712ZM297 588C371 588 395 574 395 478C395 373 370 363 301 363L199 363L199 588ZM250 -56L250 -208L309 -208L353 -114L353 -56Z"/>
<glyph unicode="&#x157;" horiz-adv-x="319" d="M48 0L180 0L180 335C180 378 197 395 240 395L306 395L306 504L222 504C98 504 48 453 48 330ZM63 -56L63 -208L122 -208L166 -114L166 -56Z"/>
<glyph unicode="&#x158;" horiz-adv-x="574" d="M62 0L199 0L199 247L284 247L406 0L557 0L416 271C496 290 536 351 536 483C536 659 468 712 319 712L62 712ZM297 588C371 588 395 574 395 478C395 373 370 363 301 363L199 363L199 588ZM234 776L330 776L442 932L346 932L281 835L217 932L122 932Z"/>
<glyph unicode="&#x159;" horiz-adv-x="319" d="M48 0L180 0L180 335C180 378 197 395 240 395L306 395L306 504L222 504C98 504 48 453 48 330ZM133 568L229 568L341 724L245 724L180 627L116 724L21 724Z"/>
<glyph unicode="&#x15a;" horiz-adv-x="546" d="M29 219C37 51 96 -12 272 -12C452 -12 517 61 517 193C517 316 456 373 333 404L278 418C201 438 173 453 173 517C173 578 204 600 272 600C349 600 371 581 376 488L509 488C504 651 455 724 270 724C97 724 35 647 35 515C35 378 99 329 221 298L276 284C351 265 378 246 378 189C378 122 351 98 274 98C190 98 169 127 164 219ZM217 776L302 776L415 932L290 932Z"/>
<glyph unicode="&#x15b;" horiz-adv-x="439" d="M28 153C33 62 59 -8 215 -8C366 -8 412 53 412 141C412 226 373 274 286 291L224 303C169 314 156 327 156 359C156 396 171 407 222 407C271 407 286 394 289 341L404 341C404 460 355 512 219 512C98 512 30 462 30 357C30 261 84 217 160 202L222 190C273 180 286 172 286 137C286 102 274 86 219 86C168 86 149 100 146 153ZM167 568L252 568L365 724L240 724Z"/>
<glyph unicode="&#x15c;" horiz-adv-x="546" d="M29 219C37 51 96 -12 272 -12C452 -12 517 61 517 193C517 316 456 373 333 404L278 418C201 438 173 453 173 517C173 578 204 600 272 600C349 600 371 581 376 488L509 488C504 651 455 724 270 724C97 724 35 647 35 515C35 378 99 329 221 298L276 284C351 265 378 246 378 189C378 122 351 98 274 98C190 98 169 127 164 219ZM113 776L208 776L272 872L337 776L433 776L321 932L225 932Z"/>
<glyph unicode="&#x15d;" horiz-adv-x="439" d="M28 153C33 62 59 -8 215 -8C366 -8 412 53 412 141C412 226 373 274 286 291L224 303C169 314 156 327 156 359C156 396 171 407 222 407C271 407 286 394 289 341L404 341C404 460 355 512 219 512C98 512 30 462 30 357C30 261 84 217 160 202L222 190C273 180 286 172 286 137C286 102 274 86 219 86C168 86 149 100 146 153ZM63 568L158 568L222 664L287 568L383 568L271 724L175 724Z"/>
<glyph unicode="&#x15e;" horiz-adv-x="546" d="M223 -87L260 -87C295 -87 308 -95 308 -122C308 -149 295 -159 260 -159L201 -159L201 -216L273 -216C362 -216 393 -176 393 -124C393 -76 373 -39 290 -34L290 -12C456 -7 517 65 517 193C517 316 456 373 333 404L278 418C201 438 173 453 173 517C173 578 204 600 272 600C349 600 371 581 376 488L509 488C504 651 455 724 270 724C97 724 35 647 35 515C35 378 99 329 221 298L276 284C351 265 378 246 378 189C378 122 351 98 274 98C190 98 169 127 164 219L29 219C36 59 90 -5 245 -11Z"/>
<glyph unicode="&#x15f;" horiz-adv-x="439" d="M168 -87L205 -87C240 -87 253 -95 253 -122C253 -149 240 -159 205 -159L146 -159L146 -216L218 -216C307 -216 338 -176 338 -124C338 -76 318 -39 235 -34L235 -7C370 -2 412 57 412 141C412 226 373 274 286 291L224 303C169 314 156 327 156 359C156 396 171 407 222 407C271 407 286 394 289 341L404 341C404 460 355 512 219 512C98 512 30 462 30 357C30 261 84 217 160 202L222 190C273 180 286 172 286 137C286 102 274 86 219 86C168 86 149 100 146 153L28 153C32 66 56 -1 192 -7Z"/>
<glyph unicode="&#x160;" horiz-adv-x="546" d="M29 219C37 51 96 -12 272 -12C452 -12 517 61 517 193C517 316 456 373 333 404L278 418C201 438 173 453 173 517C173 578 204 600 272 600C349 600 371 581 376 488L509 488C504 651 455 724 270 724C97 724 35 647 35 515C35 378 99 329 221 298L276 284C351 265 378 246 378 189C378 122 351 98 274 98C190 98 169 127 164 219ZM225 776L321 776L433 932L337 932L272 835L208 932L113 932Z"/>
<glyph unicode="&#x161;" horiz-adv-x="439" d="M28 153C33 62 59 -8 215 -8C366 -8 412 53 412 141C412 226 373 274 286 291L224 303C169 314 156 327 156 359C156 396 171 407 222 407C271 407 286 394 289 341L404 341C404 460 355 512 219 512C98 512 30 462 30 357C30 261 84 217 160 202L222 190C273 180 286 172 286 137C286 102 274 86 219 86C168 86 149 100 146 153ZM175 568L271 568L383 724L287 724L222 627L158 724L63 724Z"/>
<glyph unicode="&#x162;" horiz-adv-x="529" d="M218 -87L255 -87C290 -87 303 -95 303 -122C303 -149 290 -159 255 -159L196 -159L196 -216L268 -216C357 -216 388 -176 388 -124C388 -76 368 -39 285 -34L285 0L333 0L333 588L514 588L514 712L15 712L15 588L197 588L197 0L244 0Z"/>
<glyph unicode="&#x163;" horiz-adv-x="341" d="M155 -87L192 -87C227 -87 240 -95 240 -122C240 -149 227 -159 192 -159L133 -159L133 -216L205 -216C294 -216 325 -176 325 -124C325 -76 305 -39 222 -34L222 1C229 0 237 0 245 0L323 0L323 101L270 101C221 101 204 113 204 168L204 395L325 395L325 504L204 504L204 624L76 624L76 504L14 504L14 395L72 395L72 175C72 71 104 22 180 6Z"/>
<glyph unicode="&#x164;" horiz-adv-x="529" d="M15 588L197 588L197 0L333 0L333 588L514 588L514 712L15 712ZM218 776L314 776L426 932L330 932L265 835L201 932L106 932Z"/>
<glyph unicode="&#x165;" horiz-adv-x="341" d="M14 395L72 395L72 175C72 47 121 0 245 0L323 0L323 101L270 101C221 101 204 113 204 168L204 395L325 395L325 504L204 504L204 624L76 624L76 504L14 504ZM249 560L308 560L352 654L352 712L249 712Z"/>
<glyph unicode="&#x166;" horiz-adv-x="549" d="M25 588L205 588L205 409L71 409L71 305L205 305L205 0L344 0L344 305L478 305L478 409L344 409L344 588L524 588L524 712L25 712Z"/>
<glyph unicode="&#x167;" horiz-adv-x="347" d="M17 395L75 395L75 292L17 292L17 215L75 215L75 175C75 47 125 0 249 0L327 0L327 101L273 101C225 101 208 113 208 168L208 215L329 215L329 292L208 292L208 395L329 395L329 504L208 504L208 624L79 624L79 504L17 504Z"/>
<glyph unicode="&#x168;" horiz-adv-x="625" d="M57 229C57 70 125 -12 313 -12C500 -12 568 70 568 229L568 712L432 712L432 226C432 129 397 98 313 98C229 98 194 129 194 226L194 712L57 712ZM178 792L247 792L247 823C247 838 252 845 261 845C291 845 323 790 374 790C415 790 442 812 442 864L442 920L374 920L374 889C374 874 369 867 360 867C325 867 300 922 246 922C205 922 178 900 178 848Z"/>
<glyph unicode="&#x169;" horiz-adv-x="503" d="M47 177C47 56 90 -8 205 -8C269 -8 309 17 326 61L326 0L452 0L452 504L319 504L319 192C319 113 302 93 249 93C196 93 179 114 179 194L179 504L47 504ZM117 584L186 584L186 615C186 630 191 637 200 637C230 637 262 582 313 582C354 582 381 604 381 656L381 712L313 712L313 681C313 666 308 659 299 659C264 659 239 714 185 714C144 714 117 692 117 640Z"/>
<glyph unicode="&#x16a;" horiz-adv-x="625" d="M57 229C57 70 125 -12 313 -12C500 -12 568 70 568 229L568 712L432 712L432 226C432 129 397 98 313 98C229 98 194 129 194 226L194 712L57 712ZM172 813L451 813L451 895L172 895Z"/>
<glyph unicode="&#x16b;" horiz-adv-x="503" d="M47 177C47 56 90 -8 205 -8C269 -8 309 17 326 61L326 0L452 0L452 504L319 504L319 192C319 113 302 93 249 93C196 93 179 114 179 194L179 504L47 504ZM111 605L390 605L390 687L111 687Z"/>
<glyph unicode="&#x16c;" horiz-adv-x="625" d="M57 229C57 70 125 -12 313 -12C500 -12 568 70 568 229L568 712L432 712L432 226C432 129 397 98 313 98C229 98 194 129 194 226L194 712L57 712ZM313 768C398 768 449 806 453 922L381 922C378 859 361 839 313 839C264 839 247 859 244 922L172 922C176 806 226 768 313 768Z"/>
<glyph unicode="&#x16d;" horiz-adv-x="503" d="M47 177C47 56 90 -8 205 -8C269 -8 309 17 326 61L326 0L452 0L452 504L319 504L319 192C319 113 302 93 249 93C196 93 179 114 179 194L179 504L47 504ZM252 560C337 560 388 598 392 714L320 714C317 651 300 631 252 631C203 631 186 651 183 714L111 714C115 598 165 560 252 560Z"/>
<glyph unicode="&#x16e;" horiz-adv-x="625" d="M57 229C57 70 125 -12 313 -12C500 -12 568 70 568 229L568 712L432 712L432 226C432 129 397 98 313 98C229 98 194 129 194 226L194 712L57 712ZM313 768C381 768 415 802 415 870C415 939 381 973 313 973C244 973 210 939 210 870C210 802 244 768 313 768ZM313 819C273 819 265 838 265 870C265 903 273 922 313 922C353 922 360 903 360 870C360 838 353 819 313 819Z"/>
<glyph unicode="&#x16f;" horiz-adv-x="503" d="M47 177C47 56 90 -8 205 -8C269 -8 309 17 326 61L326 0L452 0L452 504L319 504L319 192C319 113 302 93 249 93C196 93 179 114 179 194L179 504L47 504ZM252 560C320 560 354 594 354 662C354 731 320 765 252 765C183 765 149 731 149 662C149 594 183 560 252 560ZM252 611C212 611 204 630 204 662C204 695 212 714 252 714C292 714 299 695 299 662C299 630 292 611 252 611Z"/>
<glyph unicode="&#x170;" horiz-adv-x="625" d="M57 229C57 70 125 -12 313 -12C500 -12 568 70 568 229L568 712L432 712L432 226C432 129 397 98 313 98C229 98 194 129 194 226L194 712L57 712ZM340 776L425 776L538 932L414 932ZM166 776L251 776L365 932L240 932Z"/>
<glyph unicode="&#x171;" horiz-adv-x="503" d="M47 177C47 56 90 -8 205 -8C269 -8 309 17 326 61L326 0L452 0L452 504L319 504L319 192C319 113 302 93 249 93C196 93 179 114 179 194L179 504L47 504ZM279 568L364 568L477 724L353 724ZM105 568L190 568L304 724L179 724Z"/>
<glyph unicode="&#x172;" horiz-adv-x="625" d="M267 -128C267 -184 303 -216 379 -216L416 -216L416 -145L388 -145C356 -145 340 -130 340 -103C340 -72 364 -46 405 -3C524 21 568 98 568 229L568 712L432 712L432 226C432 129 397 98 313 98C229 98 194 129 194 226L194 712L57 712L57 229C57 70 125 -12 313 -12C325 -12 336 -11 347 -11C305 -51 267 -82 267 -128Z"/>
<glyph unicode="&#x173;" horiz-adv-x="503" d="M47 177C47 56 90 -8 205 -8C269 -8 309 17 326 61L326 0L401 0C354 -45 309 -79 309 -128C309 -184 345 -216 421 -216L459 -216L459 -145L430 -145C398 -145 382 -130 382 -103C382 -72 408 -44 452 0L452 504L319 504L319 194C319 113 302 93 249 93C196 93 179 114 179 194L179 504L47 504Z"/>
<glyph unicode="&#x174;" horiz-adv-x="898" d="M177 0L337 0L453 449L565 0L721 0L892 712L766 712L643 163L511 712L403 712L270 162L146 712L6 712ZM296 776L391 776L455 872L520 776L616 776L504 932L408 932Z"/>
<glyph unicode="&#x175;" horiz-adv-x="721" d="M151 0L276 0L359 280L448 0L570 0L718 504L599 504L515 176L422 504L318 504L224 176L141 504L4 504ZM209 568L304 568L368 664L433 568L529 568L417 724L321 724Z"/>
<glyph unicode="&#x176;" horiz-adv-x="560" d="M212 0L349 0L349 270L555 712L426 712L288 414L151 712L5 712L212 270ZM121 776L216 776L280 872L345 776L441 776L329 932L233 932Z"/>
<glyph unicode="&#x177;" horiz-adv-x="470" d="M45 -107L45 -208L100 -208C213 -208 249 -154 284 -48L469 504L351 504L247 165L143 504L5 504L183 -18L177 -39C161 -95 131 -107 86 -107ZM78 568L173 568L237 664L302 568L398 568L286 724L190 724Z"/>
<glyph unicode="&#x178;" horiz-adv-x="560" d="M212 0L349 0L349 270L555 712L426 712L288 414L151 712L5 712L212 270ZM319 795L424 795L424 909L319 909ZM135 795L240 795L240 909L135 909Z"/>
<glyph unicode="&#x179;" horiz-adv-x="500" d="M22 588L311 588L28 83L28 0L474 0L474 110L188 110L480 629L480 712L22 712ZM196 776L281 776L394 932L269 932Z"/>
<glyph unicode="&#x17a;" horiz-adv-x="417" d="M27 395L229 395L29 72L29 0L388 0L388 101L186 101L392 432L392 504L27 504ZM154 568L239 568L352 724L227 724Z"/>
<glyph unicode="&#x17b;" horiz-adv-x="500" d="M22 588L311 588L28 83L28 0L474 0L474 110L188 110L480 629L480 712L22 712ZM198 795L303 795L303 909L198 909Z"/>
<glyph unicode="&#x17c;" horiz-adv-x="417" d="M27 395L229 395L29 72L29 0L388 0L388 101L186 101L392 432L392 504L27 504ZM156 587L261 587L261 701L156 701Z"/>
<glyph unicode="&#x17d;" horiz-adv-x="500" d="M22 588L311 588L28 83L28 0L474 0L474 110L188 110L480 629L480 712L22 712ZM204 776L300 776L412 932L316 932L251 835L187 932L92 932Z"/>
<glyph unicode="&#x17e;" horiz-adv-x="417" d="M27 395L229 395L29 72L29 0L388 0L388 101L186 101L392 432L392 504L27 504ZM162 568L258 568L370 724L274 724L209 627L145 724L50 724Z"/>
<glyph unicode="&#x17f;" horiz-adv-x="280" d="M19 395L77 395L77 0L209 0L209 539C209 586 230 599 267 599L330 599L330 712L247 712C134 712 77 660 77 547L77 504L19 504Z"/>
<glyph unicode="&#x18f;" horiz-adv-x="605" d="M297 -12C516 -12 570 78 570 358C570 649 505 724 293 724C92 724 44 644 36 487L171 487C179 570 201 600 293 600C401 600 424 569 427 396L30 396L30 347C30 70 93 -12 297 -12ZM297 98C205 98 176 123 171 282L426 282C421 119 396 98 297 98Z"/>
<glyph unicode="&#x192;" horiz-adv-x="560" d="M78 301L197 301L197 -20C197 -83 176 -98 127 -98L60 -98L60 -208L152 -208C269 -208 332 -155 332 -31L332 301L475 301L475 410L332 410L332 524C332 585 352 599 403 599L469 599L469 712L377 712C260 712 197 659 197 535L197 410L78 410Z"/>
<glyph unicode="&#x1fc;" horiz-adv-x="841" d="M1 0L131 0L175 140L386 140L386 0L807 0L807 113L522 113L522 302L777 302L777 415L522 415L522 589L807 589L807 712L237 712ZM319 589L386 589L386 254L212 254ZM403 776L488 776L601 932L476 932Z"/>
<glyph unicode="&#x1fd;" horiz-adv-x="729" d="M24 129C24 37 81 -8 174 -8C249 -8 301 19 322 66C355 13 412 -8 502 -8C632 -8 687 55 695 155L578 155C572 104 551 90 501 90C439 90 420 108 418 225L699 225L699 251C699 428 657 512 498 512C435 512 389 500 355 473C329 497 290 512 231 512C89 512 39 449 36 337L154 337C154 394 174 405 223 405C274 405 285 385 285 326L285 306L222 294C86 269 24 231 24 129ZM212 87C172 87 154 106 154 143C154 182 177 200 244 211L285 217L285 169C285 111 260 87 212 87ZM499 403C550 403 569 386 574 311L420 311C427 389 452 403 499 403ZM306 573L391 573L504 729L379 729Z"/>
<glyph unicode="&#x1fe;" horiz-adv-x="621" d="M28 0L91 67C132 10 200 -12 311 -12C531 -12 585 78 585 358C585 449 578 520 563 572L593 603L593 712L530 645C487 705 419 724 311 724C100 724 36 649 36 358C36 266 42 196 57 140L28 109ZM311 98C239 98 206 108 190 173L441 441C442 418 443 391 443 360C443 125 426 98 311 98ZM179 360C179 566 196 600 311 600C379 600 412 588 428 536L180 271C179 298 179 325 179 360ZM256 774L341 774L454 930L329 930Z"/>
<glyph unicode="&#x1ff;" horiz-adv-x="504" d="M27 0L81 50C116 7 169 -8 252 -8C415 -8 469 56 469 252C469 311 464 357 452 394L477 417L477 504L422 453C387 496 333 512 252 512C92 512 35 452 35 252C35 193 40 145 51 109L27 87ZM252 93C211 93 190 101 179 140L334 285C335 274 335 264 335 252C335 115 316 93 252 93ZM170 252C170 379 187 399 252 399C291 399 312 392 323 361L170 219ZM197 568L282 568L395 724L270 724Z"/>
<glyph unicode="&#x218;" horiz-adv-x="546" d="M29 219C37 51 96 -12 272 -12C452 -12 517 61 517 193C517 316 456 373 333 404L278 418C201 438 173 453 173 517C173 578 204 600 272 600C349 600 371 581 376 488L509 488C504 651 455 724 270 724C97 724 35 647 35 515C35 378 99 329 221 298L276 284C351 265 378 246 378 189C378 122 351 98 274 98C190 98 169 127 164 219ZM221 -56L221 -208L280 -208L324 -114L324 -56Z"/>
<glyph unicode="&#x219;" horiz-adv-x="439" d="M28 153C33 62 59 -8 215 -8C366 -8 412 53 412 141C412 226 373 274 286 291L224 303C169 314 156 327 156 359C156 396 171 407 222 407C271 407 286 394 289 341L404 341C404 460 355 512 219 512C98 512 30 462 30 357C30 261 84 217 160 202L222 190C273 180 286 172 286 137C286 102 274 86 219 86C168 86 149 100 146 153ZM166 -56L166 -208L225 -208L269 -114L269 -56Z"/>
<glyph unicode="&#x21a;" horiz-adv-x="529" d="M15 588L197 588L197 0L333 0L333 588L514 588L514 712L15 712ZM214 -56L214 -208L273 -208L317 -114L317 -56Z"/>
<glyph unicode="&#x21b;" horiz-adv-x="341" d="M14 395L72 395L72 175C72 47 121 0 245 0L323 0L323 101L270 101C221 101 204 113 204 168L204 395L325 395L325 504L204 504L204 624L76 624L76 504L14 504ZM153 -56L153 -208L212 -208L256 -114L256 -56Z"/>
<glyph unicode="&#x237;" horiz-adv-x="234" d="M51 -42C51 -85 29 -107 -14 -107L-47 -107L-47 -208L6 -208C133 -208 183 -149 183 -25L183 504L51 504Z"/>
<glyph unicode="&#x259;" horiz-adv-x="474" d="M231 -8C385 -8 443 66 443 254C443 443 386 512 225 512C99 512 43 447 35 346L155 346C160 387 180 403 227 403C287 403 308 384 311 277L29 277L29 253C29 76 71 -8 231 -8ZM229 90C179 90 160 112 156 191L309 191C302 104 276 90 229 90Z"/>
<glyph unicode="&#x2c6;" horiz-adv-x="489" d="M86 568L181 568L245 664L310 568L406 568L294 724L198 724Z"/>
<glyph unicode="&#x2c7;" horiz-adv-x="489" d="M198 568L294 568L406 724L310 724L245 627L181 724L86 724Z"/>
<glyph unicode="&#x2c9;" horiz-adv-x="489" d="M104 605L383 605L383 687L104 687Z"/>
<glyph unicode="&#x2d8;" horiz-adv-x="489" d="M245 560C330 560 381 598 385 714L313 714C310 651 293 631 245 631C196 631 179 651 176 714L104 714C108 598 158 560 245 560Z"/>
<glyph unicode="&#x2d9;" horiz-adv-x="489" d="M192 587L297 587L297 701L192 701Z"/>
<glyph unicode="&#x2da;" horiz-adv-x="489" d="M245 560C313 560 347 594 347 662C347 731 313 765 245 765C176 765 142 731 142 662C142 594 176 560 245 560ZM245 611C205 611 197 630 197 662C197 695 205 714 245 714C285 714 292 695 292 662C292 630 285 611 245 611Z"/>
<glyph unicode="&#x2db;" horiz-adv-x="489" d="M168 -128C168 -184 204 -216 280 -216L318 -216L318 -145L289 -145C257 -145 241 -130 241 -103C241 -72 267 -44 311 0L260 0C213 -45 168 -79 168 -128Z"/>
<glyph unicode="&#x2dc;" horiz-adv-x="489" d="M110 584L179 584L179 615C179 630 184 637 193 637C223 637 255 582 306 582C347 582 374 604 374 656L374 712L306 712L306 681C306 666 301 659 292 659C257 659 232 714 178 714C137 714 110 692 110 640Z"/>
<glyph unicode="&#x2dd;" horiz-adv-x="489" d="M272 568L357 568L470 724L346 724ZM98 568L183 568L297 724L172 724Z"/>
<glyph unicode="&#x326;" horiz-adv-x="0" d="M-296 -56L-296 -208L-237 -208L-193 -114L-193 -56Z"/>
<glyph unicode="&#x394;" horiz-adv-x="589" d="M4 0L585 0L379 712L210 712ZM287 567L413 110L160 110Z"/>
<glyph unicode="&#x3a9;" horiz-adv-x="636" d="M47 0L286 0L286 219C210 227 180 256 180 412C180 556 203 600 318 600C433 600 456 557 456 412C456 256 426 227 350 219L350 0L589 0L589 110L455 110L455 133C562 162 599 235 599 416C599 634 530 724 318 724C106 724 37 632 37 414C37 236 74 162 181 133L181 110L47 110Z"/>
<glyph unicode="&#x3bc;" horiz-adv-x="526" d="M51 -208L173 -208L173 7C186 -3 204 -8 229 -8C281 -8 323 17 342 60C362 17 402 0 466 0L514 0L514 101L503 101C467 101 456 114 456 153L456 504L323 504L323 194C323 113 306 93 253 93C200 93 183 115 183 193L183 504L51 504Z"/>
<glyph unicode="&#x3c0;" horiz-adv-x="568" d="M15 395L98 395L68 0L201 0L225 395L330 395L330 141C330 34 370 0 482 0L527 0L527 101L508 101C472 101 462 114 462 153L462 395L544 395L544 504L15 504Z"/>
<glyph unicode="&#x60b;" horiz-adv-x="758" d="M287 243C287 174 300 132 328 107L35 107L35 0L705 0L705 236C705 405 654 468 498 468C341 468 287 400 287 243ZM419 238C419 333 437 358 498 358C559 358 573 334 573 237L573 107L511 107C439 107 419 133 419 238ZM436 540L559 540L559 659L436 659ZM534 -220L534 -52L461 -60L461 -228Z"/>
<glyph unicode="&#x60c;" horiz-adv-x="217" d="M48 0L169 0L169 263L102 263L48 95Z"/>
<glyph unicode="&#x60d;" horiz-adv-x="437" d="M12 0L105 0L425 712L332 712Z"/>
<glyph unicode="&#x610;" horiz-adv-x="0" d="M-131 559L47 575C106 581 142 612 142 671C142 723 107 749 58 749C-5 749 -30 717 -61 667L-90 621L-131 618ZM-2 646C14 672 26 689 47 689C63 689 72 681 72 663C72 641 61 634 38 632L-14 627Z"/>
<glyph unicode="&#x615;" horiz-adv-x="0" d="M-131 560L131 583L131 668C131 723 108 749 56 749C6 749 -12 735 -37 707L-37 779L-106 773L-106 621L-131 619ZM-22 659C1 682 13 689 38 689C54 689 63 681 63 661L63 635L-37 627L-37 645Z"/>
<glyph unicode="&#x61b;" horiz-adv-x="217" d="M48 337L169 337L169 600L103 600L48 433ZM48 0L169 0L169 135L48 135Z"/>
<glyph unicode="&#x61e;" horiz-adv-x="380" d="M130 187L251 187L251 322L130 322ZM222 0L343 0L343 135L222 135ZM37 0L158 0L158 135L37 135Z"/>
<glyph unicode="&#x61f;" horiz-adv-x="407" d="M179 233L295 233L295 270C295 390 154 421 154 511C154 571 187 596 256 596L383 596L383 712L252 712C88 712 22 638 22 529C22 354 179 353 179 258ZM176 0L297 0L297 135L176 135Z"/>
<glyph unicode="&#x621;" horiz-adv-x="582" d="M35 0L547 0L547 107L307 107C260 139 226 189 226 243C226 288 239 315 290 315C339 315 348 297 354 240L483 240C480 365 441 424 292 424C169 424 90 378 90 246C90 187 113 142 147 107L35 107Z"/>
<glyph unicode="&#x622;" horiz-adv-x="242" d="M55 0L187 0L187 660L55 660ZM179 728C214 728 241 740 262 752L262 821C233 805 209 796 183 796C143 796 102 821 63 821C28 821 1 809 -20 796L-20 728C9 743 33 752 59 752C99 752 140 728 179 728Z"/>
<glyph unicode="&#x623;" horiz-adv-x="242" d="M55 0L187 0L187 660L55 660ZM2 717L240 738L240 797L124 787C112 791 98 805 98 820C98 834 107 843 121 843C134 843 140 837 143 826L208 832C204 874 183 901 121 901C75 901 31 877 31 824C31 806 38 787 49 780L2 776Z"/>
<glyph unicode="&#x624;" horiz-adv-x="513" d="M54 -109L54 -216L171 -216C404 -216 460 -148 460 55L460 234C460 405 409 468 253 468C97 468 42 399 42 232C42 63 99 0 245 0L326 0C322 -82 291 -109 172 -109ZM174 237C174 333 191 358 253 358C314 358 327 334 327 237L327 107L263 107C191 107 174 131 174 237ZM134 517L372 538L372 597L256 587C244 591 230 605 230 620C230 634 239 643 253 643C266 643 272 637 275 626L340 632C336 674 315 701 253 701C207 701 163 677 163 624C163 606 170 587 181 580L134 576Z"/>
<glyph unicode="&#x625;" horiz-adv-x="242" d="M55 0L187 0L187 712L55 712ZM2 -240L240 -219L240 -160L124 -170C112 -166 98 -152 98 -137C98 -123 107 -114 121 -114C134 -114 140 -120 143 -131L208 -125C204 -83 183 -56 121 -56C75 -56 31 -80 31 -133C31 -151 38 -170 49 -177L2 -181Z"/>
<glyph unicode="&#x626;" horiz-adv-x="991" d="M47 228C47 59 121 0 291 0L663 0L663 355L748 355C792 355 811 335 811 292L811 152L943 152L943 286C943 409 894 460 769 460L530 460L530 107L309 107C202 107 173 135 173 237L173 372L47 372ZM-8 429L230 450L230 509L114 499C102 503 88 517 88 532C88 546 97 555 111 555C124 555 130 549 133 538L198 544C194 586 173 613 111 613C65 613 21 589 21 536C21 518 28 499 39 492L-8 488Z"/>
<glyph unicode="&#x627;" horiz-adv-x="242" d="M55 0L187 0L187 712L55 712Z"/>
<glyph unicode="&#x628;" horiz-adv-x="804" d="M47 228C47 59 121 0 291 0L749 0L749 372L617 372L617 107L309 107C202 107 173 135 173 237L173 372L47 372ZM348 -68L348 -187L472 -187L472 -68Z"/>
<glyph unicode="&#x629;" horiz-adv-x="513" d="M42 230C42 65 97 0 237 0L458 0L458 460L252 460C94 460 42 392 42 230ZM258 107C191 107 174 133 174 230C174 327 191 353 258 353L326 353L326 107ZM281 650L281 540L391 540L391 650ZM137 650L137 540L247 540L247 650Z"/>
<glyph unicode="&#x62a;" horiz-adv-x="804" d="M47 228C47 59 121 0 291 0L749 0L749 372L617 372L617 107L309 107C202 107 173 135 173 237L173 372L47 372ZM415 492L415 382L525 382L525 492ZM271 492L271 382L381 382L381 492Z"/>
<glyph unicode="&#x62b;" horiz-adv-x="804" d="M47 228C47 59 121 0 291 0L749 0L749 372L617 372L617 107L309 107C202 107 173 135 173 237L173 372L47 372ZM416 487L416 382L521 382L521 487ZM275 487L275 382L380 382L380 487ZM350 518L446 518L446 615L350 615Z"/>
<glyph unicode="&#x62c;" horiz-adv-x="642" d="M16 -55C16 -155 66 -216 197 -216L266 -216L266 -109L209 -109C158 -109 142 -91 142 -55C142 -16 158 0 209 0L607 0L607 107L596 107C544 107 529 141 514 179L465 310C429 406 395 460 265 460L131 460L131 353L249 353C308 353 323 327 341 276L379 174C392 140 405 119 423 107L197 107C66 107 16 46 16 -55ZM331 -68L331 -187L455 -187L455 -68Z"/>
<glyph unicode="&#x62d;" horiz-adv-x="642" d="M16 -55C16 -155 66 -216 197 -216L478 -216L478 -109L209 -109C158 -109 142 -91 142 -55C142 -16 158 0 209 0L607 0L607 107L596 107C544 107 529 141 514 179L465 310C429 406 395 460 265 460L131 460L131 353L249 353C308 353 323 327 341 276L379 174C392 140 405 119 423 107L197 107C66 107 16 46 16 -55Z"/>
<glyph unicode="&#x62e;" horiz-adv-x="642" d="M16 -55C16 -155 66 -216 197 -216L478 -216L478 -109L209 -109C158 -109 142 -91 142 -55C142 -16 158 0 209 0L607 0L607 107L596 107C544 107 529 141 514 179L465 310C429 406 395 460 265 460L131 460L131 353L249 353C308 353 323 327 341 276L379 174C392 140 405 119 423 107L197 107C66 107 16 46 16 -55ZM192 540L316 540L316 659L192 659Z"/>
<glyph unicode="&#x62f;" horiz-adv-x="459" d="M35 0L409 0L409 259C409 407 351 460 195 460L72 460L72 353L182 353C248 353 276 329 276 261L276 107L35 107Z"/>
<glyph unicode="&#x630;" horiz-adv-x="459" d="M35 0L409 0L409 259C409 407 351 460 195 460L72 460L72 353L182 353C248 353 276 329 276 261L276 107L35 107ZM150 540L274 540L274 659L150 659Z"/>
<glyph unicode="&#x631;" horiz-adv-x="242" d="M-55 -109L-55 -216L10 -216C136 -216 187 -156 187 -33L187 372L55 372L55 -44C55 -89 35 -109 -10 -109Z"/>
<glyph unicode="&#x632;" horiz-adv-x="242" d="M-55 -109L-55 -216L10 -216C136 -216 187 -156 187 -33L187 372L55 372L55 -44C55 -89 35 -109 -10 -109ZM59 452L183 452L183 571L59 571Z"/>
<glyph unicode="&#x633;" horiz-adv-x="1149" d="M47 40C47 -159 110 -216 307 -216C489 -216 560 -179 569 0L936 0C1051 0 1094 64 1094 185L1094 416L961 416L961 202C961 123 945 107 892 107L832 107L832 372L699 372L699 107L570 107L570 372L438 372L438 50C438 -85 415 -110 306 -110C196 -110 175 -85 175 50L175 196L47 196Z"/>
<glyph unicode="&#x634;" horiz-adv-x="1149" d="M47 40C47 -159 110 -216 307 -216C489 -216 560 -179 569 0L936 0C1051 0 1094 64 1094 185L1094 416L961 416L961 202C961 123 945 107 892 107L832 107L832 372L699 372L699 107L570 107L570 372L438 372L438 50C438 -85 415 -110 306 -110C196 -110 175 -85 175 50L175 196L47 196ZM784 557L784 452L889 452L889 557ZM643 557L643 452L748 452L748 557ZM718 588L814 588L814 685L718 685Z"/>
<glyph unicode="&#x635;" horiz-adv-x="1305" d="M47 40C47 -159 110 -216 307 -216C499 -216 567 -175 570 32C596 11 637 0 692 0L1249 0L1249 217C1249 402 1154 466 1009 466C791 466 699 269 629 107C584 112 570 136 570 206L570 372L438 372L438 50C438 -85 415 -110 306 -110C196 -110 175 -85 175 50L175 196L47 196ZM1001 353C1086 353 1116 312 1116 220L1116 107L759 107C806 213 887 353 1001 353Z"/>
<glyph unicode="&#x636;" horiz-adv-x="1305" d="M47 40C47 -159 110 -216 307 -216C499 -216 567 -175 570 32C596 11 637 0 692 0L1249 0L1249 217C1249 402 1154 466 1009 466C791 466 699 269 629 107C584 112 570 136 570 206L570 372L438 372L438 50C438 -85 415 -110 306 -110C196 -110 175 -85 175 50L175 196L47 196ZM1001 353C1086 353 1116 312 1116 220L1116 107L759 107C806 213 887 353 1001 353ZM947 540L1071 540L1071 659L947 659Z"/>
<glyph unicode="&#x637;" horiz-adv-x="779" d="M35 0L723 0L723 217C723 402 631 466 485 466C389 466 323 425 272 364L272 712L139 712L139 183C127 158 116 132 105 107L35 107ZM475 353C560 353 590 312 590 220L590 107L234 107C281 213 362 353 475 353Z"/>
<glyph unicode="&#x638;" horiz-adv-x="779" d="M35 0L723 0L723 217C723 402 631 466 485 466C389 466 323 425 272 364L272 712L139 712L139 183C127 158 116 132 105 107L35 107ZM475 353C560 353 590 312 590 220L590 107L234 107C281 213 362 353 475 353ZM423 540L547 540L547 659L423 659Z"/>
<glyph unicode="&#x639;" horiz-adv-x="669" d="M16 -55C16 -155 66 -216 197 -216L478 -216L478 -109L209 -109C158 -109 142 -91 142 -55C142 -16 158 0 209 0L633 0L633 107L371 107C313 144 271 206 271 271C271 325 289 358 350 358C409 358 423 335 428 272L556 272C552 406 507 468 353 468C220 468 137 412 137 270C137 202 166 148 209 107L197 107C66 107 16 46 16 -55Z"/>
<glyph unicode="&#x63a;" horiz-adv-x="669" d="M16 -55C16 -155 66 -216 197 -216L478 -216L478 -109L209 -109C158 -109 142 -91 142 -55C142 -16 158 0 209 0L633 0L633 107L371 107C313 144 271 206 271 271C271 325 289 358 350 358C409 358 423 335 428 272L556 272C552 406 507 468 353 468C220 468 137 412 137 270C137 202 166 148 209 107L197 107C66 107 16 46 16 -55ZM291 540L415 540L415 659L291 659Z"/>
<glyph unicode="&#x640;" horiz-adv-x="290" d="M44 0L338 0C349 14 354 34 354 52C354 86 336 107 294 107L0 107C-11 93 -16 73 -16 55C-16 21 2 0 44 0Z"/>
<glyph unicode="&#x641;" horiz-adv-x="951" d="M47 228C47 59 121 0 291 0L898 0L898 236C898 405 846 468 690 468C533 468 479 400 479 243C479 174 492 132 520 107L309 107C202 107 173 135 173 237L173 372L47 372ZM612 238C612 333 629 358 690 358C751 358 765 334 765 237L765 107L693 107C630 107 612 138 612 238ZM628 540L752 540L752 659L628 659Z"/>
<glyph unicode="&#x642;" horiz-adv-x="745" d="M47 65C47 -136 113 -216 367 -216C622 -216 691 -147 691 49L691 234C691 405 640 468 484 468C328 468 273 399 273 232C273 63 331 0 476 0L559 0C558 -76 516 -109 367 -109C216 -109 173 -73 173 65L173 196L47 196ZM406 237C406 333 423 358 484 358C545 358 559 334 559 237L559 107L494 107C422 107 406 131 406 237ZM501 650L501 540L611 540L611 650ZM357 650L357 540L467 540L467 650Z"/>
<glyph unicode="&#x643;" horiz-adv-x="804" d="M47 228C47 59 121 0 291 0L749 0L749 712L617 712L617 107L309 107C202 107 173 135 173 237L173 372L47 372ZM310 419L310 383L405 383C429 383 439 376 439 355L439 328L275 328L275 267L512 267L512 353C512 411 481 444 417 444L397 444L458 540L384 540Z"/>
<glyph unicode="&#x644;" horiz-adv-x="625" d="M47 40C47 -159 110 -216 307 -216C503 -216 570 -174 570 43L570 712L438 712L438 50C438 -85 414 -110 304 -110C195 -110 173 -85 173 50L173 196L47 196Z"/>
<glyph unicode="&#x645;" horiz-adv-x="659" d="M16 -59L16 -216L146 -216L146 -56C146 -19 157 0 199 0L416 0C556 0 618 65 618 234C618 400 564 468 409 468C253 468 199 404 199 234L199 107L188 107C63 107 16 44 16 -59ZM332 107L332 237C332 334 347 358 409 358C470 358 485 335 485 238C485 133 465 107 398 107Z"/>
<glyph unicode="&#x646;" horiz-adv-x="625" d="M47 40C47 -159 110 -216 307 -216C503 -216 570 -174 570 43L570 416L438 416L438 50C438 -85 414 -110 304 -110C195 -110 173 -85 173 50L173 196L47 196ZM243 297L367 297L367 416L243 416Z"/>
<glyph unicode="&#x647;" horiz-adv-x="513" d="M42 230C42 65 97 0 237 0L458 0L458 460L252 460C94 460 42 392 42 230ZM258 107C191 107 174 133 174 230C174 327 191 353 258 353L326 353L326 107Z"/>
<glyph unicode="&#x648;" horiz-adv-x="513" d="M54 -109L54 -216L171 -216C404 -216 460 -148 460 55L460 234C460 405 409 468 253 468C97 468 42 399 42 232C42 63 99 0 245 0L326 0C322 -82 291 -109 172 -109ZM174 237C174 333 191 358 253 358C314 358 327 334 327 237L327 107L263 107C191 107 174 131 174 237Z"/>
<glyph unicode="&#x649;" horiz-adv-x="991" d="M47 228C47 59 121 0 291 0L663 0L663 355L748 355C792 355 811 335 811 292L811 152L943 152L943 286C943 409 894 460 769 460L530 460L530 107L309 107C202 107 173 135 173 237L173 372L47 372Z"/>
<glyph unicode="&#x64a;" horiz-adv-x="991" d="M47 228C47 59 121 0 291 0L663 0L663 355L748 355C792 355 811 335 811 292L811 152L943 152L943 286C943 409 894 460 769 460L530 460L530 107L309 107C202 107 173 135 173 237L173 372L47 372ZM388 -68L388 -178L498 -178L498 -68ZM244 -68L244 -178L354 -178L354 -68Z"/>
<glyph unicode="&#x64b;" horiz-adv-x="0" d="M-119 663L119 683L119 742L-119 721ZM-119 562L119 583L119 641L-119 621Z"/>
<glyph unicode="&#x64c;" horiz-adv-x="0" d="M50 750C-6 750 -44 718 -44 666C-44 647 -39 634 -28 626L-76 622L-76 684L-173 664L-173 609L-141 614L-141 560L143 584L143 666C143 719 118 750 50 750ZM50 690C67 690 74 684 74 665L74 636L59 635C34 633 24 645 24 662C24 681 34 690 50 690Z"/>
<glyph unicode="&#x64d;" horiz-adv-x="0" d="M-119 -136L119 -116L119 -58L-119 -79ZM-119 -237L119 -216L119 -158L-119 -178Z"/>
<glyph unicode="&#x64e;" horiz-adv-x="0" d="M-119 562L119 583L119 641L-119 620Z"/>
<glyph unicode="&#x64f;" horiz-adv-x="0" d="M-113 562L119 582L119 664C119 717 94 748 26 748C-31 748 -68 716 -68 665C-68 646 -63 633 -53 625L-113 620ZM35 633C9 632 1 643 1 660C1 680 9 689 26 689C42 689 50 682 50 663L50 634Z"/>
<glyph unicode="&#x650;" horiz-adv-x="0" d="M-119 -136L119 -116L119 -58L-119 -79Z"/>
<glyph unicode="&#x651;" horiz-adv-x="0" d="M-75 565C-37 565 -11 577 0 604C8 585 25 576 50 576C92 576 136 587 136 652L136 739L66 732L66 654C66 637 58 634 47 634C38 634 32 637 32 652L32 721L-32 716L-32 646C-32 629 -40 626 -52 626C-61 626 -66 629 -66 644L-66 721L-136 715L-136 628C-136 578 -110 565 -75 565Z"/>
<glyph unicode="&#x652;" horiz-adv-x="0" d="M0 568C58 568 106 603 106 666C106 729 58 765 0 765C-58 765 -106 729 -106 666C-106 603 -58 568 0 568ZM0 631C-19 631 -34 642 -34 666C-34 690 -19 701 0 701C19 701 34 690 34 666C34 642 19 631 0 631Z"/>
<glyph unicode="&#x653;" horiz-adv-x="0" d="M58 572C93 572 120 584 141 596L141 665C112 649 88 640 62 640C22 640 -19 665 -58 665C-93 665 -120 653 -141 640L-141 572C-112 587 -88 596 -62 596C-22 596 19 572 58 572Z"/>
<glyph unicode="&#x654;" horiz-adv-x="0" d="M-119 561L119 582L119 641L3 631C-9 635 -23 649 -23 664C-23 678 -14 687 0 687C13 687 19 681 22 670L87 676C83 718 62 745 0 745C-46 745 -90 721 -90 668C-90 650 -83 631 -72 624L-119 620Z"/>
<glyph unicode="&#x655;" horiz-adv-x="0" d="M-119 -239L119 -218L119 -160L3 -170C-9 -165 -23 -152 -23 -136C-23 -123 -14 -114 0 -114C13 -114 19 -120 22 -131L87 -125C83 -83 62 -56 0 -56C-46 -56 -90 -79 -90 -133C-90 -151 -83 -169 -72 -177L-119 -181Z"/>
<glyph unicode="&#x656;" horiz-adv-x="0" d="M35 -220L35 -52L-37 -60L-37 -228Z"/>
<glyph unicode="&#x657;" horiz-adv-x="0" d="M121 755L-111 735L-111 652C-111 600 -86 568 -18 568C39 568 76 600 76 652C76 670 71 683 61 692L121 697ZM-27 683C-1 685 7 673 7 656C7 637 -1 628 -18 628C-34 628 -42 634 -42 654L-42 682Z"/>
<glyph unicode="&#x658;" horiz-adv-x="0" d="M-15 568C70 568 118 604 118 668L118 726L42 719L42 675C42 650 32 630 -8 630C-35 630 -42 646 -42 667L-42 712L-118 704L-118 651C-118 597 -86 568 -15 568Z"/>
<glyph unicode="&#x659;" horiz-adv-x="0" d="M-119 573L119 573L119 631L-119 631Z"/>
<glyph unicode="&#x65a;" horiz-adv-x="0" d="M-37 572L37 572L137 730L54 730L0 636L-54 730L-137 730Z"/>
<glyph unicode="&#x65b;" horiz-adv-x="0" d="M-54 572L0 665L54 572L137 572L37 730L-37 730L-137 572Z"/>
<glyph unicode="&#x660;" horiz-adv-x="250" d="M63 298L187 298L187 429L63 429Z"/>
<glyph unicode="&#x661;" horiz-adv-x="259" d="M63 0L196 0L196 712L63 712Z"/>
<glyph unicode="&#x662;" horiz-adv-x="568" d="M63 0L196 0L196 436C220 407 263 391 333 391C482 391 532 460 532 581L532 712L410 712L410 596C410 519 385 498 304 498C221 498 196 519 196 596L196 712L63 712Z"/>
<glyph unicode="&#x663;" horiz-adv-x="627" d="M63 0L196 0L196 419C213 403 239 394 274 394C325 394 358 409 377 442C391 411 424 394 474 394C555 394 592 435 592 523L592 712L477 712L477 547C477 503 464 493 436 493C407 493 394 503 394 547L394 712L279 712L279 547C279 503 265 493 238 493C209 493 196 503 196 547L196 712L63 712Z"/>
<glyph unicode="&#x664;" horiz-adv-x="516" d="M33 181C33 52 127 0 258 0L483 0L483 107L273 107C191 107 167 136 167 195C167 263 196 282 380 321L418 329L400 431L292 407C232 433 190 470 190 525C190 572 209 605 281 605L476 605L476 712L281 712C126 712 60 643 60 530C60 449 99 402 161 368C67 329 33 274 33 181Z"/>
<glyph unicode="&#x665;" horiz-adv-x="595" d="M298 40C493 40 554 125 554 292C554 417 516 676 298 676C79 676 42 417 42 292C42 125 103 40 298 40ZM298 147C199 147 180 209 180 313C180 402 204 569 298 569C391 569 415 403 415 313C415 209 396 147 298 147Z"/>
<glyph unicode="&#x666;" horiz-adv-x="514" d="M22 601L318 601L318 0L450 0L450 712L22 712Z"/>
</font>
</defs>
</svg>
