<?xml version="1.0" encoding="UTF-8" standalone="no"?>
<svg xmlns="http://www.w3.org/2000/svg">
<metadata>
This is a SVG font generated by Alphabet Type GmbH.
</metadata>
<defs>
<font id="PorscheNextWLaThin" horiz-adv-x="470" >
<font-face units-per-em="1000" ascent="1152" descent="-440" />
<missing-glyph horiz-adv-x="470" />
<glyph unicode="&#x20;" horiz-adv-x="238" />
<glyph unicode="&#x21;" horiz-adv-x="216" d="M96 192L120 192L130 712L86 712ZM80 0L136 0L136 80L80 80Z"/>
<glyph unicode="&#x22;" horiz-adv-x="281" d="M187 504L204 504L221 631L221 712L171 712L171 631ZM77 504L94 504L110 631L110 712L60 712L60 631Z"/>
<glyph unicode="&#x23;" horiz-adv-x="688" d="M111 488L216 488L145 224L33 224L33 188L135 188L85 0L125 0L176 188L421 188L371 0L411 0L462 188L577 188L577 224L471 224L543 488L655 488L655 524L552 524L603 712L563 712L512 524L266 524L317 712L277 712L226 524L111 524ZM257 488L502 488L431 224L185 224Z"/>
<glyph unicode="&#x24;" horiz-adv-x="560" d="M54 224C59 71 128 -4 264 -11L264 -104L308 -104L308 -11C431 -3 504 67 504 172C504 299 430 346 316 378L268 392C184 416 116 445 116 544C116 632 176 684 280 684C406 684 455 616 466 488L506 488C495 635 439 712 308 723L308 816L264 816L264 723C144 718 72 652 72 544C72 411 165 379 256 352L304 338C398 311 460 280 460 172C460 76 392 24 284 24C159 24 101 91 94 224Z"/>
<glyph unicode="&#x25;" horiz-adv-x="712" d="M176 348C281 348 309 416 309 536C309 656 281 720 176 720C71 720 42 654 42 536C42 413 69 348 176 348ZM176 378C100 378 82 425 82 536C82 643 101 686 176 686C248 686 269 643 269 536C269 425 251 378 176 378ZM111 0L145 0L601 712L567 712ZM536 -8C641 -8 669 60 669 180C669 300 641 364 536 364C431 364 402 298 402 180C402 57 429 -8 536 -8ZM536 22C460 22 442 69 442 180C442 287 461 330 536 330C608 330 629 287 629 180C629 69 611 22 536 22Z"/>
<glyph unicode="&#x26;" horiz-adv-x="594" d="M187 391C117 332 45 269 45 176C45 44 121 -12 253 -12C345 -12 419 24 456 87L533 0L585 0L473 126C480 146 483 169 483 208L483 344L445 344L445 192C445 181 444 170 443 160L205 430C169 470 133 504 133 572C133 648 173 684 261 684C382 684 412 636 417 488L457 488C452 660 409 724 261 724C141 724 89 660 89 568C89 499 132 453 165 416ZM253 24C145 24 89 68 89 176C89 262 142 306 211 364L430 116C403 56 341 24 253 24Z"/>
<glyph unicode="&#x27;" horiz-adv-x="170" d="M77 504L94 504L110 631L110 712L60 712L60 631Z"/>
<glyph unicode="&#x28;" horiz-adv-x="300" d="M120 312C120 708 172 736 244 736L264 736L264 772L240 772C140 772 76 724 76 312C76 -100 140 -148 240 -148L264 -148L264 -112L244 -112C172 -112 120 -84 120 312Z"/>
<glyph unicode="&#x29;" horiz-adv-x="300" d="M180 312C180 -84 128 -112 56 -112L36 -112L36 -148L60 -148C160 -148 224 -100 224 312C224 724 160 772 60 772L36 772L36 736L56 736C128 736 180 708 180 312Z"/>
<glyph unicode="&#x2a;" horiz-adv-x="424" d="M43 578L108 557L197 535L138 465L98 410L124 391L164 446L212 525L260 446L300 391L327 410L287 465L226 535L316 557L381 578L371 609L307 588L220 552L228 644L228 712L196 712L196 644L203 552L118 587L53 608Z"/>
<glyph unicode="&#x2b;" horiz-adv-x="560" d="M56 272L262 272L262 60L298 60L298 272L504 272L504 308L298 308L298 520L262 520L262 308L56 308Z"/>
<glyph unicode="&#x2c;" horiz-adv-x="196" d="M70 80L70 -128L92 -128L126 24L126 80Z"/>
<glyph unicode="&#x2d;" horiz-adv-x="432" d="M70 272L362 272L362 308L70 308Z"/>
<glyph unicode="&#x2e;" horiz-adv-x="196" d="M70 0L126 0L126 80L70 80Z"/>
<glyph unicode="&#x2f;" horiz-adv-x="423" d="M36 0L76 0L388 712L348 712Z"/>
<glyph unicode="&#x30;" horiz-adv-x="560" d="M280 -12C472 -12 508 132 508 364C508 604 468 724 280 724C92 724 52 600 52 364C52 128 84 -12 280 -12ZM280 24C119 24 96 144 96 364C96 584 119 684 280 684C436 684 464 584 464 364C464 144 439 24 280 24Z"/>
<glyph unicode="&#x31;" horiz-adv-x="560" d="M322 0L366 0L366 712L338 712L122 628L122 586L322 664Z"/>
<glyph unicode="&#x32;" horiz-adv-x="560" d="M82 0L486 0L486 36L126 36L126 60C126 136 175 189 274 256L334 296C403 341 490 404 490 528C490 657 415 724 284 724C137 724 67 652 66 488L106 488C111 620 159 684 284 684C387 684 446 632 446 528C446 419 373 368 310 326L250 286C165 231 82 164 82 52Z"/>
<glyph unicode="&#x33;" horiz-adv-x="560" d="M61 224C68 63 134 -12 283 -12C416 -12 495 59 495 184C495 292 445 349 368 370C440 395 479 463 479 536C479 657 408 724 279 724C138 724 74 645 63 488L103 488C112 616 159 684 279 684C383 684 435 632 435 536C435 452 386 384 275 384L203 384L203 346L283 346C407 346 451 280 451 184C451 76 391 24 283 24C159 24 106 92 101 224Z"/>
<glyph unicode="&#x34;" horiz-adv-x="560" d="M26 182L366 182L366 0L410 0L410 182L530 182L530 220L410 220L410 712L348 712L26 212ZM77 220L366 674L366 220Z"/>
<glyph unicode="&#x35;" horiz-adv-x="560" d="M72 288L106 288C129 368 176 416 280 416C412 416 460 344 460 224C460 93 412 24 280 24C157 24 109 86 101 192L61 192C72 51 145 -12 280 -12C420 -12 504 64 504 224C504 373 433 452 288 452C205 452 145 425 114 378L139 672L472 672L472 712L106 712L72 320Z"/>
<glyph unicode="&#x36;" horiz-adv-x="560" d="M56 224C56 60 136 -12 280 -12C420 -12 504 64 504 224C504 373 433 452 288 452C238 452 196 442 161 423L364 712L316 712L128 436C84 371 56 320 56 224ZM100 220C100 344 148 416 280 416C412 416 460 344 460 220C460 93 412 24 280 24C148 24 100 92 100 220Z"/>
<glyph unicode="&#x37;" horiz-adv-x="560" d="M53 672L458 672L157 0L201 0L505 688L505 712L53 712Z"/>
<glyph unicode="&#x38;" horiz-adv-x="560" d="M56 184C56 48 140 -12 280 -12C420 -12 504 48 504 184C504 272 459 338 366 362C437 386 488 435 488 532C488 653 413 724 280 724C147 724 72 653 72 532C72 435 123 386 193 362C100 338 56 272 56 184ZM100 184C100 288 167 344 280 344C393 344 460 288 460 184C460 68 392 24 280 24C168 24 100 68 100 184ZM280 380C164 380 116 448 116 532C116 644 188 684 280 684C372 684 444 644 444 532C444 448 396 380 280 380Z"/>
<glyph unicode="&#x39;" horiz-adv-x="560" d="M272 260C322 260 365 270 400 291L196 0L244 0L432 276C478 343 504 395 504 496C504 657 424 724 280 724C140 724 56 652 56 492C56 343 127 260 272 260ZM280 296C148 296 100 368 100 492C100 617 148 684 280 684C412 684 460 620 460 492C460 368 412 296 280 296Z"/>
<glyph unicode="&#x3a;" horiz-adv-x="196" d="M70 392L126 392L126 472L70 472ZM70 0L126 0L126 80L70 80Z"/>
<glyph unicode="&#x3b;" horiz-adv-x="196" d="M70 392L126 392L126 472L70 472ZM70 80L70 -128L92 -128L126 24L126 80Z"/>
<glyph unicode="&#x3c;" horiz-adv-x="560" d="M56 272L504 76L504 112L96 290L504 468L504 504L56 308Z"/>
<glyph unicode="&#x3d;" horiz-adv-x="560" d="M56 372L504 372L504 408L56 408ZM56 172L504 172L504 208L56 208Z"/>
<glyph unicode="&#x3e;" horiz-adv-x="560" d="M56 468L463 290L56 112L56 76L504 272L504 308L56 504Z"/>
<glyph unicode="&#x3f;" horiz-adv-x="364" d="M120 192L156 192L156 240C156 368 328 400 328 552C328 656 272 712 128 712L32 712L32 672L128 672C240 672 284 632 284 544C284 417 120 379 120 240ZM110 0L166 0L166 80L110 80Z"/>
<glyph unicode="&#x40;" horiz-adv-x="812" d="M229 288C229 136 265 52 389 52C464 52 502 87 519 151C530 83 566 52 625 52C693 52 753 116 753 308C753 632 645 724 405 724C165 724 57 624 57 292C57 -40 165 -140 405 -140L513 -140L513 -104L405 -104C185 -104 101 -12 101 292C101 596 185 684 405 684C625 684 709 604 709 308C709 148 678 88 625 88C580 88 557 128 557 188L557 516L517 516L517 439C498 495 464 524 393 524C269 524 229 436 229 288ZM273 288C273 436 305 484 393 484C481 484 513 436 513 288C513 133 476 88 393 88C305 88 273 140 273 288Z"/>
<glyph unicode="&#x41;" horiz-adv-x="522" d="M19 0L59 0L122 208L395 208L459 0L503 0L283 712L239 712ZM259 653L383 246L134 246Z"/>
<glyph unicode="&#x42;" horiz-adv-x="561" d="M93 0L305 0C428 0 505 53 505 188C505 280 469 344 389 367C438 381 485 433 485 532C485 653 421 712 305 712L93 712ZM301 344C409 344 461 299 461 188C461 80 406 36 301 36L137 36L137 344ZM305 672C401 672 441 627 441 532C441 437 405 384 305 384L137 384L137 672Z"/>
<glyph unicode="&#x43;" horiz-adv-x="578" d="M307 -12C460 -12 518 84 531 248L491 248C478 103 440 24 307 24C138 24 103 144 103 364C103 584 138 684 307 684C440 684 474 608 487 468L527 468C514 636 463 724 307 724C111 724 59 600 59 364C59 128 107 -12 307 -12Z"/>
<glyph unicode="&#x44;" horiz-adv-x="600" d="M93 0L293 0C493 0 541 140 541 364C541 600 489 712 293 712L93 712ZM293 672C460 672 497 572 497 364C497 156 460 36 293 36L137 36L137 672Z"/>
<glyph unicode="&#x45;" horiz-adv-x="503" d="M93 0L449 0L449 36L137 36L137 345L425 345L425 383L137 383L137 672L449 672L449 712L93 712Z"/>
<glyph unicode="&#x46;" horiz-adv-x="476" d="M93 0L137 0L137 345L417 345L417 383L137 383L137 672L441 672L441 712L93 712Z"/>
<glyph unicode="&#x47;" horiz-adv-x="586" d="M307 326L491 326L491 276C491 132 451 24 307 24C138 24 103 144 103 364C103 584 138 684 307 684C432 684 472 616 485 488L525 488C512 644 455 724 307 724C111 724 59 600 59 364C59 128 107 -12 307 -12C471 -12 531 108 531 276L531 364L307 364Z"/>
<glyph unicode="&#x48;" horiz-adv-x="630" d="M93 0L137 0L137 344L493 344L493 0L537 0L537 712L493 712L493 384L137 384L137 712L93 712Z"/>
<glyph unicode="&#x49;" horiz-adv-x="230" d="M93 0L137 0L137 712L93 712Z"/>
<glyph unicode="&#x4a;" horiz-adv-x="386" d="M19 36L19 0L107 0C239 0 299 57 299 184L299 712L255 712L255 184C255 87 220 36 107 36Z"/>
<glyph unicode="&#x4b;" horiz-adv-x="552" d="M93 0L137 0L137 198L258 356L487 0L537 0L286 390L533 712L483 712L137 261L137 712L93 712Z"/>
<glyph unicode="&#x4c;" horiz-adv-x="469" d="M93 0L449 0L449 36L137 36L137 712L93 712Z"/>
<glyph unicode="&#x4d;" horiz-adv-x="790" d="M123 0L148 622L379 0L411 0L643 621L667 0L711 0L683 712L631 712L397 67L159 712L107 712L79 0Z"/>
<glyph unicode="&#x4e;" horiz-adv-x="630" d="M93 0L137 0L137 622L497 0L537 0L537 712L493 712L493 90L133 712L93 712Z"/>
<glyph unicode="&#x4f;" horiz-adv-x="614" d="M307 -12C507 -12 555 128 555 364C555 600 503 724 307 724C111 724 59 600 59 364C59 128 107 -12 307 -12ZM307 24C138 24 103 144 103 364C103 584 138 684 307 684C474 684 511 584 511 364C511 144 474 24 307 24Z"/>
<glyph unicode="&#x50;" horiz-adv-x="520" d="M93 0L137 0L137 308L293 308C408 308 481 373 481 512C481 652 417 712 297 712L93 712ZM297 672C389 672 437 628 437 512C437 392 389 344 293 344L137 344L137 672Z"/>
<glyph unicode="&#x51;" horiz-adv-x="614" d="M307 -12C394 -12 451 16 490 67L555 0L607 0L510 99C543 164 555 253 555 364C555 604 503 724 307 724C111 724 59 600 59 364C59 128 107 -12 307 -12ZM308 256L463 95C432 48 383 24 307 24C138 24 103 144 103 364C103 584 138 684 307 684C471 684 511 584 511 364C511 264 503 186 480 130L308 308Z"/>
<glyph unicode="&#x52;" horiz-adv-x="538" d="M93 0L137 0L137 308L272 308L459 0L509 0L318 313C422 321 481 383 481 512C481 652 417 712 297 712L93 712ZM297 672C389 672 437 628 437 512C437 392 389 344 293 344L137 344L137 672Z"/>
<glyph unicode="&#x53;" horiz-adv-x="535" d="M49 224C54 64 119 -12 267 -12C400 -12 479 59 479 172C479 291 414 345 299 378L251 392C166 417 107 445 107 544C107 632 159 684 263 684C389 684 430 616 441 488L481 488C470 644 414 724 263 724C134 724 63 657 63 544C63 411 149 378 239 352L287 338C380 311 435 272 435 172C435 76 375 24 267 24C143 24 94 92 89 224Z"/>
<glyph unicode="&#x54;" horiz-adv-x="516" d="M20 672L236 672L236 0L280 0L280 672L496 672L496 712L20 712Z"/>
<glyph unicode="&#x55;" horiz-adv-x="612" d="M86 224C86 59 153 -12 306 -12C459 -12 526 59 526 224L526 712L482 712L482 224C482 87 431 24 306 24C181 24 130 87 130 224L130 712L86 712Z"/>
<glyph unicode="&#x56;" horiz-adv-x="522" d="M239 0L283 0L503 712L463 712L263 59L63 712L19 712Z"/>
<glyph unicode="&#x57;" horiz-adv-x="868" d="M212 0L256 0L432 635L612 0L656 0L848 712L808 712L635 63L452 712L416 712L236 64L64 712L20 712Z"/>
<glyph unicode="&#x58;" horiz-adv-x="512" d="M18 0L62 0L254 330L446 0L494 0L281 364L486 712L442 712L258 399L74 712L26 712L231 364Z"/>
<glyph unicode="&#x59;" horiz-adv-x="518" d="M237 0L281 0L281 324L505 712L463 712L263 362L63 712L13 712L237 324Z"/>
<glyph unicode="&#x5a;" horiz-adv-x="470" d="M33 672L388 672L41 28L41 0L429 0L429 36L87 36L437 684L437 712L33 712Z"/>
<glyph unicode="&#x5b;" horiz-adv-x="292" d="M88 -148L256 -148L256 -112L132 -112L132 736L256 736L256 772L88 772Z"/>
<glyph unicode="&#x5c;" horiz-adv-x="423" d="M75 712L35 712L347 0L387 0Z"/>
<glyph unicode="&#x5d;" horiz-adv-x="292" d="M204 772L36 772L36 736L160 736L160 -112L36 -112L36 -148L204 -148Z"/>
<glyph unicode="&#x5e;" horiz-adv-x="560" d="M144 484L180 484L280 672L380 484L416 484L296 712L264 712Z"/>
<glyph unicode="&#x5f;" horiz-adv-x="520" d="M36 -12L36 -56L484 -56L484 -12Z"/>
<glyph unicode="&#x60;" horiz-adv-x="440" d="M208 568L248 568L160 724L108 724Z"/>
<glyph unicode="&#x61;" horiz-adv-x="445" d="M47 128C47 40 102 -8 195 -8C256 -8 304 26 327 70L327 0L371 0L371 352C371 451 327 512 219 512C102 512 62 448 59 348L99 348C102 432 130 472 215 472C299 472 327 428 327 348L327 300L247 286C128 265 47 225 47 128ZM327 146C327 85 272 28 195 28C128 28 91 63 91 128C91 192 127 229 247 250L327 264Z"/>
<glyph unicode="&#x62;" horiz-adv-x="484" d="M78 0L122 0L122 76C143 20 182 -8 254 -8C390 -8 430 88 430 252C430 416 398 512 258 512C185 512 143 481 122 424L122 712L78 712ZM254 28C154 28 122 92 122 252C122 412 154 472 254 472C354 472 386 412 386 252C386 92 354 28 254 28Z"/>
<glyph unicode="&#x63;" horiz-adv-x="451" d="M234 -8C345 -8 391 44 402 180L362 180C350 61 317 28 234 28C142 28 98 74 98 256C98 419 136 472 234 472C319 472 345 439 362 336L402 336C389 439 356 512 234 512C98 512 54 423 54 256C54 56 109 -8 234 -8Z"/>
<glyph unicode="&#x64;" horiz-adv-x="484" d="M226 -8C299 -8 339 23 362 80L362 0L406 0L406 712L362 712L362 430C341 483 302 512 230 512C94 512 54 416 54 252C54 88 86 -8 226 -8ZM230 28C130 28 98 92 98 252C98 412 130 472 230 472C330 472 362 412 362 252C362 92 330 28 230 28Z"/>
<glyph unicode="&#x65;" horiz-adv-x="455" d="M234 -8C348 -8 389 48 402 152L364 152C354 68 321 28 234 28C142 28 98 74 98 256L98 264L402 264L402 272C402 453 349 512 230 512C108 512 54 440 54 256C54 56 109 -8 234 -8ZM230 472C316 472 356 431 361 300L99 300C106 435 150 472 230 472Z"/>
<glyph unicode="&#x66;" horiz-adv-x="299" d="M26 466L98 466L98 0L142 0L142 466L282 466L282 504L142 504L142 548C142 632 174 672 258 672L302 672L302 712L258 712C150 712 98 652 98 548L98 504L26 504Z"/>
<glyph unicode="&#x67;" horiz-adv-x="484" d="M66 -64C73 -164 119 -216 234 -216C346 -216 406 -169 406 -36L406 504L362 504L362 430C341 483 302 512 230 512C94 512 54 416 54 252C54 88 86 -8 226 -8C299 -8 339 23 362 80L362 -40C362 -143 325 -180 234 -180C151 -180 113 -145 106 -64ZM230 28C130 28 98 92 98 252C98 412 130 472 230 472C330 472 362 412 362 252C362 83 325 28 230 28Z"/>
<glyph unicode="&#x68;" horiz-adv-x="480" d="M78 0L122 0L122 340C122 430 167 472 246 472C330 472 362 424 362 340L362 0L406 0L406 344C406 439 366 512 250 512C185 512 143 486 122 435L122 712L78 712Z"/>
<glyph unicode="&#x69;" horiz-adv-x="200" d="M78 640L122 640L122 712L78 712ZM78 0L122 0L122 504L78 504Z"/>
<glyph unicode="&#x6a;" horiz-adv-x="200" d="M78 640L122 640L122 712L78 712ZM78 -124C78 -163 61 -172 34 -172L2 -172L2 -208L38 -208C89 -208 122 -183 122 -124L122 504L78 504Z"/>
<glyph unicode="&#x6b;" horiz-adv-x="435" d="M78 0L122 0L122 152L207 255L370 0L418 0L236 288L410 504L358 504L122 211L122 712L78 712Z"/>
<glyph unicode="&#x6c;" horiz-adv-x="200" d="M78 0L122 0L122 712L78 712Z"/>
<glyph unicode="&#x6d;" horiz-adv-x="764" d="M78 0L122 0L122 340C122 429 167 472 246 472C330 472 362 424 362 340L362 0L406 0L406 340C406 428 450 472 530 472C614 472 646 424 646 340L646 0L690 0L690 344C690 439 650 512 534 512C466 512 416 480 393 424C374 477 330 512 250 512C185 512 143 486 122 435L122 504L78 504Z"/>
<glyph unicode="&#x6e;" horiz-adv-x="480" d="M78 0L122 0L122 340C122 425 167 472 246 472C330 472 362 424 362 340L362 0L406 0L406 344C406 439 366 512 250 512C189 512 143 485 122 434L122 504L78 504Z"/>
<glyph unicode="&#x6f;" horiz-adv-x="460" d="M230 -8C370 -8 406 88 406 252C406 416 373 512 230 512C90 512 54 416 54 252C54 88 85 -8 230 -8ZM230 28C130 28 98 92 98 252C98 412 130 472 230 472C330 472 362 412 362 252C362 92 330 28 230 28Z"/>
<glyph unicode="&#x70;" horiz-adv-x="484" d="M78 -208L122 -208L122 76C143 20 182 -8 254 -8C390 -8 430 88 430 252C430 416 398 512 258 512C185 512 143 481 122 424L122 504L78 504ZM254 28C154 28 122 92 122 252C122 412 154 472 254 472C354 472 386 412 386 252C386 92 354 28 254 28Z"/>
<glyph unicode="&#x71;" horiz-adv-x="484" d="M362 -208L406 -208L406 504L362 504L362 430C341 483 302 512 230 512C94 512 54 416 54 252C54 88 86 -8 226 -8C299 -8 339 23 362 80ZM230 28C130 28 98 92 98 252C98 412 130 472 230 472C330 472 362 412 362 252C362 92 330 28 230 28Z"/>
<glyph unicode="&#x72;" horiz-adv-x="299" d="M74 0L118 0L118 368C118 432 150 464 214 464L282 464L282 504L214 504C123 504 74 452 74 368Z"/>
<glyph unicode="&#x73;" horiz-adv-x="412" d="M48 140C52 43 99 -8 204 -8C300 -8 360 33 360 124C360 196 324 236 241 260L185 276C118 295 100 324 100 376C100 432 124 472 208 472C289 472 316 445 320 368L360 368C356 464 316 512 208 512C112 512 56 463 56 376C56 300 93 261 165 240L221 224C296 203 316 178 316 124C316 56 284 28 204 28C128 28 96 55 88 140Z"/>
<glyph unicode="&#x74;" horiz-adv-x="315" d="M24 466L96 466L96 136C96 56 130 0 228 0L296 0L296 36L228 36C160 36 140 76 140 136L140 466L296 466L296 504L140 504L140 624L96 624L96 504L24 504Z"/>
<glyph unicode="&#x75;" horiz-adv-x="480" d="M74 160C74 63 114 -8 230 -8C295 -8 337 17 358 68L358 0L402 0L402 504L358 504L358 164C358 76 314 28 234 28C146 28 118 80 118 164L118 504L74 504Z"/>
<glyph unicode="&#x76;" horiz-adv-x="418" d="M189 0L229 0L397 504L357 504L212 63L67 504L21 504Z"/>
<glyph unicode="&#x77;" horiz-adv-x="672" d="M172 0L212 0L336 422L460 0L500 0L652 504L612 504L483 65L354 504L324 504L195 65L66 504L20 504Z"/>
<glyph unicode="&#x78;" horiz-adv-x="414" d="M28 0L74 0L205 218L340 0L388 0L232 253L384 504L338 504L208 288L76 504L28 504L181 253Z"/>
<glyph unicode="&#x79;" horiz-adv-x="418" d="M39 -172L39 -208L71 -208C144 -208 177 -162 195 -108L399 504L359 504L214 63L69 504L23 504L192 -3L163 -92C148 -139 124 -172 67 -172Z"/>
<glyph unicode="&#x7a;" horiz-adv-x="386" d="M38 466L295 466L42 24L42 0L342 0L342 36L96 36L350 480L350 504L38 504Z"/>
<glyph unicode="&#x7b;" horiz-adv-x="364" d="M128 416C128 356 104 328 44 328L28 328L28 296L44 296C104 296 128 268 128 208L128 -4C128 -112 188 -148 272 -148L328 -148L328 -112L272 -112C200 -112 172 -80 172 4L172 192C172 264 152 296 100 310L100 314C152 328 172 360 172 432L172 620C172 704 200 736 272 736L328 736L328 772L272 772C188 772 128 736 128 628Z"/>
<glyph unicode="&#x7c;" horiz-adv-x="280" d="M120 -208L160 -208L160 784L120 784Z"/>
<glyph unicode="&#x7d;" horiz-adv-x="364" d="M236 628C236 736 176 772 92 772L36 772L36 736L92 736C164 736 192 704 192 620L192 432C192 360 212 328 264 314L264 310C212 296 192 264 192 192L192 4C192 -80 164 -112 92 -112L36 -112L36 -148L92 -148C176 -148 236 -112 236 -4L236 208C236 268 260 296 320 296L336 296L336 328L320 328C260 328 236 356 236 416Z"/>
<glyph unicode="&#x7e;" horiz-adv-x="560" d="M56 272C74 291 108 328 172 328C263 328 296 248 388 248C452 248 486 285 504 304L504 340C486 321 452 284 388 284C306 284 271 364 172 364C108 364 74 327 56 308Z"/>
<glyph unicode="&#xa0;" horiz-adv-x="238" />
<glyph unicode="&#xa1;" horiz-adv-x="216" d="M80 632L136 632L136 712L80 712ZM86 0L130 0L120 520L96 520Z"/>
<glyph unicode="&#xa2;" horiz-adv-x="560" d="M262 0L306 0L306 96C415 101 463 155 474 284L434 284C421 165 382 132 286 132C178 132 126 178 126 360C126 523 172 576 286 576C382 576 418 543 434 440L478 440C465 537 423 607 306 615L306 712L262 712L262 615C129 607 82 517 82 360C82 171 138 104 262 96Z"/>
<glyph unicode="&#xa3;" horiz-adv-x="560" d="M40 315L108 315L108 0L512 0L512 36L152 36L152 315L368 315L368 353L152 353L152 528C152 632 203 684 306 684C432 684 469 616 480 488L520 488C509 644 452 724 306 724C175 724 108 657 108 528L108 353L40 353Z"/>
<glyph unicode="&#xa4;" horiz-adv-x="560" d="M153 216L197 260C220 243 248 233 280 233C311 233 339 242 362 260L407 216L428 237L383 281C402 304 411 331 411 364C411 396 402 423 383 446L428 491L407 512L362 467C339 486 312 495 280 495C249 495 221 486 197 467L153 512L132 491L176 446C158 423 149 395 149 364C149 332 158 304 176 281L132 237ZM280 265C224 265 182 307 182 364C182 421 224 462 280 462C336 462 378 421 378 364C378 307 336 265 280 265Z"/>
<glyph unicode="&#xa5;" horiz-adv-x="560" d="M81 308L257 308L257 220L81 220L81 184L257 184L257 0L301 0L301 184L477 184L477 220L301 220L301 308L477 308L477 344L317 344L525 712L483 712L283 354L83 712L33 712L241 344L81 344Z"/>
<glyph unicode="&#xa6;" horiz-adv-x="280" d="M120 404L160 404L160 784L120 784ZM120 187L120 -208L160 -208L160 187Z"/>
<glyph unicode="&#xa7;" horiz-adv-x="545" d="M332 344C408 320 452 292 452 240C452 216 444 192 436 176L464 162C476 178 496 208 496 248C496 320 444 352 356 380L256 412C179 437 112 465 112 552C112 632 164 684 268 684C394 684 435 616 446 488L486 488C475 644 419 724 268 724C139 724 68 656 68 552C68 441 143 404 232 376ZM58 20C69 -136 126 -216 276 -216C405 -216 476 -148 476 -44C476 69 404 104 316 132L216 164C140 188 96 216 96 268C96 292 104 316 112 332L84 346C72 330 52 300 52 260C52 188 104 156 192 128L292 96C369 71 432 43 432 -44C432 -124 384 -180 276 -180C153 -180 109 -109 98 20Z"/>
<glyph unicode="&#xa8;" horiz-adv-x="440" d="M264 608L308 608L308 680L264 680ZM132 608L176 608L176 680L132 680Z"/>
<glyph unicode="&#xa9;" horiz-adv-x="700" d="M350 -12C574 -12 650 92 650 356C650 620 578 724 350 724C122 724 50 620 50 356C50 92 126 -12 350 -12ZM350 24C138 24 86 120 86 356C86 592 138 684 350 684C562 684 614 592 614 356C614 120 562 24 350 24ZM354 152C446 152 474 204 478 298L438 298C434 220 418 188 354 188C278 188 250 224 250 364C250 504 278 532 354 532C418 532 434 504 438 426L478 426C474 520 454 572 354 572C246 572 210 520 210 364C210 208 250 152 354 152Z"/>
<glyph unicode="&#xaa;" horiz-adv-x="382" d="M70 264L308 264L308 296L70 296ZM69 442C69 381 104 348 171 348C218 348 252 374 267 405L267 356L304 356L304 600C304 671 274 720 194 720C109 720 80 670 77 598L113 598C114 657 134 685 191 685C248 685 266 652 266 596L266 565L210 554C125 538 69 510 69 442ZM107 443C107 484 132 507 211 523L266 534L266 466C266 418 227 380 175 380C130 380 107 401 107 443Z"/>
<glyph unicode="&#xab;" horiz-adv-x="352" d="M259 64L295 64L211 256L295 448L259 448L167 256ZM139 64L175 64L91 256L175 448L139 448L47 256Z"/>
<glyph unicode="&#xac;" horiz-adv-x="560" d="M56 272L468 272L468 60L504 60L504 308L56 308Z"/>
<glyph unicode="&#xad;" horiz-adv-x="432" d="M70 272L362 272L362 308L70 308Z"/>
<glyph unicode="&#xae;" horiz-adv-x="436" d="M218 364C356 364 401 425 401 585C401 744 357 805 218 805C79 805 35 744 35 585C35 425 80 364 218 364ZM218 389C94 389 61 444 61 585C61 725 94 778 218 778C342 778 375 725 375 585C375 444 342 389 218 389ZM143 465L177 465L177 550L221 550L266 465L305 465L254 558C285 566 302 591 302 632C302 685 273 712 223 712L143 712ZM224 679C253 679 266 660 266 631C266 600 253 583 225 583L177 583L177 679Z"/>
<glyph unicode="&#xaf;" horiz-adv-x="440" d="M100 628L340 628L340 664L100 664Z"/>
<glyph unicode="&#xb0;" horiz-adv-x="312" d="M156 504C218 504 264 553 264 612C264 671 218 720 156 720C94 720 48 671 48 612C48 553 94 504 156 504ZM156 539C113 539 85 569 85 612C85 655 113 685 156 685C199 685 227 655 227 612C227 569 199 539 156 539Z"/>
<glyph unicode="&#xb1;" horiz-adv-x="560" d="M56 388L262 388L262 192L298 192L298 388L504 388L504 424L298 424L298 620L262 620L262 424L56 424ZM56 0L504 0L504 36L56 36Z"/>
<glyph unicode="&#xb2;" horiz-adv-x="312" d="M37 516L279 516L279 546L73 546C73 589 88 603 142 631L192 657C230 677 283 712 283 775C283 843 237 880 161 880C78 880 34 835 27 754L65 754C72 818 101 846 161 846C216 846 243 822 243 774C243 725 210 704 170 683L120 657C67 630 37 603 37 544Z"/>
<glyph unicode="&#xb3;" horiz-adv-x="312" d="M25 631C29 547 73 508 157 508C236 508 283 545 283 609C283 658 261 685 222 698C257 710 276 743 276 778C276 842 236 880 156 880C76 880 31 837 26 758L63 758C68 817 99 846 156 846C208 846 236 821 236 778C236 741 219 709 163 709L118 709L118 678L167 678C224 678 243 652 243 609C243 560 212 538 157 538C96 538 66 567 63 631Z"/>
<glyph unicode="&#xb4;" horiz-adv-x="440" d="M192 568L232 568L332 724L280 724Z"/>
<glyph unicode="&#xb5;" horiz-adv-x="492" d="M78 -208L122 -208L122 47C143 11 178 -8 234 -8C299 -8 341 18 362 70C367 23 395 0 446 0L470 0L470 36L450 36C423 36 406 45 406 84L406 504L362 504L362 164C362 76 318 28 238 28C150 28 122 80 122 164L122 504L78 504Z"/>
<glyph unicode="&#xb6;" horiz-adv-x="460" d="M283 228L283 0L327 0L327 712L255 712C110 712 43 649 43 480C43 290 98 228 259 228ZM347 0L367 0L367 712L347 712Z"/>
<glyph unicode="&#xb7;" horiz-adv-x="202" d="M71 250L131 250L131 330L71 330Z"/>
<glyph unicode="&#xb8;" horiz-adv-x="440" d="M193 -72L213 -72C265 -72 293 -88 293 -128C293 -168 265 -184 213 -184L153 -184L153 -216L217 -216C300 -216 337 -180 337 -128C337 -76 305 -44 229 -40L229 0L207 0Z"/>
<glyph unicode="&#xb9;" horiz-adv-x="312" d="M164 516L204 516L204 872L177 872L69 835L69 801L164 831Z"/>
<glyph unicode="&#xba;" horiz-adv-x="396" d="M78 264L318 264L318 296L78 296ZM197 348C298 348 327 415 327 535C327 655 298 720 197 720C97 720 68 655 68 535C68 415 96 348 197 348ZM197 380C129 380 106 424 106 535C106 644 129 684 197 684C265 684 288 644 288 535C288 424 265 380 197 380Z"/>
<glyph unicode="&#xbb;" horiz-adv-x="351" d="M177 64L213 64L305 256L213 448L177 448L261 256ZM57 64L93 64L185 256L93 448L57 448L141 256Z"/>
<glyph unicode="&#xbc;" horiz-adv-x="672" d="M128 356L168 356L168 712L141 712L33 675L33 641L128 671ZM66 0L100 0L556 712L522 712ZM348 86L538 86L538 0L577 0L577 86L638 86L638 118L577 118L577 356L525 356L348 111ZM390 118L538 322L538 118Z"/>
<glyph unicode="&#xbd;" horiz-adv-x="672" d="M134 356L174 356L174 712L147 712L39 675L39 641L134 671ZM72 0L106 0L562 712L528 712ZM374 0L616 0L616 30L410 30C410 73 425 87 479 115L529 141C567 161 620 196 620 259C620 327 574 364 498 364C415 364 371 319 364 238L402 238C409 302 438 330 498 330C553 330 580 306 580 258C580 209 547 188 507 167L457 141C404 114 374 87 374 28Z"/>
<glyph unicode="&#xbe;" horiz-adv-x="672" d="M25 471C29 387 73 348 157 348C236 348 283 385 283 449C283 498 261 525 222 538C257 550 276 583 276 618C276 682 236 720 156 720C76 720 31 677 26 598L63 598C68 657 99 686 156 686C208 686 236 661 236 618C236 581 219 549 163 549L118 549L118 518L167 518C224 518 243 492 243 449C243 400 212 378 157 378C96 378 66 407 63 471ZM88 0L122 0L578 712L544 712ZM370 86L560 86L560 0L599 0L599 86L660 86L660 118L599 118L599 356L547 356L370 111ZM412 118L560 322L560 118Z"/>
<glyph unicode="&#xbf;" horiz-adv-x="363" d="M198 632L254 632L254 712L198 712ZM36 160C36 56 92 0 236 0L332 0L332 36L236 36C124 36 80 80 80 168C80 295 244 333 244 472L244 520L208 520L208 472C208 344 36 312 36 160Z"/>
<glyph unicode="&#xc0;" horiz-adv-x="522" d="M19 0L59 0L122 208L395 208L459 0L503 0L283 712L239 712ZM259 653L383 246L134 246ZM249 776L289 776L201 932L149 932Z"/>
<glyph unicode="&#xc1;" horiz-adv-x="522" d="M19 0L59 0L122 208L395 208L459 0L503 0L283 712L239 712ZM259 653L383 246L134 246ZM233 776L273 776L373 932L321 932Z"/>
<glyph unicode="&#xc2;" horiz-adv-x="522" d="M19 0L59 0L122 208L395 208L459 0L503 0L283 712L239 712ZM259 653L383 246L134 246ZM147 776L187 776L261 907L335 776L375 776L287 932L235 932Z"/>
<glyph unicode="&#xc3;" horiz-adv-x="522" d="M19 0L59 0L122 208L395 208L459 0L503 0L283 712L239 712ZM259 653L383 246L134 246ZM145 792L181 792L181 836C181 856 189 862 201 862C234 862 252 792 305 792C340 792 357 813 357 856L357 896L321 896L321 852C321 832 313 826 301 826C264 826 254 896 197 896C160 896 145 876 145 832Z"/>
<glyph unicode="&#xc4;" horiz-adv-x="522" d="M19 0L59 0L122 208L395 208L459 0L503 0L283 712L239 712ZM259 653L383 246L134 246ZM305 816L349 816L349 888L305 888ZM173 816L217 816L217 888L173 888Z"/>
<glyph unicode="&#xc5;" horiz-adv-x="522" d="M19 0L59 0L122 208L395 208L459 0L503 0L283 712L239 712ZM259 653L383 246L134 246ZM261 770C313 770 339 800 339 852C339 904 313 934 261 934C209 934 183 904 183 852C183 800 209 770 261 770ZM261 796C221 796 213 820 213 852C213 884 221 908 261 908C301 908 309 884 309 852C309 820 301 796 261 796Z"/>
<glyph unicode="&#xc6;" horiz-adv-x="791" d="M7 0L51 0L134 208L387 208L387 0L735 0L735 36L431 36L431 341L719 341L719 379L431 379L431 672L735 672L735 712L295 712ZM319 672L387 672L387 246L149 246Z"/>
<glyph unicode="&#xc7;" horiz-adv-x="578" d="M280 -72L300 -72C352 -72 380 -88 380 -128C380 -168 352 -184 300 -184L240 -184L240 -216L304 -216C387 -216 424 -180 424 -128C424 -76 392 -44 316 -40L316 -12C462 -8 518 87 531 248L491 248C478 103 440 24 307 24C138 24 103 144 103 364C103 584 138 684 307 684C440 684 474 608 487 468L527 468C514 636 463 724 307 724C111 724 59 600 59 364C59 134 105 -4 292 -11Z"/>
<glyph unicode="&#xc8;" horiz-adv-x="503" d="M93 0L449 0L449 36L137 36L137 345L425 345L425 383L137 383L137 672L449 672L449 712L93 712ZM259 776L299 776L211 932L159 932Z"/>
<glyph unicode="&#xc9;" horiz-adv-x="503" d="M93 0L449 0L449 36L137 36L137 345L425 345L425 383L137 383L137 672L449 672L449 712L93 712ZM243 776L283 776L383 932L331 932Z"/>
<glyph unicode="&#xca;" horiz-adv-x="503" d="M93 0L449 0L449 36L137 36L137 345L425 345L425 383L137 383L137 672L449 672L449 712L93 712ZM157 776L197 776L271 907L345 776L385 776L297 932L245 932Z"/>
<glyph unicode="&#xcb;" horiz-adv-x="503" d="M93 0L449 0L449 36L137 36L137 345L425 345L425 383L137 383L137 672L449 672L449 712L93 712ZM315 816L359 816L359 888L315 888ZM183 816L227 816L227 888L183 888Z"/>
<glyph unicode="&#xcc;" horiz-adv-x="230" d="M93 0L137 0L137 712L93 712ZM103 776L143 776L55 932L3 932Z"/>
<glyph unicode="&#xcd;" horiz-adv-x="230" d="M93 0L137 0L137 712L93 712ZM87 776L127 776L227 932L175 932Z"/>
<glyph unicode="&#xce;" horiz-adv-x="230" d="M93 0L137 0L137 712L93 712ZM1 776L41 776L115 907L189 776L229 776L141 932L89 932Z"/>
<glyph unicode="&#xcf;" horiz-adv-x="230" d="M93 0L137 0L137 712L93 712ZM159 816L203 816L203 888L159 888ZM27 816L71 816L71 888L27 888Z"/>
<glyph unicode="&#xd0;" horiz-adv-x="608" d="M33 347L93 347L93 0L301 0C501 0 549 140 549 364C549 600 497 712 301 712L93 712L93 383L33 383ZM301 672C468 672 505 572 505 364C505 156 468 36 301 36L137 36L137 347L301 347L301 383L137 383L137 672Z"/>
<glyph unicode="&#xd1;" horiz-adv-x="630" d="M93 0L137 0L137 622L497 0L537 0L537 712L493 712L493 90L133 712L93 712ZM199 792L235 792L235 836C235 856 243 862 255 862C288 862 306 792 359 792C394 792 411 813 411 856L411 896L375 896L375 852C375 832 367 826 355 826C318 826 308 896 251 896C214 896 199 876 199 832Z"/>
<glyph unicode="&#xd2;" horiz-adv-x="614" d="M307 -12C507 -12 555 128 555 364C555 600 503 724 307 724C111 724 59 600 59 364C59 128 107 -12 307 -12ZM307 24C138 24 103 144 103 364C103 584 138 684 307 684C474 684 511 584 511 364C511 144 474 24 307 24ZM295 776L335 776L247 932L195 932Z"/>
<glyph unicode="&#xd3;" horiz-adv-x="614" d="M307 -12C507 -12 555 128 555 364C555 600 503 724 307 724C111 724 59 600 59 364C59 128 107 -12 307 -12ZM307 24C138 24 103 144 103 364C103 584 138 684 307 684C474 684 511 584 511 364C511 144 474 24 307 24ZM279 776L319 776L419 932L367 932Z"/>
<glyph unicode="&#xd4;" horiz-adv-x="614" d="M307 -12C507 -12 555 128 555 364C555 600 503 724 307 724C111 724 59 600 59 364C59 128 107 -12 307 -12ZM307 24C138 24 103 144 103 364C103 584 138 684 307 684C474 684 511 584 511 364C511 144 474 24 307 24ZM193 776L233 776L307 907L381 776L421 776L333 932L281 932Z"/>
<glyph unicode="&#xd5;" horiz-adv-x="614" d="M307 -12C507 -12 555 128 555 364C555 600 503 724 307 724C111 724 59 600 59 364C59 128 107 -12 307 -12ZM307 24C138 24 103 144 103 364C103 584 138 684 307 684C474 684 511 584 511 364C511 144 474 24 307 24ZM191 792L227 792L227 836C227 856 235 862 247 862C280 862 298 792 351 792C386 792 403 813 403 856L403 896L367 896L367 852C367 832 359 826 347 826C310 826 300 896 243 896C206 896 191 876 191 832Z"/>
<glyph unicode="&#xd6;" horiz-adv-x="614" d="M307 -12C507 -12 555 128 555 364C555 600 503 724 307 724C111 724 59 600 59 364C59 128 107 -12 307 -12ZM307 24C138 24 103 144 103 364C103 584 138 684 307 684C474 684 511 584 511 364C511 144 474 24 307 24ZM351 816L395 816L395 888L351 888ZM219 816L263 816L263 888L219 888Z"/>
<glyph unicode="&#xd7;" horiz-adv-x="560" d="M134 119L280 265L430 115L455 140L305 290L451 436L426 461L280 315L130 465L105 440L255 290L109 144Z"/>
<glyph unicode="&#xd8;" horiz-adv-x="614" d="M43 0L110 84C147 20 208 -12 307 -12C507 -12 555 128 555 364C555 461 546 539 522 598L571 660L571 712L506 630C467 693 407 724 307 724C111 724 59 600 59 364C59 261 67 179 94 116L43 52ZM307 24C219 24 167 55 138 119L491 560C506 511 511 445 511 364C511 144 474 24 307 24ZM103 364C103 584 138 684 307 684C396 684 449 655 478 595L125 154C108 209 103 277 103 364Z"/>
<glyph unicode="&#xd9;" horiz-adv-x="612" d="M86 224C86 59 153 -12 306 -12C459 -12 526 59 526 224L526 712L482 712L482 224C482 87 431 24 306 24C181 24 130 87 130 224L130 712L86 712ZM294 776L334 776L246 932L194 932Z"/>
<glyph unicode="&#xda;" horiz-adv-x="612" d="M86 224C86 59 153 -12 306 -12C459 -12 526 59 526 224L526 712L482 712L482 224C482 87 431 24 306 24C181 24 130 87 130 224L130 712L86 712ZM278 776L318 776L418 932L366 932Z"/>
<glyph unicode="&#xdb;" horiz-adv-x="612" d="M86 224C86 59 153 -12 306 -12C459 -12 526 59 526 224L526 712L482 712L482 224C482 87 431 24 306 24C181 24 130 87 130 224L130 712L86 712ZM192 776L232 776L306 907L380 776L420 776L332 932L280 932Z"/>
<glyph unicode="&#xdc;" horiz-adv-x="612" d="M86 224C86 59 153 -12 306 -12C459 -12 526 59 526 224L526 712L482 712L482 224C482 87 431 24 306 24C181 24 130 87 130 224L130 712L86 712ZM350 816L394 816L394 888L350 888ZM218 816L262 816L262 888L218 888Z"/>
<glyph unicode="&#xdd;" horiz-adv-x="518" d="M237 0L281 0L281 324L505 712L463 712L263 362L63 712L13 712L237 324ZM231 776L271 776L371 932L319 932Z"/>
<glyph unicode="&#xde;" horiz-adv-x="511" d="M93 0L137 0L137 160L281 160C396 160 469 225 469 364C469 504 405 564 285 564L137 564L137 712L93 712ZM285 524C377 524 425 480 425 364C425 244 377 196 281 196L137 196L137 524Z"/>
<glyph unicode="&#xdf;" horiz-adv-x="517" d="M230 0L266 0C406 0 466 57 466 204C466 303 434 364 354 384C402 407 434 456 434 540C434 656 390 724 262 724C138 724 98 652 98 552L98 504L26 504L26 466L98 466L98 0L142 0L142 552C142 640 170 684 262 684C354 684 390 640 390 540C390 452 362 396 266 396L246 396L246 360L266 360C374 360 422 324 422 200C422 70 369 36 266 36L230 36Z"/>
<glyph unicode="&#xe0;" horiz-adv-x="445" d="M47 128C47 40 102 -8 195 -8C256 -8 304 26 327 70L327 0L371 0L371 352C371 451 327 512 219 512C102 512 62 448 59 348L99 348C102 432 130 472 215 472C299 472 327 428 327 348L327 300L247 286C128 265 47 225 47 128ZM327 146C327 85 272 28 195 28C128 28 91 63 91 128C91 192 127 229 247 250L327 264ZM203 568L243 568L155 724L103 724Z"/>
<glyph unicode="&#xe1;" horiz-adv-x="445" d="M47 128C47 40 102 -8 195 -8C256 -8 304 26 327 70L327 0L371 0L371 352C371 451 327 512 219 512C102 512 62 448 59 348L99 348C102 432 130 472 215 472C299 472 327 428 327 348L327 300L247 286C128 265 47 225 47 128ZM327 146C327 85 272 28 195 28C128 28 91 63 91 128C91 192 127 229 247 250L327 264ZM187 568L227 568L327 724L275 724Z"/>
<glyph unicode="&#xe2;" horiz-adv-x="445" d="M47 128C47 40 102 -8 195 -8C256 -8 304 26 327 70L327 0L371 0L371 352C371 451 327 512 219 512C102 512 62 448 59 348L99 348C102 432 130 472 215 472C299 472 327 428 327 348L327 300L247 286C128 265 47 225 47 128ZM327 146C327 85 272 28 195 28C128 28 91 63 91 128C91 192 127 229 247 250L327 264ZM101 568L141 568L215 699L289 568L329 568L241 724L189 724Z"/>
<glyph unicode="&#xe3;" horiz-adv-x="445" d="M47 128C47 40 102 -8 195 -8C256 -8 304 26 327 70L327 0L371 0L371 352C371 451 327 512 219 512C102 512 62 448 59 348L99 348C102 432 130 472 215 472C299 472 327 428 327 348L327 300L247 286C128 265 47 225 47 128ZM327 146C327 85 272 28 195 28C128 28 91 63 91 128C91 192 127 229 247 250L327 264ZM99 584L135 584L135 628C135 648 143 654 155 654C188 654 206 584 259 584C294 584 311 605 311 648L311 688L275 688L275 644C275 624 267 618 255 618C218 618 208 688 151 688C114 688 99 668 99 624Z"/>
<glyph unicode="&#xe4;" horiz-adv-x="445" d="M47 128C47 40 102 -8 195 -8C256 -8 304 26 327 70L327 0L371 0L371 352C371 451 327 512 219 512C102 512 62 448 59 348L99 348C102 432 130 472 215 472C299 472 327 428 327 348L327 300L247 286C128 265 47 225 47 128ZM327 146C327 85 272 28 195 28C128 28 91 63 91 128C91 192 127 229 247 250L327 264ZM259 608L303 608L303 680L259 680ZM127 608L171 608L171 680L127 680Z"/>
<glyph unicode="&#xe5;" horiz-adv-x="445" d="M47 128C47 40 102 -8 195 -8C256 -8 304 26 327 70L327 0L371 0L371 352C371 451 327 512 219 512C102 512 62 448 59 348L99 348C102 432 130 472 215 472C299 472 327 428 327 348L327 300L247 286C128 265 47 225 47 128ZM327 146C327 85 272 28 195 28C128 28 91 63 91 128C91 192 127 229 247 250L327 264ZM215 562C267 562 293 592 293 644C293 696 267 726 215 726C163 726 137 696 137 644C137 592 163 562 215 562ZM215 588C175 588 167 612 167 644C167 676 175 700 215 700C255 700 263 676 263 644C263 612 255 588 215 588Z"/>
<glyph unicode="&#xe6;" horiz-adv-x="728" d="M47 120C47 32 102 -8 191 -8C272 -8 331 38 347 96C373 20 424 -8 507 -8C621 -8 662 48 675 152L637 152C627 68 594 28 507 28C415 28 371 74 371 256L371 264L675 264L675 272C675 453 622 512 503 512C433 512 385 488 357 433C337 483 293 512 219 512C101 512 62 448 59 348L99 348C102 432 130 472 215 472C299 472 327 428 327 348L327 292L247 276C129 252 47 217 47 120ZM191 28C133 28 91 55 91 120C91 184 129 216 247 240L327 256L327 148C327 88 279 28 191 28ZM503 472C589 472 629 431 634 300L372 300C379 435 423 472 503 472Z"/>
<glyph unicode="&#xe7;" horiz-adv-x="451" d="M207 -72L227 -72C279 -72 307 -88 307 -128C307 -168 279 -184 227 -184L167 -184L167 -216L231 -216C314 -216 351 -180 351 -128C351 -76 319 -44 243 -40L243 -8C347 -5 391 48 402 180L362 180C350 61 317 28 234 28C142 28 98 74 98 256C98 419 136 472 234 472C319 472 345 439 362 336L402 336C389 439 356 512 234 512C98 512 54 423 54 256C54 64 105 -2 219 -7Z"/>
<glyph unicode="&#xe8;" horiz-adv-x="455" d="M234 -8C348 -8 389 48 402 152L364 152C354 68 321 28 234 28C142 28 98 74 98 256L98 264L402 264L402 272C402 453 349 512 230 512C108 512 54 440 54 256C54 56 109 -8 234 -8ZM230 472C316 472 356 431 361 300L99 300C106 435 150 472 230 472ZM218 568L258 568L170 724L118 724Z"/>
<glyph unicode="&#xe9;" horiz-adv-x="455" d="M234 -8C348 -8 389 48 402 152L364 152C354 68 321 28 234 28C142 28 98 74 98 256L98 264L402 264L402 272C402 453 349 512 230 512C108 512 54 440 54 256C54 56 109 -8 234 -8ZM230 472C316 472 356 431 361 300L99 300C106 435 150 472 230 472ZM202 568L242 568L342 724L290 724Z"/>
<glyph unicode="&#xea;" horiz-adv-x="455" d="M234 -8C348 -8 389 48 402 152L364 152C354 68 321 28 234 28C142 28 98 74 98 256L98 264L402 264L402 272C402 453 349 512 230 512C108 512 54 440 54 256C54 56 109 -8 234 -8ZM230 472C316 472 356 431 361 300L99 300C106 435 150 472 230 472ZM116 568L156 568L230 699L304 568L344 568L256 724L204 724Z"/>
<glyph unicode="&#xeb;" horiz-adv-x="455" d="M234 -8C348 -8 389 48 402 152L364 152C354 68 321 28 234 28C142 28 98 74 98 256L98 264L402 264L402 272C402 453 349 512 230 512C108 512 54 440 54 256C54 56 109 -8 234 -8ZM230 472C316 472 356 431 361 300L99 300C106 435 150 472 230 472ZM274 608L318 608L318 680L274 680ZM142 608L186 608L186 680L142 680Z"/>
<glyph unicode="&#xec;" horiz-adv-x="200" d="M78 0L122 0L122 504L78 504ZM88 568L128 568L40 724L-12 724Z"/>
<glyph unicode="&#xed;" horiz-adv-x="200" d="M78 0L122 0L122 504L78 504ZM72 568L112 568L212 724L160 724Z"/>
<glyph unicode="&#xee;" horiz-adv-x="200" d="M78 0L122 0L122 504L78 504ZM-14 568L26 568L100 699L174 568L214 568L126 724L74 724Z"/>
<glyph unicode="&#xef;" horiz-adv-x="200" d="M78 0L122 0L122 504L78 504ZM144 608L188 608L188 680L144 680ZM12 608L56 608L56 680L12 680Z"/>
<glyph unicode="&#xf0;" horiz-adv-x="463" d="M107 528L255 601C290 550 313 506 330 466C307 485 275 496 231 496C95 496 55 400 55 236C55 72 87 -8 227 -8C367 -8 407 93 407 236C407 413 365 508 290 618L407 676L407 712L272 645L227 712L179 712L236 627L107 564ZM99 236C99 396 131 456 231 456C331 456 363 396 363 236C363 97 331 28 231 28C131 28 99 76 99 236Z"/>
<glyph unicode="&#xf1;" horiz-adv-x="480" d="M78 0L122 0L122 340C122 425 167 472 246 472C330 472 362 424 362 340L362 0L406 0L406 344C406 439 366 512 250 512C189 512 143 485 122 434L122 504L78 504ZM124 584L160 584L160 628C160 648 168 654 180 654C213 654 231 584 284 584C319 584 336 605 336 648L336 688L300 688L300 644C300 624 292 618 280 618C243 618 233 688 176 688C139 688 124 668 124 624Z"/>
<glyph unicode="&#xf2;" horiz-adv-x="460" d="M230 -8C370 -8 406 88 406 252C406 416 373 512 230 512C90 512 54 416 54 252C54 88 85 -8 230 -8ZM230 28C130 28 98 92 98 252C98 412 130 472 230 472C330 472 362 412 362 252C362 92 330 28 230 28ZM218 568L258 568L170 724L118 724Z"/>
<glyph unicode="&#xf3;" horiz-adv-x="460" d="M230 -8C370 -8 406 88 406 252C406 416 373 512 230 512C90 512 54 416 54 252C54 88 85 -8 230 -8ZM230 28C130 28 98 92 98 252C98 412 130 472 230 472C330 472 362 412 362 252C362 92 330 28 230 28ZM202 568L242 568L342 724L290 724Z"/>
<glyph unicode="&#xf4;" horiz-adv-x="460" d="M230 -8C370 -8 406 88 406 252C406 416 373 512 230 512C90 512 54 416 54 252C54 88 85 -8 230 -8ZM230 28C130 28 98 92 98 252C98 412 130 472 230 472C330 472 362 412 362 252C362 92 330 28 230 28ZM116 568L156 568L230 699L304 568L344 568L256 724L204 724Z"/>
<glyph unicode="&#xf5;" horiz-adv-x="460" d="M230 -8C370 -8 406 88 406 252C406 416 373 512 230 512C90 512 54 416 54 252C54 88 85 -8 230 -8ZM230 28C130 28 98 92 98 252C98 412 130 472 230 472C330 472 362 412 362 252C362 92 330 28 230 28ZM114 584L150 584L150 628C150 648 158 654 170 654C203 654 221 584 274 584C309 584 326 605 326 648L326 688L290 688L290 644C290 624 282 618 270 618C233 618 223 688 166 688C129 688 114 668 114 624Z"/>
<glyph unicode="&#xf6;" horiz-adv-x="460" d="M230 -8C370 -8 406 88 406 252C406 416 373 512 230 512C90 512 54 416 54 252C54 88 85 -8 230 -8ZM230 28C130 28 98 92 98 252C98 412 130 472 230 472C330 472 362 412 362 252C362 92 330 28 230 28ZM274 608L318 608L318 680L274 680ZM142 608L186 608L186 680L142 680Z"/>
<glyph unicode="&#xf7;" horiz-adv-x="560" d="M262 492L298 492L298 580L262 580ZM56 272L504 272L504 308L56 308ZM262 0L298 0L298 88L262 88Z"/>
<glyph unicode="&#xf8;" horiz-adv-x="464" d="M40 0L90 59C117 15 160 -8 232 -8C372 -8 408 88 408 252C408 316 404 369 389 410L424 452L424 504L373 444C346 488 304 512 232 512C92 512 56 416 56 252C56 188 60 136 75 93L40 52ZM232 28C175 28 140 48 121 95L354 370C361 341 364 301 364 252C364 92 332 28 232 28ZM100 252C100 412 132 472 232 472C288 472 323 453 342 408L109 134C103 165 100 204 100 252Z"/>
<glyph unicode="&#xf9;" horiz-adv-x="480" d="M74 160C74 63 114 -8 230 -8C295 -8 337 17 358 68L358 0L402 0L402 504L358 504L358 164C358 76 314 28 234 28C146 28 118 80 118 164L118 504L74 504ZM228 568L268 568L180 724L128 724Z"/>
<glyph unicode="&#xfa;" horiz-adv-x="480" d="M74 160C74 63 114 -8 230 -8C295 -8 337 17 358 68L358 0L402 0L402 504L358 504L358 164C358 76 314 28 234 28C146 28 118 80 118 164L118 504L74 504ZM212 568L252 568L352 724L300 724Z"/>
<glyph unicode="&#xfb;" horiz-adv-x="480" d="M74 160C74 63 114 -8 230 -8C295 -8 337 17 358 68L358 0L402 0L402 504L358 504L358 164C358 76 314 28 234 28C146 28 118 80 118 164L118 504L74 504ZM126 568L166 568L240 699L314 568L354 568L266 724L214 724Z"/>
<glyph unicode="&#xfc;" horiz-adv-x="480" d="M74 160C74 63 114 -8 230 -8C295 -8 337 17 358 68L358 0L402 0L402 504L358 504L358 164C358 76 314 28 234 28C146 28 118 80 118 164L118 504L74 504ZM284 608L328 608L328 680L284 680ZM152 608L196 608L196 680L152 680Z"/>
<glyph unicode="&#xfd;" horiz-adv-x="418" d="M39 -172L39 -208L71 -208C144 -208 177 -162 195 -108L399 504L359 504L214 63L69 504L23 504L192 -3L163 -92C148 -139 124 -172 67 -172ZM183 568L223 568L323 724L271 724Z"/>
<glyph unicode="&#xfe;" horiz-adv-x="484" d="M78 -208L122 -208L122 76C143 20 182 -8 254 -8C390 -8 430 88 430 252C430 416 398 512 258 512C185 512 143 481 122 424L122 712L78 712ZM254 28C154 28 122 92 122 252C122 412 154 472 254 472C354 472 386 412 386 252C386 92 354 28 254 28Z"/>
<glyph unicode="&#xff;" horiz-adv-x="418" d="M39 -172L39 -208L71 -208C144 -208 177 -162 195 -108L399 504L359 504L214 63L69 504L23 504L192 -3L163 -92C148 -139 124 -172 67 -172ZM255 608L299 608L299 680L255 680ZM123 608L167 608L167 680L123 680Z"/>
<glyph unicode="&#x100;" horiz-adv-x="522" d="M19 0L59 0L122 208L395 208L459 0L503 0L283 712L239 712ZM259 653L383 246L134 246ZM141 836L381 836L381 872L141 872Z"/>
<glyph unicode="&#x101;" horiz-adv-x="445" d="M47 128C47 40 102 -8 195 -8C256 -8 304 26 327 70L327 0L371 0L371 352C371 451 327 512 219 512C102 512 62 448 59 348L99 348C102 432 130 472 215 472C299 472 327 428 327 348L327 300L247 286C128 265 47 225 47 128ZM327 146C327 85 272 28 195 28C128 28 91 63 91 128C91 192 127 229 247 250L327 264ZM95 628L335 628L335 664L95 664Z"/>
<glyph unicode="&#x102;" horiz-adv-x="522" d="M19 0L59 0L122 208L395 208L459 0L503 0L283 712L239 712ZM259 653L383 246L134 246ZM261 772C337 772 369 812 369 900L337 900C337 840 324 804 261 804C198 804 185 840 185 900L153 900C153 816 186 772 261 772Z"/>
<glyph unicode="&#x103;" horiz-adv-x="445" d="M47 128C47 40 102 -8 195 -8C256 -8 304 26 327 70L327 0L371 0L371 352C371 451 327 512 219 512C102 512 62 448 59 348L99 348C102 432 130 472 215 472C299 472 327 428 327 348L327 300L247 286C128 265 47 225 47 128ZM327 146C327 85 272 28 195 28C128 28 91 63 91 128C91 192 127 229 247 250L327 264ZM215 564C291 564 323 604 323 692L291 692C291 632 278 596 215 596C152 596 139 632 139 692L107 692C107 608 140 564 215 564Z"/>
<glyph unicode="&#x104;" horiz-adv-x="522" d="M391 -136C391 -192 427 -216 495 -216L535 -216L535 -184L502 -184C458 -184 429 -172 429 -124C429 -84 467 -44 503 0L283 712L239 712L19 0L59 0L122 208L395 208L459 0L475 0C435 -45 391 -87 391 -136ZM259 653L383 248L135 248Z"/>
<glyph unicode="&#x105;" horiz-adv-x="445" d="M47 128C47 40 102 -8 195 -8C256 -8 304 26 327 70L327 0L343 0C303 -45 259 -87 259 -136C259 -192 295 -216 363 -216L403 -216L403 -184L370 -184C326 -184 297 -172 297 -124C297 -84 335 -44 371 0L371 352C371 451 327 512 219 512C102 512 62 448 59 348L99 348C102 432 130 472 215 472C299 472 327 428 327 348L327 300L247 286C128 265 47 225 47 128ZM195 28C128 28 91 63 91 128C91 192 127 229 247 250L327 264L327 146C327 85 272 28 195 28Z"/>
<glyph unicode="&#x106;" horiz-adv-x="578" d="M307 -12C460 -12 518 84 531 248L491 248C478 103 440 24 307 24C138 24 103 144 103 364C103 584 138 684 307 684C440 684 474 608 487 468L527 468C514 636 463 724 307 724C111 724 59 600 59 364C59 128 107 -12 307 -12ZM279 776L319 776L419 932L367 932Z"/>
<glyph unicode="&#x107;" horiz-adv-x="451" d="M234 -8C345 -8 391 44 402 180L362 180C350 61 317 28 234 28C142 28 98 74 98 256C98 419 136 472 234 472C319 472 345 439 362 336L402 336C389 439 356 512 234 512C98 512 54 423 54 256C54 56 109 -8 234 -8ZM206 568L246 568L346 724L294 724Z"/>
<glyph unicode="&#x108;" horiz-adv-x="578" d="M307 -12C460 -12 518 84 531 248L491 248C478 103 440 24 307 24C138 24 103 144 103 364C103 584 138 684 307 684C440 684 474 608 487 468L527 468C514 636 463 724 307 724C111 724 59 600 59 364C59 128 107 -12 307 -12ZM193 776L233 776L307 907L381 776L421 776L333 932L281 932Z"/>
<glyph unicode="&#x109;" horiz-adv-x="451" d="M234 -8C345 -8 391 44 402 180L362 180C350 61 317 28 234 28C142 28 98 74 98 256C98 419 136 472 234 472C319 472 345 439 362 336L402 336C389 439 356 512 234 512C98 512 54 423 54 256C54 56 109 -8 234 -8ZM120 568L160 568L234 699L308 568L348 568L260 724L208 724Z"/>
<glyph unicode="&#x10a;" horiz-adv-x="578" d="M307 -12C460 -12 518 84 531 248L491 248C478 103 440 24 307 24C138 24 103 144 103 364C103 584 138 684 307 684C440 684 474 608 487 468L527 468C514 636 463 724 307 724C111 724 59 600 59 364C59 128 107 -12 307 -12ZM285 816L329 816L329 888L285 888Z"/>
<glyph unicode="&#x10b;" horiz-adv-x="451" d="M234 -8C345 -8 391 44 402 180L362 180C350 61 317 28 234 28C142 28 98 74 98 256C98 419 136 472 234 472C319 472 345 439 362 336L402 336C389 439 356 512 234 512C98 512 54 423 54 256C54 56 109 -8 234 -8ZM212 608L256 608L256 680L212 680Z"/>
<glyph unicode="&#x10c;" horiz-adv-x="578" d="M307 -12C460 -12 518 84 531 248L491 248C478 103 440 24 307 24C138 24 103 144 103 364C103 584 138 684 307 684C440 684 474 608 487 468L527 468C514 636 463 724 307 724C111 724 59 600 59 364C59 128 107 -12 307 -12ZM281 776L333 776L421 932L381 932L307 801L233 932L193 932Z"/>
<glyph unicode="&#x10d;" horiz-adv-x="451" d="M234 -8C345 -8 391 44 402 180L362 180C350 61 317 28 234 28C142 28 98 74 98 256C98 419 136 472 234 472C319 472 345 439 362 336L402 336C389 439 356 512 234 512C98 512 54 423 54 256C54 56 109 -8 234 -8ZM208 568L260 568L348 724L308 724L234 593L160 724L120 724Z"/>
<glyph unicode="&#x10e;" horiz-adv-x="600" d="M93 0L293 0C493 0 541 140 541 364C541 600 489 712 293 712L93 712ZM293 672C460 672 497 572 497 364C497 156 460 36 293 36L137 36L137 672ZM263 776L315 776L403 932L363 932L289 801L215 932L175 932Z"/>
<glyph unicode="&#x10f;" horiz-adv-x="484" d="M226 -8C299 -8 339 23 362 80L362 0L406 0L406 712L362 712L362 430C341 483 302 512 230 512C94 512 54 416 54 252C54 88 86 -8 226 -8ZM230 28C130 28 98 92 98 252C98 412 130 472 230 472C330 472 362 412 362 252C362 92 330 28 230 28ZM446 560L462 560L498 668L498 712L446 712Z"/>
<glyph unicode="&#x110;" horiz-adv-x="608" d="M33 347L93 347L93 0L301 0C501 0 549 140 549 364C549 600 497 712 301 712L93 712L93 383L33 383ZM301 672C468 672 505 572 505 364C505 156 468 36 301 36L137 36L137 347L301 347L301 383L137 383L137 672Z"/>
<glyph unicode="&#x111;" horiz-adv-x="484" d="M230 592L362 592L362 430C341 483 302 512 230 512C94 512 54 416 54 252C54 88 86 -8 226 -8C299 -8 339 23 362 80L362 0L406 0L406 592L470 592L470 628L406 628L406 712L362 712L362 628L230 628ZM230 28C130 28 98 92 98 252C98 412 130 472 230 472C330 472 362 412 362 252C362 92 330 28 230 28Z"/>
<glyph unicode="&#x112;" horiz-adv-x="503" d="M93 0L449 0L449 36L137 36L137 345L425 345L425 383L137 383L137 672L449 672L449 712L93 712ZM151 836L391 836L391 872L151 872Z"/>
<glyph unicode="&#x113;" horiz-adv-x="455" d="M234 -8C348 -8 389 48 402 152L364 152C354 68 321 28 234 28C142 28 98 74 98 256L98 264L402 264L402 272C402 453 349 512 230 512C108 512 54 440 54 256C54 56 109 -8 234 -8ZM230 472C316 472 356 431 361 300L99 300C106 435 150 472 230 472ZM110 628L350 628L350 664L110 664Z"/>
<glyph unicode="&#x114;" horiz-adv-x="503" d="M93 0L449 0L449 36L137 36L137 345L425 345L425 383L137 383L137 672L449 672L449 712L93 712ZM271 772C347 772 379 812 379 900L347 900C347 840 334 804 271 804C208 804 195 840 195 900L163 900C163 816 196 772 271 772Z"/>
<glyph unicode="&#x115;" horiz-adv-x="455" d="M234 -8C348 -8 389 48 402 152L364 152C354 68 321 28 234 28C142 28 98 74 98 256L98 264L402 264L402 272C402 453 349 512 230 512C108 512 54 440 54 256C54 56 109 -8 234 -8ZM230 472C316 472 356 431 361 300L99 300C106 435 150 472 230 472ZM230 564C306 564 338 604 338 692L306 692C306 632 293 596 230 596C167 596 154 632 154 692L122 692C122 608 155 564 230 564Z"/>
<glyph unicode="&#x116;" horiz-adv-x="503" d="M93 0L449 0L449 36L137 36L137 345L425 345L425 383L137 383L137 672L449 672L449 712L93 712ZM249 816L293 816L293 888L249 888Z"/>
<glyph unicode="&#x117;" horiz-adv-x="455" d="M234 -8C348 -8 389 48 402 152L364 152C354 68 321 28 234 28C142 28 98 74 98 256L98 264L402 264L402 272C402 453 349 512 230 512C108 512 54 440 54 256C54 56 109 -8 234 -8ZM230 472C316 472 356 431 361 300L99 300C106 435 150 472 230 472ZM208 608L252 608L252 680L208 680Z"/>
<glyph unicode="&#x118;" horiz-adv-x="503" d="M93 0L389 0C349 -45 305 -87 305 -136C305 -192 341 -216 409 -216L449 -216L449 -184L416 -184C372 -184 343 -172 343 -124C343 -84 381 -44 417 0L449 0L449 36L137 36L137 346L425 346L425 384L137 384L137 672L449 672L449 712L93 712Z"/>
<glyph unicode="&#x119;" horiz-adv-x="455" d="M234 -8C260 -8 286 -5 304 0C264 -41 221 -87 221 -136C221 -192 257 -216 325 -216L365 -216L365 -184L332 -184C288 -184 259 -172 259 -124C259 -84 298 -45 333 0L357 31C384 66 396 96 402 152L364 152C354 68 321 28 234 28C142 28 98 74 98 256L98 264L402 264L402 272C402 453 349 512 230 512C108 512 54 440 54 256C54 56 109 -8 234 -8ZM230 472C316 472 356 431 361 300L99 300C106 435 150 472 230 472Z"/>
<glyph unicode="&#x11a;" horiz-adv-x="503" d="M93 0L449 0L449 36L137 36L137 345L425 345L425 383L137 383L137 672L449 672L449 712L93 712ZM245 776L297 776L385 932L345 932L271 801L197 932L157 932Z"/>
<glyph unicode="&#x11b;" horiz-adv-x="455" d="M234 -8C348 -8 389 48 402 152L364 152C354 68 321 28 234 28C142 28 98 74 98 256L98 264L402 264L402 272C402 453 349 512 230 512C108 512 54 440 54 256C54 56 109 -8 234 -8ZM230 472C316 472 356 431 361 300L99 300C106 435 150 472 230 472ZM204 568L256 568L344 724L304 724L230 593L156 724L116 724Z"/>
<glyph unicode="&#x11c;" horiz-adv-x="586" d="M307 326L491 326L491 276C491 132 451 24 307 24C138 24 103 144 103 364C103 584 138 684 307 684C432 684 472 616 485 488L525 488C512 644 455 724 307 724C111 724 59 600 59 364C59 128 107 -12 307 -12C471 -12 531 108 531 276L531 364L307 364ZM193 776L233 776L307 907L381 776L421 776L333 932L281 932Z"/>
<glyph unicode="&#x11d;" horiz-adv-x="484" d="M66 -64C73 -164 119 -216 234 -216C346 -216 406 -169 406 -36L406 504L362 504L362 430C341 483 302 512 230 512C94 512 54 416 54 252C54 88 86 -8 226 -8C299 -8 339 23 362 80L362 -40C362 -143 325 -180 234 -180C151 -180 113 -145 106 -64ZM230 28C130 28 98 92 98 252C98 412 130 472 230 472C330 472 362 412 362 252C362 83 325 28 230 28ZM116 568L156 568L230 699L304 568L344 568L256 724L204 724Z"/>
<glyph unicode="&#x11e;" horiz-adv-x="586" d="M307 326L491 326L491 276C491 132 451 24 307 24C138 24 103 144 103 364C103 584 138 684 307 684C432 684 472 616 485 488L525 488C512 644 455 724 307 724C111 724 59 600 59 364C59 128 107 -12 307 -12C471 -12 531 108 531 276L531 364L307 364ZM307 772C383 772 415 812 415 900L383 900C383 840 370 804 307 804C244 804 231 840 231 900L199 900C199 816 232 772 307 772Z"/>
<glyph unicode="&#x11f;" horiz-adv-x="484" d="M66 -64C73 -164 119 -216 234 -216C346 -216 406 -169 406 -36L406 504L362 504L362 430C341 483 302 512 230 512C94 512 54 416 54 252C54 88 86 -8 226 -8C299 -8 339 23 362 80L362 -40C362 -143 325 -180 234 -180C151 -180 113 -145 106 -64ZM230 28C130 28 98 92 98 252C98 412 130 472 230 472C330 472 362 412 362 252C362 83 325 28 230 28ZM230 564C306 564 338 604 338 692L306 692C306 632 293 596 230 596C167 596 154 632 154 692L122 692C122 608 155 564 230 564Z"/>
<glyph unicode="&#x120;" horiz-adv-x="586" d="M307 326L491 326L491 276C491 132 451 24 307 24C138 24 103 144 103 364C103 584 138 684 307 684C432 684 472 616 485 488L525 488C512 644 455 724 307 724C111 724 59 600 59 364C59 128 107 -12 307 -12C471 -12 531 108 531 276L531 364L307 364ZM285 816L329 816L329 888L285 888Z"/>
<glyph unicode="&#x121;" horiz-adv-x="484" d="M66 -64C73 -164 119 -216 234 -216C346 -216 406 -169 406 -36L406 504L362 504L362 430C341 483 302 512 230 512C94 512 54 416 54 252C54 88 86 -8 226 -8C299 -8 339 23 362 80L362 -40C362 -143 325 -180 234 -180C151 -180 113 -145 106 -64ZM230 28C130 28 98 92 98 252C98 412 130 472 230 472C330 472 362 412 362 252C362 83 325 28 230 28ZM208 608L252 608L252 680L208 680Z"/>
<glyph unicode="&#x122;" horiz-adv-x="586" d="M307 326L491 326L491 276C491 132 451 24 307 24C138 24 103 144 103 364C103 584 138 684 307 684C432 684 472 616 485 488L525 488C512 644 455 724 307 724C111 724 59 600 59 364C59 128 107 -12 307 -12C471 -12 531 108 531 276L531 364L307 364ZM283 -56L283 -208L299 -208L335 -100L335 -56Z"/>
<glyph unicode="&#x123;" horiz-adv-x="484" d="M66 -64C73 -164 119 -216 234 -216C346 -216 406 -169 406 -36L406 504L362 504L362 430C341 483 302 512 230 512C94 512 54 416 54 252C54 88 86 -8 226 -8C299 -8 339 23 362 80L362 -40C362 -143 325 -180 234 -180C151 -180 113 -145 106 -64ZM230 28C130 28 98 92 98 252C98 412 130 472 230 472C330 472 362 412 362 252C362 83 325 28 230 28ZM206 560L258 560L258 712L238 712L206 604Z"/>
<glyph unicode="&#x124;" horiz-adv-x="630" d="M93 0L137 0L137 344L493 344L493 0L537 0L537 712L493 712L493 384L137 384L137 712L93 712ZM201 776L241 776L315 907L389 776L429 776L341 932L289 932Z"/>
<glyph unicode="&#x125;" horiz-adv-x="480" d="M78 0L122 0L122 340C122 430 167 472 246 472C330 472 362 424 362 340L362 0L406 0L406 344C406 439 366 512 250 512C185 512 143 486 122 435L122 712L78 712ZM-14 776L26 776L100 907L174 776L214 776L126 932L74 932Z"/>
<glyph unicode="&#x126;" horiz-adv-x="630" d="M33 535L93 535L93 0L137 0L137 344L493 344L493 0L537 0L537 535L597 535L597 571L537 571L537 712L493 712L493 571L137 571L137 712L93 712L93 571L33 571ZM137 535L493 535L493 384L137 384Z"/>
<glyph unicode="&#x127;" horiz-adv-x="480" d="M14 592L78 592L78 0L122 0L122 340C122 430 167 472 246 472C330 472 362 424 362 340L362 0L406 0L406 344C406 439 366 512 250 512C185 512 143 486 122 435L122 592L254 592L254 628L122 628L122 712L78 712L78 628L14 628Z"/>
<glyph unicode="&#x128;" horiz-adv-x="230" d="M93 0L137 0L137 712L93 712ZM-1 792L35 792L35 836C35 856 43 862 55 862C88 862 106 792 159 792C194 792 211 813 211 856L211 896L175 896L175 852C175 832 167 826 155 826C118 826 108 896 51 896C14 896 -1 876 -1 832Z"/>
<glyph unicode="&#x129;" horiz-adv-x="200" d="M78 0L122 0L122 504L78 504ZM-16 584L20 584L20 628C20 648 28 654 40 654C73 654 91 584 144 584C179 584 196 605 196 648L196 688L160 688L160 644C160 624 152 618 140 618C103 618 93 688 36 688C-1 688 -16 668 -16 624Z"/>
<glyph unicode="&#x12a;" horiz-adv-x="230" d="M93 0L137 0L137 712L93 712ZM-5 836L235 836L235 872L-5 872Z"/>
<glyph unicode="&#x12b;" horiz-adv-x="200" d="M78 0L122 0L122 504L78 504ZM-20 628L220 628L220 664L-20 664Z"/>
<glyph unicode="&#x12c;" horiz-adv-x="230" d="M93 0L137 0L137 712L93 712ZM115 772C191 772 223 812 223 900L191 900C191 840 178 804 115 804C52 804 39 840 39 900L7 900C7 816 40 772 115 772Z"/>
<glyph unicode="&#x12d;" horiz-adv-x="200" d="M78 0L122 0L122 504L78 504ZM100 564C176 564 208 604 208 692L176 692C176 632 163 596 100 596C37 596 24 632 24 692L-8 692C-8 608 25 564 100 564Z"/>
<glyph unicode="&#x12e;" horiz-adv-x="230" d="M93 0L109 0C69 -45 25 -87 25 -136C25 -192 61 -216 129 -216L169 -216L169 -184L136 -184C92 -184 63 -172 63 -124C63 -84 101 -44 137 0L137 712L93 712Z"/>
<glyph unicode="&#x12f;" horiz-adv-x="200" d="M78 0L94 0C54 -45 10 -87 10 -136C10 -192 46 -216 114 -216L154 -216L154 -184L121 -184C77 -184 48 -172 48 -124C48 -84 86 -44 122 0L122 504L78 504ZM78 640L122 640L122 712L78 712Z"/>
<glyph unicode="&#x130;" horiz-adv-x="230" d="M93 0L137 0L137 712L93 712ZM93 816L137 816L137 888L93 888Z"/>
<glyph unicode="&#x131;" horiz-adv-x="200" d="M78 0L122 0L122 504L78 504Z"/>
<glyph unicode="&#x132;" horiz-adv-x="600" d="M93 0L137 0L137 712L93 712ZM233 36L233 0L321 0C453 0 513 57 513 184L513 712L469 712L469 184C469 87 434 36 321 36Z"/>
<glyph unicode="&#x133;" horiz-adv-x="390" d="M78 640L122 640L122 712L78 712ZM78 0L122 0L122 504L78 504ZM268 640L312 640L312 712L268 712ZM268 -124C268 -163 251 -172 224 -172L192 -172L192 -208L228 -208C279 -208 312 -183 312 -124L312 504L268 504Z"/>
<glyph unicode="&#x134;" horiz-adv-x="386" d="M19 36L19 0L107 0C239 0 299 57 299 184L299 712L255 712L255 184C255 87 220 36 107 36ZM164 776L204 776L278 907L352 776L392 776L304 932L252 932Z"/>
<glyph unicode="&#x135;" horiz-adv-x="200" d="M78 -124C78 -163 61 -172 34 -172L2 -172L2 -208L38 -208C89 -208 122 -183 122 -124L122 504L78 504ZM-14 568L26 568L100 699L174 568L214 568L126 724L74 724Z"/>
<glyph unicode="&#x136;" horiz-adv-x="552" d="M93 0L137 0L137 198L258 356L487 0L537 0L286 390L533 712L483 712L137 261L137 712L93 712ZM285 -56L285 -208L301 -208L337 -100L337 -56Z"/>
<glyph unicode="&#x137;" horiz-adv-x="435" d="M78 0L122 0L122 152L207 255L370 0L418 0L236 288L410 504L358 504L122 211L122 712L78 712ZM214 -56L214 -208L230 -208L266 -100L266 -56Z"/>
<glyph unicode="&#x139;" horiz-adv-x="469" d="M93 0L449 0L449 36L137 36L137 712L93 712ZM87 776L127 776L227 932L175 932Z"/>
<glyph unicode="&#x13a;" horiz-adv-x="200" d="M78 0L122 0L122 712L78 712ZM72 776L112 776L212 932L160 932Z"/>
<glyph unicode="&#x13b;" horiz-adv-x="469" d="M93 0L449 0L449 36L137 36L137 712L93 712ZM249 -56L249 -208L265 -208L301 -100L301 -56Z"/>
<glyph unicode="&#x13c;" horiz-adv-x="200" d="M78 0L122 0L122 712L78 712ZM76 -56L76 -208L92 -208L128 -100L128 -56Z"/>
<glyph unicode="&#x13d;" horiz-adv-x="469" d="M93 0L449 0L449 36L137 36L137 712L93 712ZM273 560L289 560L325 668L325 712L273 712Z"/>
<glyph unicode="&#x13e;" horiz-adv-x="200" d="M78 0L122 0L122 712L78 712ZM162 560L178 560L214 668L214 712L162 712Z"/>
<glyph unicode="&#x13f;" horiz-adv-x="469" d="M93 0L449 0L449 36L137 36L137 712L93 712ZM292 357L336 357L336 429L292 429Z"/>
<glyph unicode="&#x140;" horiz-adv-x="200" d="M78 0L122 0L122 712L78 712ZM178 357L222 357L222 429L178 429Z"/>
<glyph unicode="&#x141;" horiz-adv-x="472" d="M12 204L96 271L96 0L452 0L452 36L140 36L140 306L350 474L350 518L140 350L140 712L96 712L96 315L12 248Z"/>
<glyph unicode="&#x142;" horiz-adv-x="269" d="M28 284L116 354L116 0L160 0L160 389L248 460L248 504L160 433L160 712L116 712L116 398L28 328Z"/>
<glyph unicode="&#x143;" horiz-adv-x="630" d="M93 0L137 0L137 622L497 0L537 0L537 712L493 712L493 90L133 712L93 712ZM287 776L327 776L427 932L375 932Z"/>
<glyph unicode="&#x144;" horiz-adv-x="480" d="M78 0L122 0L122 340C122 425 167 472 246 472C330 472 362 424 362 340L362 0L406 0L406 344C406 439 366 512 250 512C189 512 143 485 122 434L122 504L78 504ZM212 568L252 568L352 724L300 724Z"/>
<glyph unicode="&#x145;" horiz-adv-x="630" d="M93 0L137 0L137 622L497 0L537 0L537 712L493 712L493 90L133 712L93 712ZM291 -56L291 -208L307 -208L343 -100L343 -56Z"/>
<glyph unicode="&#x146;" horiz-adv-x="480" d="M78 0L122 0L122 340C122 425 167 472 246 472C330 472 362 424 362 340L362 0L406 0L406 344C406 439 366 512 250 512C189 512 143 485 122 434L122 504L78 504ZM216 -56L216 -208L232 -208L268 -100L268 -56Z"/>
<glyph unicode="&#x147;" horiz-adv-x="630" d="M93 0L137 0L137 622L497 0L537 0L537 712L493 712L493 90L133 712L93 712ZM289 776L341 776L429 932L389 932L315 801L241 932L201 932Z"/>
<glyph unicode="&#x148;" horiz-adv-x="480" d="M78 0L122 0L122 340C122 425 167 472 246 472C330 472 362 424 362 340L362 0L406 0L406 344C406 439 366 512 250 512C189 512 143 485 122 434L122 504L78 504ZM214 568L266 568L354 724L314 724L240 593L166 724L126 724Z"/>
<glyph unicode="&#x149;" horiz-adv-x="480" d="M78 0L122 0L122 340C122 425 167 472 246 472C330 472 362 424 362 340L362 0L406 0L406 344C406 439 366 512 250 512C189 512 143 485 122 434L122 504L78 504ZM78 560L94 560L130 668L130 712L78 712Z"/>
<glyph unicode="&#x14a;" horiz-adv-x="630" d="M93 0L137 0L137 622L493 7L493 -28C493 -133 453 -172 361 -172L305 -172L305 -208L361 -208C478 -208 537 -155 537 -28L537 713L493 713L493 90L133 712L93 712Z"/>
<glyph unicode="&#x14b;" horiz-adv-x="480" d="M286 -172L286 -208L322 -208C373 -208 406 -183 406 -124L406 344C406 439 366 512 250 512C189 512 143 485 122 434L122 504L78 504L78 0L122 0L122 340C122 424 166 472 246 472C330 472 362 424 362 340L362 -124C362 -163 345 -172 318 -172Z"/>
<glyph unicode="&#x14c;" horiz-adv-x="614" d="M307 -12C507 -12 555 128 555 364C555 600 503 724 307 724C111 724 59 600 59 364C59 128 107 -12 307 -12ZM307 24C138 24 103 144 103 364C103 584 138 684 307 684C474 684 511 584 511 364C511 144 474 24 307 24ZM187 836L427 836L427 872L187 872Z"/>
<glyph unicode="&#x14d;" horiz-adv-x="460" d="M230 -8C370 -8 406 88 406 252C406 416 373 512 230 512C90 512 54 416 54 252C54 88 85 -8 230 -8ZM230 28C130 28 98 92 98 252C98 412 130 472 230 472C330 472 362 412 362 252C362 92 330 28 230 28ZM110 628L350 628L350 664L110 664Z"/>
<glyph unicode="&#x14e;" horiz-adv-x="614" d="M307 -12C507 -12 555 128 555 364C555 600 503 724 307 724C111 724 59 600 59 364C59 128 107 -12 307 -12ZM307 24C138 24 103 144 103 364C103 584 138 684 307 684C474 684 511 584 511 364C511 144 474 24 307 24ZM307 772C383 772 415 812 415 900L383 900C383 840 370 804 307 804C244 804 231 840 231 900L199 900C199 816 232 772 307 772Z"/>
<glyph unicode="&#x14f;" horiz-adv-x="460" d="M230 -8C370 -8 406 88 406 252C406 416 373 512 230 512C90 512 54 416 54 252C54 88 85 -8 230 -8ZM230 28C130 28 98 92 98 252C98 412 130 472 230 472C330 472 362 412 362 252C362 92 330 28 230 28ZM230 564C306 564 338 604 338 692L306 692C306 632 293 596 230 596C167 596 154 632 154 692L122 692C122 608 155 564 230 564Z"/>
<glyph unicode="&#x150;" horiz-adv-x="614" d="M307 -12C507 -12 555 128 555 364C555 600 503 724 307 724C111 724 59 600 59 364C59 128 107 -12 307 -12ZM307 24C138 24 103 144 103 364C103 584 138 684 307 684C474 684 511 584 511 364C511 144 474 24 307 24ZM343 776L383 776L483 932L431 932ZM215 776L255 776L355 932L303 932Z"/>
<glyph unicode="&#x151;" horiz-adv-x="460" d="M230 -8C370 -8 406 88 406 252C406 416 373 512 230 512C90 512 54 416 54 252C54 88 85 -8 230 -8ZM230 28C130 28 98 92 98 252C98 412 130 472 230 472C330 472 362 412 362 252C362 92 330 28 230 28ZM266 568L306 568L406 724L354 724ZM138 568L178 568L278 724L226 724Z"/>
<glyph unicode="&#x152;" horiz-adv-x="881" d="M827 0L827 36L515 36L515 346L803 346L803 384L515 384L515 672L827 672L827 712L307 712C111 712 59 600 59 364C59 140 107 0 307 0ZM103 364C103 572 138 672 307 672L471 672L471 36L307 36C138 36 103 156 103 364Z"/>
<glyph unicode="&#x153;" horiz-adv-x="763" d="M542 -8C656 -8 697 48 710 152L672 152C662 68 629 28 542 28C450 28 406 74 406 256L406 264L710 264L710 272C710 453 657 512 538 512C458 512 407 481 381 407C361 475 317 512 230 512C90 512 54 416 54 252C54 88 86 -8 230 -8C313 -8 358 30 380 100C406 21 458 -8 542 -8ZM538 472C624 472 664 431 669 300L407 300C414 435 458 472 538 472ZM230 28C130 28 98 92 98 252C98 412 130 472 230 472C330 472 362 412 362 252C362 92 330 28 230 28Z"/>
<glyph unicode="&#x154;" horiz-adv-x="538" d="M93 0L137 0L137 308L272 308L459 0L509 0L318 313C422 321 481 383 481 512C481 652 417 712 297 712L93 712ZM297 672C389 672 437 628 437 512C437 392 389 344 293 344L137 344L137 672ZM228 776L268 776L368 932L316 932Z"/>
<glyph unicode="&#x155;" horiz-adv-x="299" d="M74 0L118 0L118 368C118 432 150 464 214 464L282 464L282 504L214 504C123 504 74 452 74 368ZM158 568L198 568L298 724L246 724Z"/>
<glyph unicode="&#x156;" horiz-adv-x="538" d="M93 0L137 0L137 308L272 308L459 0L509 0L318 313C422 321 481 383 481 512C481 652 417 712 297 712L93 712ZM297 672C389 672 437 628 437 512C437 392 389 344 293 344L137 344L137 672ZM266 -56L266 -208L282 -208L318 -100L318 -56Z"/>
<glyph unicode="&#x157;" horiz-adv-x="299" d="M74 0L118 0L118 368C118 432 150 464 214 464L282 464L282 504L214 504C123 504 74 452 74 368ZM72 -56L72 -208L88 -208L124 -100L124 -56Z"/>
<glyph unicode="&#x158;" horiz-adv-x="538" d="M93 0L137 0L137 308L272 308L459 0L509 0L318 313C422 321 481 383 481 512C481 652 417 712 297 712L93 712ZM297 672C389 672 437 628 437 512C437 392 389 344 293 344L137 344L137 672ZM230 776L282 776L370 932L330 932L256 801L182 932L142 932Z"/>
<glyph unicode="&#x159;" horiz-adv-x="299" d="M74 0L118 0L118 368C118 432 150 464 214 464L282 464L282 504L214 504C123 504 74 452 74 368ZM160 568L212 568L300 724L260 724L186 593L112 724L72 724Z"/>
<glyph unicode="&#x15a;" horiz-adv-x="535" d="M49 224C54 64 119 -12 267 -12C400 -12 479 59 479 172C479 291 414 345 299 378L251 392C166 417 107 445 107 544C107 632 159 684 263 684C389 684 430 616 441 488L481 488C470 644 414 724 263 724C134 724 63 657 63 544C63 411 149 378 239 352L287 338C380 311 435 272 435 172C435 76 375 24 267 24C143 24 94 92 89 224ZM235 776L275 776L375 932L323 932Z"/>
<glyph unicode="&#x15b;" horiz-adv-x="412" d="M48 140C52 43 99 -8 204 -8C300 -8 360 33 360 124C360 196 324 236 241 260L185 276C118 295 100 324 100 376C100 432 124 472 208 472C289 472 316 445 320 368L360 368C356 464 316 512 208 512C112 512 56 463 56 376C56 300 93 261 165 240L221 224C296 203 316 178 316 124C316 56 284 28 204 28C128 28 96 55 88 140ZM180 568L220 568L320 724L268 724Z"/>
<glyph unicode="&#x15c;" horiz-adv-x="535" d="M49 224C54 64 119 -12 267 -12C400 -12 479 59 479 172C479 291 414 345 299 378L251 392C166 417 107 445 107 544C107 632 159 684 263 684C389 684 430 616 441 488L481 488C470 644 414 724 263 724C134 724 63 657 63 544C63 411 149 378 239 352L287 338C380 311 435 272 435 172C435 76 375 24 267 24C143 24 94 92 89 224ZM149 776L189 776L263 907L337 776L377 776L289 932L237 932Z"/>
<glyph unicode="&#x15d;" horiz-adv-x="412" d="M48 140C52 43 99 -8 204 -8C300 -8 360 33 360 124C360 196 324 236 241 260L185 276C118 295 100 324 100 376C100 432 124 472 208 472C289 472 316 445 320 368L360 368C356 464 316 512 208 512C112 512 56 463 56 376C56 300 93 261 165 240L221 224C296 203 316 178 316 124C316 56 284 28 204 28C128 28 96 55 88 140ZM94 568L134 568L208 699L282 568L322 568L234 724L182 724Z"/>
<glyph unicode="&#x15e;" horiz-adv-x="535" d="M240 -72L260 -72C312 -72 340 -88 340 -128C340 -168 312 -184 260 -184L200 -184L200 -216L264 -216C347 -216 384 -180 384 -128C384 -76 352 -44 276 -40L276 -12C403 -9 479 61 479 172C479 291 414 345 299 378L251 392C166 417 107 445 107 544C107 632 159 684 263 684C389 684 430 616 441 488L481 488C470 644 414 724 263 724C134 724 63 657 63 544C63 411 149 378 239 352L287 338C380 311 435 272 435 172C435 76 375 24 267 24C143 24 94 92 89 224L49 224C54 69 114 -7 251 -12Z"/>
<glyph unicode="&#x15f;" horiz-adv-x="412" d="M177 -72L197 -72C249 -72 277 -88 277 -128C277 -168 249 -184 197 -184L137 -184L137 -216L201 -216C284 -216 321 -180 321 -128C321 -76 289 -44 213 -40L213 -8C303 -5 360 36 360 124C360 196 324 236 241 260L185 276C118 295 100 324 100 376C100 432 124 472 208 472C289 472 316 445 320 368L360 368C356 464 316 512 208 512C112 512 56 463 56 376C56 300 93 261 165 240L221 224C296 203 316 178 316 124C316 56 284 28 204 28C128 28 96 55 88 140L48 140C52 47 94 -3 189 -7Z"/>
<glyph unicode="&#x160;" horiz-adv-x="535" d="M49 224C54 64 119 -12 267 -12C400 -12 479 59 479 172C479 291 414 345 299 378L251 392C166 417 107 445 107 544C107 632 159 684 263 684C389 684 430 616 441 488L481 488C470 644 414 724 263 724C134 724 63 657 63 544C63 411 149 378 239 352L287 338C380 311 435 272 435 172C435 76 375 24 267 24C143 24 94 92 89 224ZM237 776L289 776L377 932L337 932L263 801L189 932L149 932Z"/>
<glyph unicode="&#x161;" horiz-adv-x="412" d="M48 140C52 43 99 -8 204 -8C300 -8 360 33 360 124C360 196 324 236 241 260L185 276C118 295 100 324 100 376C100 432 124 472 208 472C289 472 316 445 320 368L360 368C356 464 316 512 208 512C112 512 56 463 56 376C56 300 93 261 165 240L221 224C296 203 316 178 316 124C316 56 284 28 204 28C128 28 96 55 88 140ZM182 568L234 568L322 724L282 724L208 593L134 724L94 724Z"/>
<glyph unicode="&#x162;" horiz-adv-x="516" d="M233 -72L253 -72C305 -72 333 -88 333 -128C333 -168 305 -184 253 -184L193 -184L193 -216L257 -216C340 -216 377 -180 377 -128C377 -76 345 -44 269 -40L269 0L280 0L280 672L496 672L496 712L20 712L20 672L236 672L236 0L247 0Z"/>
<glyph unicode="&#x163;" horiz-adv-x="315" d="M161 -72L181 -72C233 -72 261 -88 261 -128C261 -168 233 -184 181 -184L121 -184L121 -216L185 -216C268 -216 305 -180 305 -128C305 -76 273 -44 197 -40L197 2C206 0 217 0 228 0L296 0L296 36L228 36C160 36 140 76 140 136L140 466L296 466L296 504L140 504L140 624L96 624L96 504L24 504L24 466L96 466L96 136C96 72 116 24 175 7Z"/>
<glyph unicode="&#x164;" horiz-adv-x="516" d="M20 672L236 672L236 0L280 0L280 672L496 672L496 712L20 712ZM232 776L284 776L372 932L332 932L258 801L184 932L144 932Z"/>
<glyph unicode="&#x165;" horiz-adv-x="315" d="M24 466L96 466L96 136C96 56 130 0 228 0L296 0L296 36L228 36C160 36 140 76 140 136L140 466L296 466L296 504L140 504L140 624L96 624L96 504L24 504ZM200 560L216 560L252 668L252 712L200 712Z"/>
<glyph unicode="&#x166;" horiz-adv-x="546" d="M35 672L251 672L251 383L83 383L83 347L251 347L251 0L295 0L295 347L463 347L463 383L295 383L295 672L511 672L511 712L35 712Z"/>
<glyph unicode="&#x167;" horiz-adv-x="325" d="M30 466L102 466L102 291L30 291L30 255L102 255L102 136C102 56 136 0 234 0L302 0L302 36L234 36C166 36 146 76 146 136L146 255L302 255L302 291L146 291L146 466L302 466L302 504L146 504L146 624L102 624L102 504L30 504Z"/>
<glyph unicode="&#x168;" horiz-adv-x="612" d="M86 224C86 59 153 -12 306 -12C459 -12 526 59 526 224L526 712L482 712L482 224C482 87 431 24 306 24C181 24 130 87 130 224L130 712L86 712ZM190 792L226 792L226 836C226 856 234 862 246 862C279 862 297 792 350 792C385 792 402 813 402 856L402 896L366 896L366 852C366 832 358 826 346 826C309 826 299 896 242 896C205 896 190 876 190 832Z"/>
<glyph unicode="&#x169;" horiz-adv-x="480" d="M74 160C74 63 114 -8 230 -8C295 -8 337 17 358 68L358 0L402 0L402 504L358 504L358 164C358 76 314 28 234 28C146 28 118 80 118 164L118 504L74 504ZM124 584L160 584L160 628C160 648 168 654 180 654C213 654 231 584 284 584C319 584 336 605 336 648L336 688L300 688L300 644C300 624 292 618 280 618C243 618 233 688 176 688C139 688 124 668 124 624Z"/>
<glyph unicode="&#x16a;" horiz-adv-x="612" d="M86 224C86 59 153 -12 306 -12C459 -12 526 59 526 224L526 712L482 712L482 224C482 87 431 24 306 24C181 24 130 87 130 224L130 712L86 712ZM186 836L426 836L426 872L186 872Z"/>
<glyph unicode="&#x16b;" horiz-adv-x="480" d="M74 160C74 63 114 -8 230 -8C295 -8 337 17 358 68L358 0L402 0L402 504L358 504L358 164C358 76 314 28 234 28C146 28 118 80 118 164L118 504L74 504ZM120 628L360 628L360 664L120 664Z"/>
<glyph unicode="&#x16c;" horiz-adv-x="612" d="M86 224C86 59 153 -12 306 -12C459 -12 526 59 526 224L526 712L482 712L482 224C482 87 431 24 306 24C181 24 130 87 130 224L130 712L86 712ZM306 772C382 772 414 812 414 900L382 900C382 840 369 804 306 804C243 804 230 840 230 900L198 900C198 816 231 772 306 772Z"/>
<glyph unicode="&#x16d;" horiz-adv-x="480" d="M74 160C74 63 114 -8 230 -8C295 -8 337 17 358 68L358 0L402 0L402 504L358 504L358 164C358 76 314 28 234 28C146 28 118 80 118 164L118 504L74 504ZM240 564C316 564 348 604 348 692L316 692C316 632 303 596 240 596C177 596 164 632 164 692L132 692C132 608 165 564 240 564Z"/>
<glyph unicode="&#x16e;" horiz-adv-x="612" d="M86 224C86 59 153 -12 306 -12C459 -12 526 59 526 224L526 712L482 712L482 224C482 87 431 24 306 24C181 24 130 87 130 224L130 712L86 712ZM306 770C358 770 384 800 384 852C384 904 358 934 306 934C254 934 228 904 228 852C228 800 254 770 306 770ZM306 796C266 796 258 820 258 852C258 884 266 908 306 908C346 908 354 884 354 852C354 820 346 796 306 796Z"/>
<glyph unicode="&#x16f;" horiz-adv-x="480" d="M74 160C74 63 114 -8 230 -8C295 -8 337 17 358 68L358 0L402 0L402 504L358 504L358 164C358 76 314 28 234 28C146 28 118 80 118 164L118 504L74 504ZM240 562C292 562 318 592 318 644C318 696 292 726 240 726C188 726 162 696 162 644C162 592 188 562 240 562ZM240 588C200 588 192 612 192 644C192 676 200 700 240 700C280 700 288 676 288 644C288 612 280 588 240 588Z"/>
<glyph unicode="&#x170;" horiz-adv-x="612" d="M86 224C86 59 153 -12 306 -12C459 -12 526 59 526 224L526 712L482 712L482 224C482 87 431 24 306 24C181 24 130 87 130 224L130 712L86 712ZM342 776L382 776L482 932L430 932ZM214 776L254 776L354 932L302 932Z"/>
<glyph unicode="&#x171;" horiz-adv-x="480" d="M74 160C74 63 114 -8 230 -8C295 -8 337 17 358 68L358 0L402 0L402 504L358 504L358 164C358 76 314 28 234 28C146 28 118 80 118 164L118 504L74 504ZM276 568L316 568L416 724L364 724ZM148 568L188 568L288 724L236 724Z"/>
<glyph unicode="&#x172;" horiz-adv-x="612" d="M284 -136C284 -192 320 -216 388 -216L428 -216L428 -184L395 -184C351 -184 322 -172 322 -124C322 -84 359 -44 395 -1C486 24 526 95 526 224L526 712L482 712L482 224C482 87 431 24 306 24C181 24 130 87 130 224L130 712L86 712L86 224C86 59 153 -12 306 -12C327 -12 345 -11 360 -8C323 -49 284 -91 284 -136Z"/>
<glyph unicode="&#x173;" horiz-adv-x="480" d="M74 160C74 63 114 -8 230 -8C295 -8 337 17 358 68L358 0L374 0C334 -45 290 -87 290 -136C290 -192 326 -216 394 -216L434 -216L434 -184L401 -184C357 -184 328 -172 328 -124C328 -84 366 -44 402 0L402 504L358 504L358 164C358 76 314 28 234 28C146 28 118 80 118 164L118 504L74 504Z"/>
<glyph unicode="&#x174;" horiz-adv-x="868" d="M212 0L256 0L432 635L612 0L656 0L848 712L808 712L635 63L452 712L416 712L236 64L64 712L20 712ZM320 776L360 776L434 907L508 776L548 776L460 932L408 932Z"/>
<glyph unicode="&#x175;" horiz-adv-x="672" d="M172 0L212 0L336 422L460 0L500 0L652 504L612 504L483 65L354 504L324 504L195 65L66 504L20 504ZM226 568L266 568L340 699L414 568L454 568L366 724L314 724Z"/>
<glyph unicode="&#x176;" horiz-adv-x="518" d="M237 0L281 0L281 324L505 712L463 712L263 362L63 712L13 712L237 324ZM145 776L185 776L259 907L333 776L373 776L285 932L233 932Z"/>
<glyph unicode="&#x177;" horiz-adv-x="418" d="M39 -172L39 -208L71 -208C144 -208 177 -162 195 -108L399 504L359 504L214 63L69 504L23 504L192 -3L163 -92C148 -139 124 -172 67 -172ZM97 568L137 568L211 699L285 568L325 568L237 724L185 724Z"/>
<glyph unicode="&#x178;" horiz-adv-x="518" d="M237 0L281 0L281 324L505 712L463 712L263 362L63 712L13 712L237 324ZM303 816L347 816L347 888L303 888ZM171 816L215 816L215 888L171 888Z"/>
<glyph unicode="&#x179;" horiz-adv-x="470" d="M33 672L388 672L41 28L41 0L429 0L429 36L87 36L437 684L437 712L33 712ZM207 776L247 776L347 932L295 932Z"/>
<glyph unicode="&#x17a;" horiz-adv-x="386" d="M38 466L295 466L42 24L42 0L342 0L342 36L96 36L350 480L350 504L38 504ZM166 568L206 568L306 724L254 724Z"/>
<glyph unicode="&#x17b;" horiz-adv-x="470" d="M33 672L388 672L41 28L41 0L429 0L429 36L87 36L437 684L437 712L33 712ZM213 816L257 816L257 888L213 888Z"/>
<glyph unicode="&#x17c;" horiz-adv-x="386" d="M38 466L295 466L42 24L42 0L342 0L342 36L96 36L350 480L350 504L38 504ZM172 608L216 608L216 680L172 680Z"/>
<glyph unicode="&#x17d;" horiz-adv-x="470" d="M33 672L388 672L41 28L41 0L429 0L429 36L87 36L437 684L437 712L33 712ZM209 776L261 776L349 932L309 932L235 801L161 932L121 932Z"/>
<glyph unicode="&#x17e;" horiz-adv-x="386" d="M38 466L295 466L42 24L42 0L342 0L342 36L96 36L350 480L350 504L38 504ZM168 568L220 568L308 724L268 724L194 593L120 724L80 724Z"/>
<glyph unicode="&#x17f;" horiz-adv-x="240" d="M26 466L98 466L98 0L142 0L142 548C142 632 174 672 258 672L302 672L302 712L258 712C150 712 98 652 98 548L98 504L26 504Z"/>
<glyph unicode="&#x18f;" horiz-adv-x="596" d="M286 -12C482 -12 537 112 537 348C537 584 490 724 290 724C138 724 65 628 53 464L93 464C105 608 158 684 290 684C456 684 493 572 493 352L57 352L57 283C57 96 123 -12 286 -12ZM286 24C153 24 97 105 97 284L97 316L493 316C488 113 446 24 286 24Z"/>
<glyph unicode="&#x192;" horiz-adv-x="560" d="M90 346L242 346L242 -24C242 -132 201 -172 114 -172L46 -172L46 -208L114 -208C235 -208 286 -144 286 -24L286 346L458 346L458 384L286 384L286 528C286 636 327 672 414 672L482 672L482 712L414 712C293 712 242 648 242 528L242 384L90 384Z"/>
<glyph unicode="&#x1fc;" horiz-adv-x="791" d="M7 0L51 0L134 208L387 208L387 0L735 0L735 36L431 36L431 341L719 341L719 379L431 379L431 672L735 672L735 712L295 712ZM319 672L387 672L387 246L149 246ZM383 776L423 776L523 932L471 932Z"/>
<glyph unicode="&#x1fd;" horiz-adv-x="728" d="M47 120C47 32 102 -8 191 -8C272 -8 331 38 347 96C373 20 424 -8 507 -8C621 -8 662 48 675 152L637 152C627 68 594 28 507 28C415 28 371 74 371 256L371 264L675 264L675 272C675 453 622 512 503 512C433 512 385 488 357 433C337 483 293 512 219 512C101 512 62 448 59 348L99 348C102 432 130 472 215 472C299 472 327 428 327 348L327 292L247 276C129 252 47 217 47 120ZM191 28C133 28 91 55 91 120C91 184 129 216 247 240L327 256L327 148C327 88 279 28 191 28ZM503 472C589 472 629 431 634 300L372 300C379 435 423 472 503 472ZM321 568L361 568L461 724L409 724Z"/>
<glyph unicode="&#x1fe;" horiz-adv-x="614" d="M43 0L110 84C147 20 208 -12 307 -12C507 -12 555 128 555 364C555 461 546 539 522 598L571 660L571 712L506 630C467 693 407 724 307 724C111 724 59 600 59 364C59 261 67 179 94 116L43 52ZM307 24C219 24 167 55 138 119L491 560C506 511 511 445 511 364C511 144 474 24 307 24ZM103 364C103 584 138 684 307 684C396 684 449 655 478 595L125 154C108 209 103 277 103 364ZM279 776L319 776L419 932L367 932Z"/>
<glyph unicode="&#x1ff;" horiz-adv-x="464" d="M40 0L90 59C117 15 160 -8 232 -8C372 -8 408 88 408 252C408 316 404 369 389 410L424 452L424 504L373 444C346 488 304 512 232 512C92 512 56 416 56 252C56 188 60 136 75 93L40 52ZM232 28C175 28 140 48 121 95L354 370C361 341 364 301 364 252C364 92 332 28 232 28ZM100 252C100 412 132 472 232 472C288 472 323 453 342 408L109 134C103 165 100 204 100 252ZM204 568L244 568L344 724L292 724Z"/>
<glyph unicode="&#x218;" horiz-adv-x="535" d="M49 224C54 64 119 -12 267 -12C400 -12 479 59 479 172C479 291 414 345 299 378L251 392C166 417 107 445 107 544C107 632 159 684 263 684C389 684 430 616 441 488L481 488C470 644 414 724 263 724C134 724 63 657 63 544C63 411 149 378 239 352L287 338C380 311 435 272 435 172C435 76 375 24 267 24C143 24 94 92 89 224ZM243 -56L243 -208L259 -208L295 -100L295 -56Z"/>
<glyph unicode="&#x219;" horiz-adv-x="412" d="M48 140C52 43 99 -8 204 -8C300 -8 360 33 360 124C360 196 324 236 241 260L185 276C118 295 100 324 100 376C100 432 124 472 208 472C289 472 316 445 320 368L360 368C356 464 316 512 208 512C112 512 56 463 56 376C56 300 93 261 165 240L221 224C296 203 316 178 316 124C316 56 284 28 204 28C128 28 96 55 88 140ZM180 -56L180 -208L196 -208L232 -100L232 -56Z"/>
<glyph unicode="&#x21a;" horiz-adv-x="516" d="M20 672L236 672L236 0L280 0L280 672L496 672L496 712L20 712ZM234 -56L234 -208L250 -208L286 -100L286 -56Z"/>
<glyph unicode="&#x21b;" horiz-adv-x="315" d="M24 466L96 466L96 136C96 56 130 0 228 0L296 0L296 36L228 36C160 36 140 76 140 136L140 466L296 466L296 504L140 504L140 624L96 624L96 504L24 504ZM164 -56L164 -208L180 -208L216 -100L216 -56Z"/>
<glyph unicode="&#x237;" horiz-adv-x="200" d="M78 -124C78 -163 61 -172 34 -172L2 -172L2 -208L38 -208C89 -208 122 -183 122 -124L122 504L78 504Z"/>
<glyph unicode="&#x259;" horiz-adv-x="455" d="M225 -8C349 -8 401 60 401 248C401 448 346 512 221 512C107 512 70 456 57 352L95 352C105 436 134 472 221 472C313 472 357 426 357 248L357 240L53 240L53 236C53 51 108 -8 225 -8ZM225 28C138 28 99 72 93 204L356 204C349 63 305 28 225 28Z"/>
<glyph unicode="&#x2c6;" horiz-adv-x="440" d="M106 568L146 568L220 699L294 568L334 568L246 724L194 724Z"/>
<glyph unicode="&#x2c7;" horiz-adv-x="440" d="M194 568L246 568L334 724L294 724L220 593L146 724L106 724Z"/>
<glyph unicode="&#x2c9;" horiz-adv-x="440" d="M100 628L340 628L340 664L100 664Z"/>
<glyph unicode="&#x2d8;" horiz-adv-x="440" d="M220 564C296 564 328 604 328 692L296 692C296 632 283 596 220 596C157 596 144 632 144 692L112 692C112 608 145 564 220 564Z"/>
<glyph unicode="&#x2d9;" horiz-adv-x="440" d="M198 608L242 608L242 680L198 680Z"/>
<glyph unicode="&#x2da;" horiz-adv-x="440" d="M220 562C272 562 298 592 298 644C298 696 272 726 220 726C168 726 142 696 142 644C142 592 168 562 220 562ZM220 588C180 588 172 612 172 644C172 676 180 700 220 700C260 700 268 676 268 644C268 612 260 588 220 588Z"/>
<glyph unicode="&#x2db;" horiz-adv-x="440" d="M130 -136C130 -192 166 -216 234 -216L274 -216L274 -184L241 -184C197 -184 168 -172 168 -124C168 -84 206 -44 242 0L214 0C174 -45 130 -87 130 -136Z"/>
<glyph unicode="&#x2dc;" horiz-adv-x="440" d="M104 584L140 584L140 628C140 648 148 654 160 654C193 654 211 584 264 584C299 584 316 605 316 648L316 688L280 688L280 644C280 624 272 618 260 618C223 618 213 688 156 688C119 688 104 668 104 624Z"/>
<glyph unicode="&#x2dd;" horiz-adv-x="440" d="M256 568L296 568L396 724L344 724ZM128 568L168 568L268 724L216 724Z"/>
<glyph unicode="&#x326;" horiz-adv-x="0" d="M-254 -56L-254 -208L-238 -208L-202 -100L-202 -56Z"/>
<glyph unicode="&#x37e;" horiz-adv-x="198" d="M71 392L127 392L127 472L71 472ZM71 80L71 -128L93 -128L127 24L127 80Z"/>
<glyph unicode="&#x385;" horiz-adv-x="448" d="M187 568L224 568L266 724L217 724ZM277 608L321 608L321 680L277 680ZM127 608L171 608L171 680L127 680Z"/>
<glyph unicode="&#x387;" horiz-adv-x="188" d="M64 392L124 392L124 472L64 472Z"/>
<glyph unicode="&#x394;" horiz-adv-x="522" d="M19 0L503 0L283 712L239 712ZM259 653L448 36L70 36Z"/>
<glyph unicode="&#x3a9;" horiz-adv-x="620" d="M70 0L258 0L258 107C170 136 102 176 102 400C102 584 146 684 310 684C474 684 518 584 518 400C518 176 450 136 362 107L362 0L550 0L550 36L398 36L398 82C485 116 562 165 562 396C562 600 502 724 310 724C118 724 58 600 58 396C58 164 133 117 222 82L222 36L70 36Z"/>
<glyph unicode="&#x3bc;" horiz-adv-x="492" d="M78 -208L122 -208L122 47C143 11 178 -8 234 -8C299 -8 341 18 362 70C367 23 395 0 446 0L470 0L470 36L450 36C423 36 406 45 406 84L406 504L362 504L362 164C362 76 318 28 238 28C150 28 122 80 122 164L122 504L78 504Z"/>
<glyph unicode="&#x3c0;" horiz-adv-x="499" d="M28 466L117 466L76 0L119 0L160 466L339 466L339 84C339 25 368 0 423 0L447 0L447 36L427 36C396 36 383 49 383 84L383 466L466 466L466 504L28 504Z"/>
<glyph unicode="&#xe3f;" horiz-adv-x="528" d="M72 0L244 0L244 -104L288 -104L288 0C407 1 484 54 484 188C484 280 447 344 368 367C417 380 464 434 464 532C464 652 399 712 284 712L280 712L280 816L236 816L236 712L72 712ZM280 344C388 344 440 298 440 188C440 80 385 36 280 36L116 36L116 344ZM284 672C379 672 420 626 420 532C420 438 384 384 284 384L116 384L116 672Z"/>
<glyph unicode="&#x1e80;" horiz-adv-x="868" d="M212 0L256 0L432 635L612 0L656 0L848 712L808 712L635 63L452 712L416 712L236 64L64 712L20 712ZM422 776L462 776L374 932L322 932Z"/>
<glyph unicode="&#x1e81;" horiz-adv-x="672" d="M172 0L212 0L336 422L460 0L500 0L652 504L612 504L483 65L354 504L324 504L195 65L66 504L20 504ZM328 568L368 568L280 724L228 724Z"/>
<glyph unicode="&#x1e82;" horiz-adv-x="868" d="M212 0L256 0L432 635L612 0L656 0L848 712L808 712L635 63L452 712L416 712L236 64L64 712L20 712ZM406 776L446 776L546 932L494 932Z"/>
<glyph unicode="&#x1e83;" horiz-adv-x="672" d="M172 0L212 0L336 422L460 0L500 0L652 504L612 504L483 65L354 504L324 504L195 65L66 504L20 504ZM312 568L352 568L452 724L400 724Z"/>
<glyph unicode="&#x1e84;" horiz-adv-x="868" d="M212 0L256 0L432 635L612 0L656 0L848 712L808 712L635 63L452 712L416 712L236 64L64 712L20 712ZM478 816L522 816L522 888L478 888ZM346 816L390 816L390 888L346 888Z"/>
<glyph unicode="&#x1e85;" horiz-adv-x="672" d="M172 0L212 0L336 422L460 0L500 0L652 504L612 504L483 65L354 504L324 504L195 65L66 504L20 504ZM384 608L428 608L428 680L384 680ZM252 608L296 608L296 680L252 680Z"/>
<glyph unicode="&#x1e8a;" horiz-adv-x="512" d="M18 0L62 0L254 330L446 0L494 0L281 364L486 712L442 712L258 399L74 712L26 712L231 364ZM236 816L280 816L280 888L236 888Z"/>
<glyph unicode="&#x1e8b;" horiz-adv-x="414" d="M28 0L74 0L205 218L340 0L388 0L232 253L384 504L338 504L208 288L76 504L28 504L181 253ZM186 608L230 608L230 680L186 680Z"/>
<glyph unicode="&#x1ef2;" horiz-adv-x="518" d="M237 0L281 0L281 324L505 712L463 712L263 362L63 712L13 712L237 324ZM247 776L287 776L199 932L147 932Z"/>
<glyph unicode="&#x1ef3;" horiz-adv-x="418" d="M39 -172L39 -208L71 -208C144 -208 177 -162 195 -108L399 504L359 504L214 63L69 504L23 504L192 -3L163 -92C148 -139 124 -172 67 -172ZM199 568L239 568L151 724L99 724Z"/>
<glyph unicode="&#x2007;" horiz-adv-x="560" />
<glyph unicode="&#x2008;" horiz-adv-x="196" />
<glyph unicode="&#x200b;" horiz-adv-x="0" />
<glyph unicode="&#x2013;" horiz-adv-x="588" d="M70 272L518 272L518 308L70 308Z"/>
<glyph unicode="&#x2014;" horiz-adv-x="904" d="M70 272L834 272L834 308L70 308Z"/>
<glyph unicode="&#x2015;" horiz-adv-x="588" d="M70 272L518 272L518 308L70 308Z"/>
<glyph unicode="&#x2018;" horiz-adv-x="181" d="M58 504L114 504L114 712L94 712L58 560Z"/>
<glyph unicode="&#x2019;" horiz-adv-x="176" d="M67 504L87 504L123 656L123 712L67 712Z"/>
<glyph unicode="&#x201a;" horiz-adv-x="187" d="M66 80L66 -128L86 -128L122 24L122 80Z"/>
<glyph unicode="&#x201c;" horiz-adv-x="313" d="M190 504L246 504L246 712L226 712L190 560ZM58 504L114 504L114 712L94 712L58 560Z"/>
<glyph unicode="&#x201d;" horiz-adv-x="308" d="M199 504L219 504L255 656L255 712L199 712ZM67 504L87 504L123 656L123 712L67 712Z"/>
<glyph unicode="&#x201e;" horiz-adv-x="319" d="M198 80L198 -128L218 -128L254 24L254 80ZM66 80L66 -128L86 -128L122 24L122 80Z"/>
<glyph unicode="&#x2020;" horiz-adv-x="510" d="M57 486L233 486L233 0L277 0L277 486L453 486L453 524L277 524L277 712L233 712L233 524L57 524Z"/>
<glyph unicode="&#x2021;" horiz-adv-x="510" d="M57 482L233 482L233 222L57 222L57 184L233 184L233 0L277 0L277 184L453 184L453 222L277 222L277 482L453 482L453 520L277 520L277 712L233 712L233 520L57 520Z"/>
<glyph unicode="&#x2022;" horiz-adv-x="430" d="M100 174L330 174L330 406L100 406Z"/>
<glyph unicode="&#x2026;" horiz-adv-x="620" d="M518 0L574 0L574 80L518 80ZM286 0L342 0L342 80L286 80ZM46 0L102 0L102 80L46 80Z"/>
<glyph unicode="&#x2030;" horiz-adv-x="1019" d="M176 348C281 348 309 416 309 536C309 656 281 720 176 720C71 720 42 654 42 536C42 413 69 348 176 348ZM176 378C100 378 82 425 82 536C82 643 101 686 176 686C248 686 269 643 269 536C269 425 251 378 176 378ZM111 0L145 0L601 712L567 712ZM536 -8C641 -8 669 60 669 180C669 300 641 364 536 364C431 364 402 298 402 180C402 57 429 -8 536 -8ZM536 22C460 22 442 69 442 180C442 287 461 330 536 330C608 330 629 287 629 180C629 69 611 22 536 22ZM848 -8C953 -8 981 60 981 180C981 300 953 364 848 364C743 364 714 298 714 180C714 57 741 -8 848 -8ZM848 22C772 22 754 69 754 180C754 287 773 330 848 330C920 330 941 287 941 180C941 69 923 22 848 22Z"/>
<glyph unicode="&#x2039;" horiz-adv-x="232" d="M139 64L175 64L91 256L175 448L139 448L47 256Z"/>
<glyph unicode="&#x203a;" horiz-adv-x="231" d="M57 64L93 64L185 256L97 448L57 448L141 256Z"/>
<glyph unicode="&#x2044;" horiz-adv-x="48" d="M-221 0L-187 0L269 712L235 712Z"/>
<glyph unicode="&#x2070;" horiz-adv-x="312" d="M156 508C261 508 289 576 289 696C289 816 261 880 156 880C51 880 22 814 22 696C22 573 49 508 156 508ZM156 538C80 538 62 585 62 696C62 803 81 846 156 846C228 846 249 803 249 696C249 585 231 538 156 538Z"/>
<glyph unicode="&#x2071;" horiz-adv-x="141" d="M51 966L90 966L90 1022L51 1022ZM51 516L90 516L90 872L51 872Z"/>
<glyph unicode="&#x2074;" horiz-adv-x="312" d="M9 602L199 602L199 516L238 516L238 602L299 602L299 634L238 634L238 872L186 872L9 627ZM51 634L199 838L199 634Z"/>
<glyph unicode="&#x2075;" horiz-adv-x="312" d="M27 620C34 541 78 510 157 510C237 510 287 547 287 630C287 706 242 747 161 747C122 747 93 738 73 720L84 838L267 838L267 872L54 872L35 678L35 657L67 657C76 694 104 715 157 715C222 715 247 686 247 630C247 570 222 540 157 540C96 540 69 565 65 620Z"/>
<glyph unicode="&#x2076;" horiz-adv-x="312" d="M28 625C28 542 78 508 159 508C236 508 289 542 289 625C289 702 244 743 163 743C142 743 123 739 107 731L219 872L174 872L75 743C51 712 29 680 28 629ZM68 625C68 682 98 711 159 711C219 711 249 682 249 625C249 567 219 538 159 538C98 538 68 567 68 625Z"/>
<glyph unicode="&#x2077;" horiz-adv-x="312" d="M81 516L120 516L290 847L290 872L23 872L23 838L248 838Z"/>
<glyph unicode="&#x2078;" horiz-adv-x="312" d="M25 609C25 537 76 508 156 508C235 508 286 537 286 609C286 650 265 679 222 694C255 707 281 734 281 778C281 842 232 880 156 880C80 880 30 842 30 778C30 734 56 707 89 694C46 679 25 650 25 609ZM156 710C99 710 70 739 70 778C70 826 109 846 156 846C203 846 241 826 241 778C241 739 213 710 156 710ZM65 609C65 654 99 680 156 680C213 680 246 654 246 609C246 560 211 538 156 538C100 538 65 560 65 609Z"/>
<glyph unicode="&#x2079;" horiz-adv-x="312" d="M94 516L139 516L238 645C262 676 283 708 284 759L284 763C284 846 235 880 154 880C75 880 23 843 23 760C23 681 67 643 150 643C171 643 189 647 204 655ZM154 672C93 672 63 701 63 758C63 817 93 846 154 846C214 846 244 817 244 758C244 701 214 672 154 672Z"/>
<glyph unicode="&#x207a;" horiz-adv-x="312" d="M140 579L171 579L171 680L281 680L281 708L171 708L171 809L140 809L140 708L31 708L31 680L140 680Z"/>
<glyph unicode="&#x207b;" horiz-adv-x="312" d="M31 680L281 680L281 708L31 708Z"/>
<glyph unicode="&#x207c;" horiz-adv-x="312" d="M31 745L281 745L281 773L31 773ZM31 615L281 615L281 643L31 643Z"/>
<glyph unicode="&#x207d;" horiz-adv-x="149" d="M26 694C26 478 58 456 124 456L135 456L135 490L125 490C81 490 63 511 63 694C63 878 81 899 125 899L135 899L135 932L124 932C59 932 26 910 26 694Z"/>
<glyph unicode="&#x207e;" horiz-adv-x="149" d="M123 694C123 910 90 932 25 932L14 932L14 899L24 899C68 899 86 878 86 694C86 511 68 490 24 490L14 490L14 456L25 456C91 456 123 478 123 694Z"/>
<glyph unicode="&#x207f;" horiz-adv-x="340" d="M51 516L90 516L90 752C90 813 118 844 174 844C231 844 252 813 252 752L252 516L292 516L292 759C292 830 260 880 180 880C136 880 104 861 89 824L89 872L51 872Z"/>
<glyph unicode="&#x2080;" horiz-adv-x="312" d="M156 -168C261 -168 289 -100 289 20C289 140 261 204 156 204C51 204 22 138 22 20C22 -103 49 -168 156 -168ZM156 -138C80 -138 62 -91 62 20C62 127 81 170 156 170C228 170 249 127 249 20C249 -91 231 -138 156 -138Z"/>
<glyph unicode="&#x2081;" horiz-adv-x="312" d="M164 -160L204 -160L204 196L177 196L69 159L69 125L164 155Z"/>
<glyph unicode="&#x2082;" horiz-adv-x="312" d="M37 -160L279 -160L279 -130L73 -130C73 -87 88 -73 142 -45L192 -19C230 1 283 36 283 99C283 167 237 204 161 204C78 204 34 159 27 78L65 78C72 142 101 170 161 170C216 170 243 146 243 98C243 49 210 28 170 7L120 -19C67 -46 37 -73 37 -132Z"/>
<glyph unicode="&#x2083;" horiz-adv-x="312" d="M25 -45C29 -129 73 -168 157 -168C236 -168 283 -131 283 -67C283 -18 261 9 222 22C257 34 276 67 276 102C276 166 236 204 156 204C76 204 31 161 26 82L63 82C68 141 99 170 156 170C208 170 236 145 236 102C236 65 219 33 163 33L118 33L118 2L167 2C224 2 243 -24 243 -67C243 -116 212 -138 157 -138C96 -138 66 -109 63 -45Z"/>
<glyph unicode="&#x2084;" horiz-adv-x="312" d="M9 -74L199 -74L199 -160L238 -160L238 -74L299 -74L299 -42L238 -42L238 196L186 196L9 -49ZM51 -42L199 162L199 -42Z"/>
<glyph unicode="&#x2085;" horiz-adv-x="312" d="M27 -56C34 -135 78 -166 157 -166C237 -166 287 -129 287 -46C287 30 242 71 161 71C122 71 93 62 73 44L84 162L267 162L267 196L54 196L35 2L35 -19L67 -19C76 18 104 39 157 39C222 39 247 10 247 -46C247 -106 222 -136 157 -136C96 -136 69 -111 65 -56Z"/>
<glyph unicode="&#x2086;" horiz-adv-x="312" d="M28 -51C28 -134 78 -168 159 -168C236 -168 289 -134 289 -51C289 26 244 67 163 67C142 67 123 63 107 55L219 196L174 196L75 67C51 36 29 4 28 -47ZM68 -51C68 6 98 35 159 35C219 35 249 6 249 -51C249 -109 219 -138 159 -138C98 -138 68 -109 68 -51Z"/>
<glyph unicode="&#x2087;" horiz-adv-x="312" d="M81 -160L120 -160L290 171L290 196L23 196L23 162L248 162Z"/>
<glyph unicode="&#x2088;" horiz-adv-x="312" d="M25 -67C25 -139 76 -168 156 -168C235 -168 286 -139 286 -67C286 -26 265 3 222 18C255 31 281 58 281 102C281 166 232 204 156 204C80 204 30 166 30 102C30 58 56 31 89 18C46 3 25 -26 25 -67ZM156 34C99 34 70 63 70 102C70 150 109 170 156 170C203 170 241 150 241 102C241 63 213 34 156 34ZM65 -67C65 -22 99 4 156 4C213 4 246 -22 246 -67C246 -116 211 -138 156 -138C100 -138 65 -116 65 -67Z"/>
<glyph unicode="&#x2089;" horiz-adv-x="312" d="M94 -160L139 -160L238 -31C262 0 283 32 284 83L284 87C284 170 235 204 154 204C75 204 23 167 23 84C23 5 67 -33 150 -33C171 -33 189 -29 204 -21ZM154 -4C93 -4 63 25 63 82C63 141 93 170 154 170C214 170 244 141 244 82C244 25 214 -4 154 -4Z"/>
<glyph unicode="&#x208a;" horiz-adv-x="312" d="M140 -97L171 -97L171 4L281 4L281 32L171 32L171 133L140 133L140 32L31 32L31 4L140 4Z"/>
<glyph unicode="&#x208b;" horiz-adv-x="312" d="M31 4L281 4L281 32L31 32Z"/>
<glyph unicode="&#x208c;" horiz-adv-x="312" d="M31 69L281 69L281 97L31 97ZM31 -61L281 -61L281 -33L31 -33Z"/>
<glyph unicode="&#x208d;" horiz-adv-x="149" d="M26 18C26 -198 58 -220 124 -220L135 -220L135 -186L125 -186C81 -186 63 -165 63 18C63 202 81 223 125 223L135 223L135 256L124 256C59 256 26 234 26 18Z"/>
<glyph unicode="&#x208e;" horiz-adv-x="149" d="M123 18C123 234 90 256 25 256L14 256L14 223L24 223C68 223 86 202 86 18C86 -165 68 -186 24 -186L14 -186L14 -220L25 -220C91 -220 123 -198 123 18Z"/>
<glyph unicode="&#x2090;" horiz-adv-x="315" d="M32 -74C32 -135 67 -168 134 -168C181 -168 215 -142 230 -111L230 -160L267 -160L267 84C267 155 237 204 157 204C72 204 43 154 40 82L76 82C77 141 97 169 154 169C211 169 229 136 229 80L229 49L173 38C88 22 32 -6 32 -74ZM70 -73C70 -32 95 -9 174 7L229 18L229 -52C229 -98 190 -136 138 -136C93 -136 70 -115 70 -73Z"/>
<glyph unicode="&#x2091;" horiz-adv-x="326" d="M169 -168C251 -168 283 -128 291 -53L259 -53C252 -111 229 -137 169 -137C105 -137 75 -106 75 21L75 24L292 24L292 32C292 158 255 204 167 204C78 204 37 152 37 21C37 -120 77 -168 169 -168ZM166 170C226 170 252 141 256 54L76 54C81 145 111 170 166 170Z"/>
<glyph unicode="&#x2092;" horiz-adv-x="333" d="M166 -168C267 -168 296 -101 296 19C296 139 267 204 166 204C66 204 37 139 37 19C37 -101 65 -168 166 -168ZM166 -136C98 -136 75 -92 75 19C75 128 98 168 166 168C234 168 257 128 257 19C257 -92 234 -136 166 -136Z"/>
<glyph unicode="&#x2093;" horiz-adv-x="295" d="M15 -160L54 -160L146 -14L238 -160L280 -160L168 19L278 194L240 194L148 48L57 194L15 194L127 17Z"/>
<glyph unicode="&#x2095;" horiz-adv-x="340" d="M51 -160L90 -160L90 76C90 140 118 168 174 168C234 168 252 137 252 76L252 -160L292 -160L292 83C292 154 260 204 180 204C134 204 104 186 90 151L90 346L51 346Z"/>
<glyph unicode="&#x2096;" horiz-adv-x="310" d="M51 -160L89 -160L89 -51L146 17L257 -160L299 -160L171 47L296 196L251 196L89 0L89 346L51 346Z"/>
<glyph unicode="&#x2097;" horiz-adv-x="141" d="M51 -160L90 -160L90 346L51 346Z"/>
<glyph unicode="&#x2098;" horiz-adv-x="541" d="M51 -160L90 -160L90 76C90 140 118 168 174 168C234 168 252 137 252 76L252 -160L292 -160L292 76C292 140 320 168 376 168C435 168 454 137 454 76L454 -160L493 -160L493 83C493 154 462 204 382 204C333 204 298 181 282 142C267 181 236 204 180 204C133 204 103 186 89 150L89 196L51 196Z"/>
<glyph unicode="&#x2099;" horiz-adv-x="340" d="M51 -160L90 -160L90 76C90 137 118 168 174 168C231 168 252 137 252 76L252 -160L292 -160L292 83C292 154 260 204 180 204C136 204 104 185 89 148L89 196L51 196Z"/>
<glyph unicode="&#x209a;" horiz-adv-x="346" d="M90 -110C105 -149 136 -168 181 -168C278 -168 310 -102 310 19C310 139 283 204 184 204C135 204 105 181 89 141L89 196L51 196L51 -308L90 -308ZM181 -136C113 -136 90 -92 90 19C90 128 113 168 181 168C249 168 271 128 271 19C271 -92 249 -136 181 -136Z"/>
<glyph unicode="&#x209b;" horiz-adv-x="295" d="M33 -60C36 -128 67 -168 146 -168C222 -168 261 -134 261 -71C261 -19 234 10 174 27L135 38C88 51 75 70 75 105C75 144 92 169 149 169C204 169 222 152 225 97L260 97C257 170 226 204 149 204C78 204 37 169 37 105C37 49 66 21 117 7L156 -4C209 -19 223 -34 223 -71C223 -115 202 -136 147 -136C95 -136 73 -116 68 -60Z"/>
<glyph unicode="&#x209c;" horiz-adv-x="225" d="M65 -59C65 -122 92 -160 163 -160L213 -160L213 -128L166 -128C118 -128 104 -103 104 -59L104 162L213 162L213 196L104 196L104 283L66 283L66 196L16 196L16 162L65 162Z"/>
<glyph unicode="&#x20a1;" horiz-adv-x="499" d="M337 -12C386 -12 438 -2 479 17L479 56C443 36 387 24 337 24C320 24 303 25 288 26L436 669C452 664 467 659 479 652L479 695C468 700 457 704 445 708L470 816L434 816L411 716C386 721 361 724 337 724L332 724L354 816L318 816L296 722C128 710 52 614 52 359C52 194 80 97 140 44L106 -104L142 -104L171 22C192 9 217 1 245 -4L222 -104L258 -104L280 -9C298 -11 317 -12 337 -12ZM96 359C96 579 156 665 287 681L152 95C114 146 96 229 96 359ZM181 65L323 684L337 684C358 684 380 682 402 678L253 32C225 39 201 49 181 65Z"/>
<glyph unicode="&#x20a2;" horiz-adv-x="515" d="M337 -12C386 -12 438 -2 479 17L479 56C443 36 387 24 337 24L318 24L318 288C318 352 350 384 414 384L471 384L471 424L414 424C324 424 276 372 276 288L276 28C151 46 96 130 96 359C96 606 171 684 337 684C387 684 443 672 479 652L479 695C438 714 385 724 337 724C141 724 52 634 52 359C52 68 139 -12 337 -12Z"/>
<glyph unicode="&#x20a5;" horiz-adv-x="754" d="M357 100L401 100L401 442C401 529 446 572 525 572C609 572 641 524 641 440L641 100L685 100L685 444C685 540 645 612 529 612C498 612 470 605 447 592L499 712L467 712L388 526C368 578 324 612 245 612C181 612 137 585 117 535L117 604L73 604L73 100L117 100L117 442C117 530 163 572 241 572C320 572 353 529 357 454L163 0L195 0L357 379Z"/>
<glyph unicode="&#x20a6;" horiz-adv-x="654" d="M20 399L105 399L105 313L20 313L20 275L105 275L105 0L149 0L149 275L350 275L509 0L549 0L549 275L634 275L634 313L549 313L549 399L634 399L634 437L549 437L549 712L505 712L505 437L304 437L145 712L105 712L105 437L20 437ZM326 399L505 399L505 313L376 313ZM149 399L278 399L328 313L149 313ZM398 275L505 275L505 90ZM256 437L149 437L149 622Z"/>
<glyph unicode="&#x20a9;" horiz-adv-x="772" d="M20 399L104 399L124 313L20 313L20 275L132 275L196 0L239 0L302 275L466 275L530 0L572 0L637 275L752 275L752 313L646 313L666 399L752 399L752 437L675 437L740 712L699 712L635 437L466 437L403 712L367 712L303 437L137 437L75 712L32 712L95 437L20 437ZM475 399L627 399L607 313L495 313ZM145 399L295 399L275 313L165 313ZM331 399L438 399L458 313L311 313ZM504 275L598 275L551 72ZM173 275L266 275L219 72ZM384 629L429 437L340 437Z"/>
</font>
</defs>
</svg>
