<?xml version="1.0" encoding="UTF-8" standalone="no"?>
<svg xmlns="http://www.w3.org/2000/svg">
<metadata>
This is a SVG font generated by Alphabet Type GmbH.
</metadata>
<defs>
<font id="PorscheNextWLaRegular" horiz-adv-x="484" >
<font-face units-per-em="1000" ascent="1152" descent="-440" />
<missing-glyph horiz-adv-x="484" />
<glyph unicode="&#x20;" horiz-adv-x="214" />
<glyph unicode="&#x21;" horiz-adv-x="226" d="M91 214L135 214L153 712L73 712ZM71 0L155 0L155 102L71 102Z"/>
<glyph unicode="&#x22;" horiz-adv-x="327" d="M220 487L253 487L278 626L278 712L196 712L196 626ZM73 487L106 487L130 626L130 712L49 712L49 626Z"/>
<glyph unicode="&#x23;" horiz-adv-x="676" d="M105 474L198 474L135 238L27 238L27 171L117 171L71 0L141 0L187 171L389 171L343 0L413 0L459 171L571 171L571 238L477 238L540 474L649 474L649 541L558 541L605 712L535 712L488 541L286 541L333 712L263 712L216 541L105 541ZM268 474L470 474L407 238L205 238Z"/>
<glyph unicode="&#x24;" horiz-adv-x="560" d="M46 216C53 72 113 0 246 -11L246 -104L326 -104L326 -10C449 3 514 73 514 180C514 305 448 353 331 385L275 400C199 421 145 444 145 530C145 610 196 648 284 648C381 648 425 608 433 488L512 488C504 624 460 709 326 722L326 816L246 816L246 722C123 710 63 638 63 530C63 398 141 356 247 327L303 312C384 290 431 265 431 180C431 92 380 54 283 54C178 54 132 100 125 216Z"/>
<glyph unicode="&#x25;" horiz-adv-x="721" d="M173 348C276 348 313 400 313 536C313 662 282 720 173 720C65 720 34 661 34 536C34 398 69 348 173 348ZM173 400C118 400 104 424 104 536C104 636 121 661 173 661C225 661 243 636 243 536C243 424 229 400 173 400ZM103 0L163 0L619 712L559 712ZM547 -8C650 -8 687 44 687 180C687 306 656 364 547 364C439 364 408 305 408 180C408 42 443 -8 547 -8ZM547 44C492 44 478 68 478 180C478 280 495 305 547 305C599 305 617 280 617 180C617 68 603 44 547 44Z"/>
<glyph unicode="&#x26;" horiz-adv-x="612" d="M41 184C41 59 101 -12 265 -12C353 -12 418 16 457 61L511 0L610 0L494 132C503 161 508 197 508 244L508 366L435 366L435 201L250 413C205 464 164 509 164 561C164 621 191 648 268 648C360 648 383 613 388 488L466 488C461 654 425 724 270 724C131 724 82 657 82 557C82 489 115 446 168 388C88 327 41 275 41 184ZM265 54C160 54 123 97 123 184C123 254 143 279 212 338L412 112C385 71 338 54 265 54Z"/>
<glyph unicode="&#x27;" horiz-adv-x="179" d="M73 487L106 487L130 626L130 712L49 712L49 626Z"/>
<glyph unicode="&#x28;" horiz-adv-x="313" d="M139 312C139 664 171 706 257 706L277 706L277 772L256 772C128 772 64 730 64 312C64 -106 126 -148 256 -148L277 -148L277 -82L257 -82C171 -82 139 -40 139 312Z"/>
<glyph unicode="&#x29;" horiz-adv-x="313" d="M174 312C174 -40 142 -82 56 -82L36 -82L36 -148L57 -148C187 -148 249 -106 249 312C249 730 185 772 57 772L36 772L36 706L56 706C142 706 174 664 174 312Z"/>
<glyph unicode="&#x2a;" horiz-adv-x="410" d="M33 569L99 547L168 530L123 476L82 421L126 388L167 444L204 505L241 444L281 388L326 420L286 476L239 530L309 547L375 568L358 621L292 600L226 572L232 643L232 712L177 712L177 643L182 572L117 599L51 620Z"/>
<glyph unicode="&#x2b;" horiz-adv-x="560" d="M56 257L247 257L247 60L313 60L313 257L504 257L504 323L313 323L313 520L247 520L247 323L56 323Z"/>
<glyph unicode="&#x2c;" horiz-adv-x="206" d="M61 102L61 -128L101 -128L145 27L145 102Z"/>
<glyph unicode="&#x2d;" horiz-adv-x="414" d="M61 258L353 258L353 325L61 325Z"/>
<glyph unicode="&#x2e;" horiz-adv-x="206" d="M61 0L145 0L145 102L61 102Z"/>
<glyph unicode="&#x2f;" horiz-adv-x="452" d="M36 0L104 0L416 712L348 712Z"/>
<glyph unicode="&#x30;" horiz-adv-x="560" d="M280 -12C453 -12 516 80 516 364C516 623 461 724 280 724C99 724 44 619 44 364C44 75 107 -12 280 -12ZM280 54C156 54 129 122 129 364C129 584 161 648 280 648C397 648 431 584 431 364C431 122 404 54 280 54Z"/>
<glyph unicode="&#x31;" horiz-adv-x="560" d="M307 0L390 0L390 712L321 712L110 628L110 552L307 626Z"/>
<glyph unicode="&#x32;" horiz-adv-x="560" d="M74 0L492 0L492 66L154 66L154 79C154 146 187 181 277 242L354 293C424 339 499 396 499 520C499 649 429 724 278 724C119 724 61 636 56 488L134 488C142 609 186 648 278 648C366 648 416 611 416 520C416 423 352 380 289 338L212 287C133 234 74 176 74 66Z"/>
<glyph unicode="&#x33;" horiz-adv-x="560" d="M48 216C55 61 123 -12 282 -12C431 -12 510 65 510 190C510 293 468 345 400 368C463 397 494 458 494 522C494 649 423 724 272 724C116 724 56 633 48 488L127 488C135 608 183 648 272 648C360 648 412 610 412 522C412 443 368 398 277 398L210 398L210 325L282 325C387 325 428 278 428 190C428 94 379 54 282 54C177 54 134 100 126 216Z"/>
<glyph unicode="&#x34;" horiz-adv-x="560" d="M26 164L349 164L349 0L429 0L429 164L530 164L530 234L429 234L429 712L313 712L26 226ZM113 234L349 638L349 234Z"/>
<glyph unicode="&#x35;" horiz-adv-x="560" d="M64 288L138 288C155 349 193 383 280 383C391 383 430 330 430 221C430 109 393 54 280 54C177 54 136 100 131 192L52 192C58 56 134 -12 280 -12C428 -12 512 57 512 224C512 379 439 452 288 452C224 452 174 432 143 397L164 636L480 636L480 712L98 712L64 320Z"/>
<glyph unicode="&#x36;" horiz-adv-x="560" d="M48 224C48 57 130 -12 281 -12C429 -12 513 57 513 224C513 379 438 452 289 452C256 452 227 446 200 433L384 712L295 712L115 436C72 370 48 312 48 224ZM131 220C131 331 170 383 281 383C392 383 430 331 430 220C430 109 393 54 281 54C168 54 131 109 131 220Z"/>
<glyph unicode="&#x37;" horiz-adv-x="560" d="M54 636L418 636L131 0L216 0L506 652L506 712L54 712Z"/>
<glyph unicode="&#x38;" horiz-adv-x="560" d="M48 190C48 50 128 -12 280 -12C432 -12 512 50 512 190C512 274 478 333 403 361C458 388 496 436 496 524C496 648 429 724 280 724C133 724 64 648 64 524C64 436 103 388 156 361C81 333 48 274 48 190ZM130 191C130 280 177 322 280 322C383 322 430 280 430 191C430 95 383 54 280 54C177 54 130 95 130 191ZM280 391C183 391 146 440 146 521C146 610 191 648 280 648C369 648 414 610 414 521C414 440 377 391 280 391Z"/>
<glyph unicode="&#x39;" horiz-adv-x="560" d="M272 257C301 257 329 262 354 273L177 0L266 0L443 279C485 345 509 403 509 493C509 658 426 724 280 724C133 724 50 657 50 492C50 337 124 257 272 257ZM280 326C173 326 133 381 133 492C133 592 170 648 280 648C389 648 427 592 427 492C427 381 387 326 280 326Z"/>
<glyph unicode="&#x3a;" horiz-adv-x="206" d="M61 370L145 370L145 472L61 472ZM61 0L145 0L145 102L61 102Z"/>
<glyph unicode="&#x3b;" horiz-adv-x="206" d="M61 370L145 370L145 472L61 472ZM61 102L61 -128L101 -128L145 27L145 102Z"/>
<glyph unicode="&#x3c;" horiz-adv-x="560" d="M56 257L504 76L504 142L139 290L504 438L504 504L56 323Z"/>
<glyph unicode="&#x3d;" horiz-adv-x="560" d="M56 361L504 361L504 427L56 427ZM56 153L504 153L504 219L56 219Z"/>
<glyph unicode="&#x3e;" horiz-adv-x="560" d="M56 438L421 290L56 142L56 76L504 257L504 323L56 504Z"/>
<glyph unicode="&#x3f;" horiz-adv-x="387" d="M125 214L194 214L194 251C194 363 358 377 358 541C358 642 295 712 150 712L26 712L26 636L147 636C238 636 278 604 278 527C278 416 125 387 125 259ZM119 0L203 0L203 102L119 102Z"/>
<glyph unicode="&#x40;" horiz-adv-x="848" d="M233 285C233 118 285 49 406 49C471 49 513 77 532 133C548 72 588 49 651 49C735 49 798 105 798 325C798 634 682 724 425 724C169 724 47 632 47 292C47 -11 140 -143 464 -143L517 -143L517 -76L464 -76C213 -76 124 1 124 292C124 591 213 651 425 651C637 651 724 592 724 325C724 137 700 110 651 110C616 110 599 135 599 194L599 513L526 513L526 458C503 502 466 521 413 521C292 521 233 450 233 285ZM310 285C310 417 339 454 416 454C488 454 522 424 522 285C522 151 493 110 416 110C339 110 310 151 310 285Z"/>
<glyph unicode="&#x41;" horiz-adv-x="564" d="M14 0L90 0L142 172L413 172L465 0L550 0L327 712L237 712ZM277 615L391 242L164 242Z"/>
<glyph unicode="&#x42;" horiz-adv-x="577" d="M81 0L337 0C467 0 532 66 532 199C532 283 501 346 432 375C476 396 509 444 509 524C509 645 449 712 318 712L81 712ZM333 330C406 330 449 296 449 199C449 102 407 66 331 66L164 66L164 330ZM315 636C399 636 427 601 427 521C427 441 403 401 318 401L164 401L164 636Z"/>
<glyph unicode="&#x43;" horiz-adv-x="591" d="M312 -12C472 -12 541 64 549 259L471 259C460 110 430 54 312 54C172 54 135 116 135 361C135 584 172 648 312 648C429 648 461 599 469 451L548 451C540 636 494 724 312 724C113 724 50 625 50 361C50 86 112 -12 312 -12Z"/>
<glyph unicode="&#x44;" horiz-adv-x="615" d="M81 0L303 0C503 0 565 99 565 361C565 617 502 712 303 712L81 712ZM303 636C443 636 480 572 480 361C480 129 443 66 303 66L164 66L164 636Z"/>
<glyph unicode="&#x45;" horiz-adv-x="510" d="M81 0L462 0L462 66L164 66L164 331L438 331L438 401L164 401L164 636L462 636L462 712L81 712Z"/>
<glyph unicode="&#x46;" horiz-adv-x="484" d="M81 0L164 0L164 331L427 331L427 401L164 401L164 636L451 636L451 712L81 712Z"/>
<glyph unicode="&#x47;" horiz-adv-x="599" d="M312 296L473 296L473 268C473 115 432 54 312 54C172 54 135 116 135 361C135 584 172 648 312 648C419 648 458 602 469 488L547 488C534 644 481 724 312 724C113 724 50 625 50 361C50 86 112 -12 312 -12C477 -12 552 77 552 268L552 366L312 366Z"/>
<glyph unicode="&#x48;" horiz-adv-x="637" d="M81 0L164 0L164 330L473 330L473 0L556 0L556 712L473 712L473 401L164 401L164 712L81 712Z"/>
<glyph unicode="&#x49;" horiz-adv-x="245" d="M81 0L164 0L164 712L81 712Z"/>
<glyph unicode="&#x4a;" horiz-adv-x="385" d="M18 66L18 0L98 0C246 0 309 61 309 192L309 712L226 712L226 190C226 103 189 66 98 66Z"/>
<glyph unicode="&#x4b;" horiz-adv-x="567" d="M81 0L164 0L164 213L262 338L466 0L558 0L316 401L560 712L467 712L164 325L164 712L81 712Z"/>
<glyph unicode="&#x4c;" horiz-adv-x="479" d="M81 0L462 0L462 66L164 66L164 712L81 712Z"/>
<glyph unicode="&#x4d;" horiz-adv-x="778" d="M148 0L168 536L363 0L417 0L610 529L631 0L711 0L681 712L598 712L393 136L184 712L96 712L68 0Z"/>
<glyph unicode="&#x4e;" horiz-adv-x="637" d="M81 0L164 0L164 542L483 0L556 0L556 712L473 712L473 170L154 712L81 712Z"/>
<glyph unicode="&#x4f;" horiz-adv-x="623" d="M312 -12C512 -12 573 86 573 361C573 625 509 724 312 724C113 724 50 625 50 361C50 86 112 -12 312 -12ZM312 54C172 54 135 116 135 361C135 584 172 648 312 648C452 648 488 584 488 361C488 116 452 54 312 54Z"/>
<glyph unicode="&#x50;" horiz-adv-x="542" d="M81 0L164 0L164 283L303 283C433 283 508 331 508 494C508 654 448 712 305 712L81 712ZM305 636C392 636 425 606 425 494C425 379 392 352 303 352L164 352L164 636Z"/>
<glyph unicode="&#x51;" horiz-adv-x="623" d="M312 -12C395 -12 451 11 494 50L540 0L631 0L533 108C564 169 573 248 573 361C573 626 509 724 312 724C113 724 50 625 50 361C50 86 112 -12 312 -12ZM323 239L445 104C418 67 376 54 312 54C172 54 135 116 135 361C135 584 172 648 312 648C451 648 488 584 488 361C488 280 484 221 473 174L323 341Z"/>
<glyph unicode="&#x52;" horiz-adv-x="558" d="M81 0L164 0L164 283L279 283L435 0L528 0L363 294C456 307 508 359 508 494C508 654 448 712 305 712L81 712ZM305 636C392 636 425 606 425 494C425 379 392 352 303 352L164 352L164 636Z"/>
<glyph unicode="&#x53;" horiz-adv-x="544" d="M41 216C48 61 112 -12 271 -12C426 -12 500 63 500 180C500 304 434 354 317 385L261 400C185 420 133 444 133 530C133 610 182 648 270 648C367 648 408 608 416 488L495 488C487 637 438 724 270 724C122 724 51 649 51 530C51 397 127 355 232 327L288 312C368 291 417 263 417 180C417 92 368 54 271 54C167 54 127 100 119 216Z"/>
<glyph unicode="&#x54;" horiz-adv-x="525" d="M19 636L222 636L222 0L304 0L304 636L506 636L506 712L19 712Z"/>
<glyph unicode="&#x55;" horiz-adv-x="625" d="M76 235C76 68 141 -12 313 -12C484 -12 549 68 549 235L549 712L466 712L466 235C466 102 422 54 313 54C202 54 159 102 159 235L159 712L76 712Z"/>
<glyph unicode="&#x56;" horiz-adv-x="564" d="M237 0L327 0L550 712L474 712L286 96L99 712L14 712Z"/>
<glyph unicode="&#x57;" horiz-adv-x="888" d="M200 0L291 0L448 554L600 0L688 0L872 712L796 712L646 108L481 712L418 712L251 110L102 712L16 712Z"/>
<glyph unicode="&#x58;" horiz-adv-x="519" d="M9 0L90 0L254 299L419 0L510 0L309 363L502 712L421 712L264 428L108 712L17 712L210 363Z"/>
<glyph unicode="&#x59;" horiz-adv-x="544" d="M230 0L313 0L313 296L532 712L450 712L277 378L105 712L12 712L230 296Z"/>
<glyph unicode="&#x5a;" horiz-adv-x="489" d="M30 636L363 636L38 50L38 0L453 0L453 66L130 66L461 662L461 712L30 712Z"/>
<glyph unicode="&#x5b;" horiz-adv-x="309" d="M80 -148L273 -148L273 -82L152 -82L152 706L273 706L273 772L80 772Z"/>
<glyph unicode="&#x5c;" horiz-adv-x="452" d="M104 712L36 712L348 0L416 0Z"/>
<glyph unicode="&#x5d;" horiz-adv-x="309" d="M229 772L36 772L36 706L157 706L157 -82L36 -82L36 -148L229 -148Z"/>
<glyph unicode="&#x5e;" horiz-adv-x="560" d="M123 469L189 469L279 642L369 469L436 469L309 712L249 712Z"/>
<glyph unicode="&#x5f;" horiz-adv-x="578" d="M36 -12L36 -84L542 -84L542 -12Z"/>
<glyph unicode="&#x60;" horiz-adv-x="468" d="M211 568L276 568L196 724L108 724Z"/>
<glyph unicode="&#x61;" horiz-adv-x="454" d="M38 125C38 42 91 -8 186 -8C253 -8 294 23 313 62L313 0L390 0L390 344C390 443 348 512 227 512C96 512 53 453 50 345L123 345C124 418 149 442 220 442C293 442 310 406 310 334L310 302L235 290C111 269 38 231 38 125ZM310 166C310 98 270 57 203 57C146 57 118 83 118 134C118 184 144 216 241 229L310 239Z"/>
<glyph unicode="&#x62;" horiz-adv-x="509" d="M68 0L145 0L145 63C168 14 209 -8 269 -8C405 -8 464 71 464 252C464 433 413 512 273 512C214 512 172 488 148 440L148 712L68 712ZM266 58C181 58 148 106 148 252C148 400 184 439 266 439C353 439 385 395 385 252C385 106 353 58 266 58Z"/>
<glyph unicode="&#x63;" horiz-adv-x="461" d="M241 -8C353 -8 414 47 423 191L347 191C340 91 309 58 238 58C156 58 124 100 124 253C124 396 155 439 238 439C309 439 336 411 347 317L423 317C413 445 364 512 241 512C101 512 44 434 44 253C44 65 99 -8 241 -8Z"/>
<glyph unicode="&#x64;" horiz-adv-x="508" d="M229 -8C294 -8 338 19 363 72L363 0L440 0L440 712L360 712L360 448C337 491 296 512 239 512C106 512 44 433 44 252C44 71 95 -8 229 -8ZM243 58C156 58 124 106 124 252C124 395 156 439 243 439C325 439 360 400 360 252C360 106 328 58 243 58Z"/>
<glyph unicode="&#x65;" horiz-adv-x="468" d="M243 -8C362 -8 412 49 422 149L350 149C341 82 312 58 243 58C160 58 125 91 124 245L425 245L425 264C425 429 379 512 242 512C105 512 44 435 44 253C44 66 102 -8 243 -8ZM239 439C312 439 342 410 348 307L126 307C134 410 170 439 239 439Z"/>
<glyph unicode="&#x66;" horiz-adv-x="312" d="M23 434L87 434L87 0L167 0L167 434L295 434L295 504L167 504L167 556C167 613 190 639 247 639L307 639L307 712L244 712C139 712 87 655 87 554L87 504L23 504Z"/>
<glyph unicode="&#x67;" horiz-adv-x="508" d="M64 -50C72 -152 111 -216 251 -216C380 -216 440 -158 440 -39L440 504L363 504L363 442C339 491 299 512 239 512C106 512 44 433 44 252C44 71 95 -8 229 -8C291 -8 335 17 360 66L360 -39C360 -124 324 -150 248 -150C168 -150 144 -122 140 -50ZM242 58C157 58 124 106 124 252C124 395 157 439 242 439C327 439 360 395 360 252C360 100 322 58 242 58Z"/>
<glyph unicode="&#x68;" horiz-adv-x="496" d="M68 0L148 0L148 318C148 412 184 439 253 439C324 439 352 406 352 317L352 0L432 0L432 338C432 446 381 512 273 512C213 512 169 490 148 446L148 712L68 712Z"/>
<glyph unicode="&#x69;" horiz-adv-x="216" d="M68 618L148 618L148 712L68 712ZM68 0L148 0L148 504L68 504Z"/>
<glyph unicode="&#x6a;" horiz-adv-x="216" d="M68 618L148 618L148 712L68 712ZM68 -77C68 -125 49 -142 5 -142L-22 -142L-22 -208L20 -208C111 -208 148 -160 148 -72L148 504L68 504Z"/>
<glyph unicode="&#x6b;" horiz-adv-x="454" d="M68 0L148 0L148 155L215 233L355 0L444 0L267 292L444 504L354 504L148 254L148 712L68 712Z"/>
<glyph unicode="&#x6c;" horiz-adv-x="216" d="M68 0L148 0L148 712L68 712Z"/>
<glyph unicode="&#x6d;" horiz-adv-x="780" d="M68 0L148 0L148 317C148 412 184 439 253 439C324 439 352 406 352 317L352 0L432 0L432 317C432 412 468 439 537 439C608 439 636 406 636 317L636 0L716 0L716 338C716 446 665 512 557 512C489 512 438 485 415 429C392 482 345 512 273 512C208 512 165 488 145 439L145 504L68 504Z"/>
<glyph unicode="&#x6e;" horiz-adv-x="496" d="M68 0L148 0L148 317C148 412 184 439 253 439C324 439 352 406 352 317L352 0L432 0L432 338C432 446 381 512 273 512C209 512 165 488 145 439L145 504L68 504Z"/>
<glyph unicode="&#x6f;" horiz-adv-x="484" d="M242 -8C383 -8 440 71 440 252C440 433 386 512 242 512C99 512 44 433 44 252C44 71 98 -8 242 -8ZM242 58C157 58 124 106 124 252C124 395 157 439 242 439C327 439 360 395 360 252C360 106 327 58 242 58Z"/>
<glyph unicode="&#x70;" horiz-adv-x="509" d="M68 -208L148 -208L148 57C171 14 212 -8 269 -8C405 -8 464 71 464 252C464 433 413 512 273 512C212 512 169 486 145 433L145 504L68 504ZM266 58C181 58 148 106 148 252C148 400 184 439 266 439C353 439 385 395 385 252C385 106 353 58 266 58Z"/>
<glyph unicode="&#x71;" horiz-adv-x="508" d="M360 -208L440 -208L440 504L363 504L363 442C339 491 299 512 239 512C106 512 44 433 44 252C44 71 95 -8 229 -8C291 -8 335 17 360 66ZM243 58C156 58 124 106 124 252C124 395 156 439 243 439C325 439 360 400 360 252C360 106 328 58 243 58Z"/>
<glyph unicode="&#x72;" horiz-adv-x="310" d="M64 0L144 0L144 360C144 409 169 434 218 434L294 434L294 504L215 504C115 504 64 450 64 354Z"/>
<glyph unicode="&#x73;" horiz-adv-x="429" d="M40 143C48 55 84 -8 212 -8C339 -8 388 47 388 130C388 210 352 254 257 277L204 290C140 306 122 327 122 370C122 418 143 442 214 442C277 442 305 425 309 354L382 354C381 471 322 512 214 512C106 512 45 466 45 370C45 283 91 244 164 226L218 213C293 195 310 182 310 130C310 79 287 56 215 56C150 56 120 76 113 143Z"/>
<glyph unicode="&#x74;" horiz-adv-x="334" d="M22 434L86 434L86 155C86 52 136 0 237 0L314 0L314 66L251 66C188 66 166 90 166 158L166 434L314 434L314 504L166 504L166 624L89 624L89 504L22 504Z"/>
<glyph unicode="&#x75;" horiz-adv-x="496" d="M64 166C64 58 115 -8 223 -8C287 -8 331 15 351 64L351 0L428 0L428 504L348 504L348 186C348 94 315 58 243 58C171 58 144 97 144 186L144 504L64 504Z"/>
<glyph unicode="&#x76;" horiz-adv-x="440" d="M183 0L257 0L427 504L353 504L225 110L97 504L13 504Z"/>
<glyph unicode="&#x77;" horiz-adv-x="694" d="M165 0L238 0L347 360L456 0L529 0L681 504L606 504L497 119L382 504L323 504L207 119L98 504L13 504Z"/>
<glyph unicode="&#x78;" horiz-adv-x="436" d="M18 0L98 0L214 191L330 0L419 0L263 255L418 504L337 504L221 314L107 504L18 504L172 250Z"/>
<glyph unicode="&#x79;" horiz-adv-x="440" d="M39 -142L39 -208L79 -208C175 -208 205 -159 236 -67L429 504L355 504L227 110L99 504L15 504L187 -5L169 -62C149 -122 121 -142 78 -142Z"/>
<glyph unicode="&#x7a;" horiz-adv-x="401" d="M34 434L269 434L38 46L38 0L363 0L363 66L134 66L368 458L368 504L34 504Z"/>
<glyph unicode="&#x7b;" horiz-adv-x="369" d="M128 422C128 359 104 342 60 342L28 342L28 282L60 282C104 282 128 265 128 202L128 -1C128 -109 188 -148 277 -148L333 -148L333 -82L277 -82C219 -82 199 -61 199 4L199 186C199 267 179 299 125 311L125 313C179 325 199 357 199 438L199 620C199 685 219 706 277 706L333 706L333 772L277 772C188 772 128 733 128 625Z"/>
<glyph unicode="&#x7c;" horiz-adv-x="306" d="M119 -208L186 -208L186 784L119 784Z"/>
<glyph unicode="&#x7d;" horiz-adv-x="369" d="M241 625C241 733 181 772 92 772L36 772L36 706L92 706C150 706 170 685 170 620L170 438C170 357 190 325 244 313L244 311C190 299 170 267 170 186L170 4C170 -61 150 -82 92 -82L36 -82L36 -148L92 -148C181 -148 241 -109 241 -1L241 202C241 265 265 282 309 282L341 282L341 342L309 342C265 342 241 359 241 422Z"/>
<glyph unicode="&#x7e;" horiz-adv-x="560" d="M56 257C74 276 108 313 172 313C263 313 296 233 388 233C452 233 486 270 504 289L504 355C486 336 452 299 388 299C306 299 271 379 172 379C108 379 74 342 56 323Z"/>
<glyph unicode="&#xa0;" horiz-adv-x="214" />
<glyph unicode="&#xa1;" horiz-adv-x="226" d="M71 610L155 610L155 712L71 712ZM73 0L153 0L135 498L91 498Z"/>
<glyph unicode="&#xa2;" horiz-adv-x="560" d="M246 0L326 0L326 98C423 109 478 167 486 295L410 295C403 195 365 162 284 162C192 162 152 204 152 357C152 500 191 543 284 543C364 543 399 514 410 421L487 421C479 536 431 601 326 614L326 712L246 712L246 613C125 598 72 521 72 357C72 186 123 111 246 98Z"/>
<glyph unicode="&#xa3;" horiz-adv-x="560" d="M37 299L99 299L99 0L520 0L520 66L182 66L182 299L376 299L376 369L182 369L182 520C182 611 222 648 310 648C400 648 436 608 444 488L522 488C514 633 467 724 310 724C166 724 99 649 99 520L99 369L37 369Z"/>
<glyph unicode="&#xa4;" horiz-adv-x="560" d="M143 189L192 238C217 221 246 212 280 212C313 212 343 221 368 238L417 189L455 227L406 276C422 300 432 329 432 364C432 397 422 427 406 452L455 501L417 539L368 490C343 506 313 516 280 516C247 516 216 506 192 490L143 539L105 501L154 452C137 427 128 397 128 364C128 330 137 301 154 276L105 227ZM280 268C225 268 186 308 186 364C186 420 225 459 280 459C333 459 374 420 374 364C374 308 333 268 280 268Z"/>
<glyph unicode="&#xa5;" horiz-adv-x="560" d="M59 283L237 283L237 209L59 209L59 140L237 140L237 0L320 0L320 140L501 140L501 209L320 209L320 283L501 283L501 352L353 352L538 712L456 712L284 373L114 712L22 712L204 352L59 352Z"/>
<glyph unicode="&#xa6;" horiz-adv-x="306" d="M119 404L187 404L187 784L119 784ZM119 187L119 -208L187 -208L187 187Z"/>
<glyph unicode="&#xa7;" horiz-adv-x="551" d="M328 322C396 299 432 278 432 234C432 213 424 195 416 182L477 155C489 171 512 205 512 248C512 324 461 359 369 391L261 429C195 452 147 472 147 546C147 610 190 648 278 648C375 648 416 608 424 488L503 488C495 637 446 724 278 724C141 724 64 654 64 541C64 434 128 391 212 362ZM47 20C55 -129 108 -216 272 -216C409 -216 486 -145 486 -36C486 72 423 110 340 140L223 181C155 204 120 224 120 268C120 289 127 308 136 321L75 347C63 331 40 297 40 254C40 179 90 143 183 111L291 74C355 53 403 33 403 -41C403 -105 361 -147 272 -147C176 -147 135 -100 126 20Z"/>
<glyph unicode="&#xa8;" horiz-adv-x="468" d="M278 597L358 597L358 691L278 691ZM110 597L190 597L190 691L110 691Z"/>
<glyph unicode="&#xa9;" horiz-adv-x="700" d="M350 -12C583 -12 658 89 658 356C658 623 584 724 350 724C116 724 42 623 42 356C42 89 117 -12 350 -12ZM350 32C146 32 89 123 89 356C89 589 146 676 350 676C554 676 611 589 611 356C611 123 554 32 350 32ZM354 152C463 152 485 208 490 310L421 310C419 234 407 213 354 213C290 213 272 231 272 364C272 485 290 504 354 504C407 504 419 483 421 409L490 409C485 518 471 572 354 572C234 572 199 530 199 364C199 210 229 152 354 152Z"/>
<glyph unicode="&#xaa;" horiz-adv-x="384" d="M60 245L319 245L319 296L60 296ZM59 445C59 384 96 348 163 348C211 348 240 371 253 399L253 356L318 356L318 594C318 662 292 720 197 720C102 720 70 672 67 595L130 595C130 644 145 662 192 662C239 662 249 636 249 588L249 570L199 561C107 545 59 518 59 445ZM126 451C126 484 144 502 207 513L249 520L249 468C249 423 219 401 180 401C144 401 126 418 126 451Z"/>
<glyph unicode="&#xab;" horiz-adv-x="396" d="M282 64L349 64L265 256L349 448L282 448L187 256ZM132 64L198 64L114 256L198 448L132 448L37 256Z"/>
<glyph unicode="&#xac;" horiz-adv-x="560" d="M56 257L438 257L438 60L504 60L504 323L56 323Z"/>
<glyph unicode="&#xad;" horiz-adv-x="414" d="M61 258L353 258L353 325L61 325Z"/>
<glyph unicode="&#xae;" horiz-adv-x="430" d="M215 364C357 364 402 424 402 585C402 745 357 805 215 805C74 805 29 745 29 585C29 424 74 364 215 364ZM215 395C95 395 61 445 61 585C61 724 95 772 215 772C336 772 370 724 370 585C370 445 336 395 215 395ZM131 465L182 465L182 544L213 544L254 465L312 465L262 557C290 566 303 590 303 631C303 687 274 712 222 712L131 712ZM217 667C241 667 252 654 252 629C252 603 242 591 219 591L182 591L182 667Z"/>
<glyph unicode="&#xaf;" horiz-adv-x="468" d="M103 617L365 617L365 675L103 675Z"/>
<glyph unicode="&#xb0;" horiz-adv-x="340" d="M171 487C238 487 288 540 288 604C288 668 238 720 171 720C103 720 52 668 52 604C52 540 103 487 171 487ZM171 540C134 540 108 567 108 604C108 641 134 668 171 668C206 668 232 641 232 604C232 567 206 540 171 540Z"/>
<glyph unicode="&#xb1;" horiz-adv-x="560" d="M56 373L247 373L247 192L313 192L313 373L504 373L504 439L313 439L313 620L247 620L247 439L56 439ZM56 0L504 0L504 66L56 66Z"/>
<glyph unicode="&#xb2;" horiz-adv-x="318" d="M31 516L285 516L285 568L100 568C103 595 116 605 159 628L206 653C246 674 290 707 290 770C290 841 250 880 159 880C68 880 30 834 25 750L90 750C97 805 114 821 159 821C199 821 220 807 220 768C220 727 196 711 160 692L116 669C68 644 31 614 31 555Z"/>
<glyph unicode="&#xb3;" horiz-adv-x="318" d="M20 632C27 543 67 508 159 508C248 508 294 547 294 612C294 659 276 684 244 697C273 713 289 743 289 775C289 842 250 880 157 880C68 880 28 834 24 751L90 751C93 806 117 821 157 821C199 821 220 805 220 772C220 741 208 719 161 719L125 719L125 665L161 665C209 665 224 647 224 612C224 577 202 560 159 560C111 560 90 576 87 632Z"/>
<glyph unicode="&#xb4;" horiz-adv-x="468" d="M192 568L257 568L360 724L272 724Z"/>
<glyph unicode="&#xb5;" horiz-adv-x="516" d="M68 -208L143 -208L143 29C163 5 194 -8 241 -8C296 -8 340 15 363 66C378 23 409 0 472 0L502 0L502 66L487 66C443 66 432 83 432 131L432 504L352 504L352 186C352 91 317 58 248 58C176 58 148 94 148 185L148 504L68 504Z"/>
<glyph unicode="&#xb6;" horiz-adv-x="523" d="M275 228L275 0L358 0L358 712L247 712C102 712 35 649 35 480C35 290 90 228 251 228ZM400 0L442 0L442 712L400 712Z"/>
<glyph unicode="&#xb7;" horiz-adv-x="207" d="M61 240L146 240L146 342L61 342Z"/>
<glyph unicode="&#xb8;" horiz-adv-x="468" d="M195 -78L223 -78C267 -78 290 -87 290 -122C290 -161 267 -170 223 -170L166 -170L166 -216L236 -216C319 -216 356 -177 356 -125C356 -73 324 -41 248 -37L248 0L217 0Z"/>
<glyph unicode="&#xb9;" horiz-adv-x="318" d="M153 516L223 516L223 872L171 872L62 834L62 775L153 805Z"/>
<glyph unicode="&#xba;" horiz-adv-x="404" d="M68 245L338 245L338 296L68 296ZM202 348C309 348 346 403 346 535C346 664 309 720 202 720C95 720 58 666 58 535C58 404 95 348 202 348ZM202 403C146 403 126 434 126 535C126 634 146 659 202 659C258 659 278 634 278 535C278 434 258 403 202 403Z"/>
<glyph unicode="&#xbb;" horiz-adv-x="396" d="M198 64L264 64L359 256L264 448L198 448L282 256ZM47 64L114 64L208 256L114 448L47 448L131 256Z"/>
<glyph unicode="&#xbc;" horiz-adv-x="692" d="M130 356L200 356L200 712L148 712L39 674L39 615L130 645ZM78 0L138 0L594 712L534 712ZM363 77L534 77L534 0L601 0L601 77L651 77L651 131L601 131L601 356L514 356L363 121ZM429 131L534 294L534 131Z"/>
<glyph unicode="&#xbd;" horiz-adv-x="692" d="M132 356L202 356L202 712L150 712L41 674L41 615L132 645ZM60 0L120 0L576 712L516 712ZM386 0L640 0L640 52L455 52C458 79 471 89 514 112L561 137C601 158 645 191 645 254C645 325 605 364 514 364C423 364 385 318 380 234L445 234C452 289 469 305 514 305C554 305 575 291 575 252C575 211 551 195 515 176L471 153C423 128 386 98 386 39Z"/>
<glyph unicode="&#xbe;" horiz-adv-x="692" d="M21 472C28 383 68 348 160 348C249 348 295 387 295 452C295 499 277 524 245 537C274 553 290 583 290 615C290 682 251 720 158 720C69 720 29 674 25 591L91 591C94 646 118 661 158 661C200 661 221 645 221 612C221 581 209 559 162 559L126 559L126 505L162 505C210 505 225 487 225 452C225 417 203 400 160 400C112 400 91 416 88 472ZM110 0L170 0L626 712L566 712ZM387 77L558 77L558 0L625 0L625 77L675 77L675 131L625 131L625 356L538 356L387 121ZM453 131L558 294L558 131Z"/>
<glyph unicode="&#xbf;" horiz-adv-x="386" d="M184 610L267 610L267 712L184 712ZM29 171C29 70 90 0 237 0L360 0L360 66L240 66C149 66 108 108 108 185C108 296 261 325 261 453L261 498L192 498L192 461C192 349 29 335 29 171Z"/>
<glyph unicode="&#xc0;" horiz-adv-x="564" d="M14 0L90 0L142 172L413 172L465 0L550 0L327 712L237 712ZM277 615L391 242L164 242ZM259 776L324 776L244 932L156 932Z"/>
<glyph unicode="&#xc1;" horiz-adv-x="564" d="M14 0L90 0L142 172L413 172L465 0L550 0L327 712L237 712ZM277 615L391 242L164 242ZM240 776L305 776L408 932L320 932Z"/>
<glyph unicode="&#xc2;" horiz-adv-x="564" d="M14 0L90 0L142 172L413 172L465 0L550 0L327 712L237 712ZM277 615L391 242L164 242ZM142 776L212 776L282 886L352 776L422 776L317 932L246 932Z"/>
<glyph unicode="&#xc3;" horiz-adv-x="564" d="M14 0L90 0L142 172L413 172L465 0L550 0L327 712L237 712ZM277 615L391 242L164 242ZM155 792L210 792L210 830C210 847 216 855 227 855C256 855 290 792 340 792C379 792 403 811 403 862L403 913L347 913L347 874C347 857 341 849 330 849C299 849 269 913 218 913C178 913 155 894 155 843Z"/>
<glyph unicode="&#xc4;" horiz-adv-x="564" d="M14 0L90 0L142 172L413 172L465 0L550 0L327 712L237 712ZM277 615L391 242L164 242ZM326 805L406 805L406 899L326 899ZM158 805L238 805L238 899L158 899Z"/>
<glyph unicode="&#xc5;" horiz-adv-x="564" d="M14 0L90 0L142 172L413 172L465 0L550 0L327 712L237 712ZM277 615L391 242L164 242ZM282 769C346 769 375 806 375 863C375 922 346 957 282 957C218 957 189 922 189 863C189 806 218 769 282 769ZM282 807C239 807 231 831 231 863C231 895 239 919 282 919C325 919 333 895 333 863C333 831 325 807 282 807Z"/>
<glyph unicode="&#xc6;" horiz-adv-x="814" d="M7 0L87 0L150 172L387 172L387 0L765 0L765 72L470 72L470 327L744 327L744 396L470 396L470 633L765 633L765 712L273 712ZM320 633L387 633L387 242L176 242Z"/>
<glyph unicode="&#xc7;" horiz-adv-x="591" d="M273 -78L301 -78C345 -78 368 -87 368 -122C368 -161 345 -170 301 -170L244 -170L244 -216L314 -216C397 -216 434 -177 434 -125C434 -73 402 -41 326 -37L326 -12C476 -7 541 69 549 259L471 259C460 110 430 54 312 54C172 54 135 116 135 361C135 584 172 648 312 648C429 648 461 599 469 451L548 451C540 636 494 724 312 724C113 724 50 625 50 361C50 95 108 -5 291 -12Z"/>
<glyph unicode="&#xc8;" horiz-adv-x="510" d="M81 0L462 0L462 66L164 66L164 331L438 331L438 401L164 401L164 636L462 636L462 712L81 712ZM249 776L314 776L234 932L146 932Z"/>
<glyph unicode="&#xc9;" horiz-adv-x="510" d="M81 0L462 0L462 66L164 66L164 331L438 331L438 401L164 401L164 636L462 636L462 712L81 712ZM230 776L295 776L398 932L310 932Z"/>
<glyph unicode="&#xca;" horiz-adv-x="510" d="M81 0L462 0L462 66L164 66L164 331L438 331L438 401L164 401L164 636L462 636L462 712L81 712ZM132 776L202 776L272 886L342 776L412 776L307 932L236 932Z"/>
<glyph unicode="&#xcb;" horiz-adv-x="510" d="M81 0L462 0L462 66L164 66L164 331L438 331L438 401L164 401L164 636L462 636L462 712L81 712ZM316 805L396 805L396 899L316 899ZM148 805L228 805L228 899L148 899Z"/>
<glyph unicode="&#xcc;" horiz-adv-x="245" d="M81 0L164 0L164 712L81 712ZM100 776L165 776L85 932L-3 932Z"/>
<glyph unicode="&#xcd;" horiz-adv-x="245" d="M81 0L164 0L164 712L81 712ZM81 776L146 776L249 932L161 932Z"/>
<glyph unicode="&#xce;" horiz-adv-x="245" d="M81 0L164 0L164 712L81 712ZM-17 776L53 776L123 886L193 776L263 776L158 932L87 932Z"/>
<glyph unicode="&#xcf;" horiz-adv-x="245" d="M81 0L164 0L164 712L81 712ZM167 805L247 805L247 899L167 899ZM-1 805L79 805L79 899L-1 899Z"/>
<glyph unicode="&#xd0;" horiz-adv-x="635" d="M33 334L93 334L93 0L323 0C523 0 585 99 585 361C585 617 522 712 323 712L93 712L93 397L33 397ZM323 636C463 636 500 572 500 361C500 129 463 66 323 66L176 66L176 334L323 334L323 397L176 397L176 636Z"/>
<glyph unicode="&#xd1;" horiz-adv-x="637" d="M81 0L164 0L164 542L483 0L556 0L556 712L473 712L473 170L154 712L81 712ZM191 792L246 792L246 830C246 847 252 855 263 855C292 855 326 792 376 792C415 792 439 811 439 862L439 913L383 913L383 874C383 857 377 849 366 849C335 849 305 913 254 913C214 913 191 894 191 843Z"/>
<glyph unicode="&#xd2;" horiz-adv-x="623" d="M312 -12C512 -12 573 86 573 361C573 625 509 724 312 724C113 724 50 625 50 361C50 86 112 -12 312 -12ZM312 54C172 54 135 116 135 361C135 584 172 648 312 648C452 648 488 584 488 361C488 116 452 54 312 54ZM289 776L354 776L274 932L186 932Z"/>
<glyph unicode="&#xd3;" horiz-adv-x="623" d="M312 -12C512 -12 573 86 573 361C573 625 509 724 312 724C113 724 50 625 50 361C50 86 112 -12 312 -12ZM312 54C172 54 135 116 135 361C135 584 172 648 312 648C452 648 488 584 488 361C488 116 452 54 312 54ZM270 776L335 776L438 932L350 932Z"/>
<glyph unicode="&#xd4;" horiz-adv-x="623" d="M312 -12C512 -12 573 86 573 361C573 625 509 724 312 724C113 724 50 625 50 361C50 86 112 -12 312 -12ZM312 54C172 54 135 116 135 361C135 584 172 648 312 648C452 648 488 584 488 361C488 116 452 54 312 54ZM172 776L242 776L312 886L382 776L452 776L347 932L276 932Z"/>
<glyph unicode="&#xd5;" horiz-adv-x="623" d="M312 -12C512 -12 573 86 573 361C573 625 509 724 312 724C113 724 50 625 50 361C50 86 112 -12 312 -12ZM312 54C172 54 135 116 135 361C135 584 172 648 312 648C452 648 488 584 488 361C488 116 452 54 312 54ZM185 792L240 792L240 830C240 847 246 855 257 855C286 855 320 792 370 792C409 792 433 811 433 862L433 913L377 913L377 874C377 857 371 849 360 849C329 849 299 913 248 913C208 913 185 894 185 843Z"/>
<glyph unicode="&#xd6;" horiz-adv-x="623" d="M312 -12C512 -12 573 86 573 361C573 625 509 724 312 724C113 724 50 625 50 361C50 86 112 -12 312 -12ZM312 54C172 54 135 116 135 361C135 584 172 648 312 648C452 648 488 584 488 361C488 116 452 54 312 54ZM356 805L436 805L436 899L356 899ZM188 805L268 805L268 899L188 899Z"/>
<glyph unicode="&#xd7;" horiz-adv-x="560" d="M142 105L280 243L416 107L463 154L327 290L465 428L418 475L280 337L144 473L97 426L233 290L95 152Z"/>
<glyph unicode="&#xd8;" horiz-adv-x="637" d="M44 0L110 76C151 13 216 -12 319 -12C519 -12 580 86 580 361C580 453 573 525 554 581L594 627L594 712L527 636C487 697 422 724 319 724C120 724 57 625 57 361C57 262 64 187 84 131L44 85ZM319 54C236 54 191 75 166 139L486 504C492 466 495 418 495 361C495 116 459 54 319 54ZM142 361C142 584 179 648 319 648C399 648 444 628 469 569L150 206C143 247 142 297 142 361Z"/>
<glyph unicode="&#xd9;" horiz-adv-x="625" d="M76 235C76 68 141 -12 313 -12C484 -12 549 68 549 235L549 712L466 712L466 235C466 102 422 54 313 54C202 54 159 102 159 235L159 712L76 712ZM290 776L355 776L275 932L187 932Z"/>
<glyph unicode="&#xda;" horiz-adv-x="625" d="M76 235C76 68 141 -12 313 -12C484 -12 549 68 549 235L549 712L466 712L466 235C466 102 422 54 313 54C202 54 159 102 159 235L159 712L76 712ZM271 776L336 776L439 932L351 932Z"/>
<glyph unicode="&#xdb;" horiz-adv-x="625" d="M76 235C76 68 141 -12 313 -12C484 -12 549 68 549 235L549 712L466 712L466 235C466 102 422 54 313 54C202 54 159 102 159 235L159 712L76 712ZM173 776L243 776L313 886L383 776L453 776L348 932L277 932Z"/>
<glyph unicode="&#xdc;" horiz-adv-x="625" d="M76 235C76 68 141 -12 313 -12C484 -12 549 68 549 235L549 712L466 712L466 235C466 102 422 54 313 54C202 54 159 102 159 235L159 712L76 712ZM357 805L437 805L437 899L357 899ZM189 805L269 805L269 899L189 899Z"/>
<glyph unicode="&#xdd;" horiz-adv-x="544" d="M230 0L313 0L313 296L532 712L450 712L277 378L105 712L12 712L230 296ZM230 776L295 776L398 932L310 932Z"/>
<glyph unicode="&#xde;" horiz-adv-x="539" d="M81 0L164 0L164 154L305 154C426 154 504 202 504 358C504 513 442 570 306 570L164 570L164 712L81 712ZM306 494C386 494 422 466 422 358C422 249 386 224 305 224L164 224L164 494Z"/>
<glyph unicode="&#xdf;" horiz-adv-x="541" d="M249 0L291 0C436 0 499 67 499 204C499 293 475 358 395 385C443 410 467 459 467 532C467 660 418 724 275 724C132 724 87 655 87 546L87 504L23 504L23 434L87 434L87 0L167 0L167 546C167 621 190 651 275 651C358 651 387 621 387 532C387 445 363 410 282 410L257 410L257 341L293 341C384 341 419 312 419 203C419 94 378 66 291 66L249 66Z"/>
<glyph unicode="&#xe0;" horiz-adv-x="454" d="M38 125C38 42 91 -8 186 -8C253 -8 294 23 313 62L313 0L390 0L390 344C390 443 348 512 227 512C96 512 53 453 50 345L123 345C124 418 149 442 220 442C293 442 310 406 310 334L310 302L235 290C111 269 38 231 38 125ZM310 166C310 98 270 57 203 57C146 57 118 83 118 134C118 184 144 216 241 229L310 239ZM197 568L262 568L182 724L94 724Z"/>
<glyph unicode="&#xe1;" horiz-adv-x="454" d="M38 125C38 42 91 -8 186 -8C253 -8 294 23 313 62L313 0L390 0L390 344C390 443 348 512 227 512C96 512 53 453 50 345L123 345C124 418 149 442 220 442C293 442 310 406 310 334L310 302L235 290C111 269 38 231 38 125ZM310 166C310 98 270 57 203 57C146 57 118 83 118 134C118 184 144 216 241 229L310 239ZM178 568L243 568L346 724L258 724Z"/>
<glyph unicode="&#xe2;" horiz-adv-x="454" d="M38 125C38 42 91 -8 186 -8C253 -8 294 23 313 62L313 0L390 0L390 344C390 443 348 512 227 512C96 512 53 453 50 345L123 345C124 418 149 442 220 442C293 442 310 406 310 334L310 302L235 290C111 269 38 231 38 125ZM310 166C310 98 270 57 203 57C146 57 118 83 118 134C118 184 144 216 241 229L310 239ZM80 568L150 568L220 678L290 568L360 568L255 724L184 724Z"/>
<glyph unicode="&#xe3;" horiz-adv-x="454" d="M38 125C38 42 91 -8 186 -8C253 -8 294 23 313 62L313 0L390 0L390 344C390 443 348 512 227 512C96 512 53 453 50 345L123 345C124 418 149 442 220 442C293 442 310 406 310 334L310 302L235 290C111 269 38 231 38 125ZM310 166C310 98 270 57 203 57C146 57 118 83 118 134C118 184 144 216 241 229L310 239ZM93 584L148 584L148 622C148 639 154 647 165 647C194 647 228 584 278 584C317 584 341 603 341 654L341 705L285 705L285 666C285 649 279 641 268 641C237 641 207 705 156 705C116 705 93 686 93 635Z"/>
<glyph unicode="&#xe4;" horiz-adv-x="454" d="M38 125C38 42 91 -8 186 -8C253 -8 294 23 313 62L313 0L390 0L390 344C390 443 348 512 227 512C96 512 53 453 50 345L123 345C124 418 149 442 220 442C293 442 310 406 310 334L310 302L235 290C111 269 38 231 38 125ZM310 166C310 98 270 57 203 57C146 57 118 83 118 134C118 184 144 216 241 229L310 239ZM264 597L344 597L344 691L264 691ZM96 597L176 597L176 691L96 691Z"/>
<glyph unicode="&#xe5;" horiz-adv-x="454" d="M38 125C38 42 91 -8 186 -8C253 -8 294 23 313 62L313 0L390 0L390 344C390 443 348 512 227 512C96 512 53 453 50 345L123 345C124 418 149 442 220 442C293 442 310 406 310 334L310 302L235 290C111 269 38 231 38 125ZM310 166C310 98 270 57 203 57C146 57 118 83 118 134C118 184 144 216 241 229L310 239ZM220 561C284 561 313 598 313 655C313 714 284 749 220 749C156 749 127 714 127 655C127 598 156 561 220 561ZM220 599C177 599 169 623 169 655C169 687 177 711 220 711C263 711 271 687 271 655C271 623 263 599 220 599Z"/>
<glyph unicode="&#xe6;" horiz-adv-x="734" d="M38 123C38 40 92 -8 185 -8C265 -8 320 29 338 82C368 19 423 -8 509 -8C628 -8 678 49 688 149L616 149C607 82 578 58 509 58C426 58 391 91 390 245L691 245L691 264C691 429 645 512 508 512C440 512 391 493 359 453C336 490 295 512 227 512C96 512 53 453 50 345L123 345C125 418 149 442 220 442C293 442 310 406 310 334L310 299L235 287C112 266 38 227 38 123ZM201 57C147 57 118 81 118 131C118 181 144 210 241 225L310 236L310 166C310 96 268 57 201 57ZM505 439C578 439 608 410 614 307L392 307C400 410 436 439 505 439Z"/>
<glyph unicode="&#xe7;" horiz-adv-x="461" d="M199 -78L227 -78C271 -78 294 -87 294 -122C294 -161 271 -170 227 -170L170 -170L170 -216L240 -216C323 -216 360 -177 360 -125C360 -73 328 -41 252 -37L252 -8C357 -4 414 51 423 191L347 191C340 91 309 58 238 58C156 58 124 100 124 253C124 396 155 439 238 439C309 439 336 411 347 317L423 317C413 445 364 512 241 512C101 512 44 434 44 253C44 75 93 0 219 -7Z"/>
<glyph unicode="&#xe8;" horiz-adv-x="468" d="M243 -8C362 -8 412 49 422 149L350 149C341 82 312 58 243 58C160 58 125 91 124 245L425 245L425 264C425 429 379 512 242 512C105 512 44 435 44 253C44 66 102 -8 243 -8ZM239 439C312 439 342 410 348 307L126 307C134 410 170 439 239 439ZM216 568L281 568L201 724L113 724Z"/>
<glyph unicode="&#xe9;" horiz-adv-x="468" d="M243 -8C362 -8 412 49 422 149L350 149C341 82 312 58 243 58C160 58 125 91 124 245L425 245L425 264C425 429 379 512 242 512C105 512 44 435 44 253C44 66 102 -8 243 -8ZM239 439C312 439 342 410 348 307L126 307C134 410 170 439 239 439ZM197 568L262 568L365 724L277 724Z"/>
<glyph unicode="&#xea;" horiz-adv-x="468" d="M243 -8C362 -8 412 49 422 149L350 149C341 82 312 58 243 58C160 58 125 91 124 245L425 245L425 264C425 429 379 512 242 512C105 512 44 435 44 253C44 66 102 -8 243 -8ZM239 439C312 439 342 410 348 307L126 307C134 410 170 439 239 439ZM99 568L169 568L239 678L309 568L379 568L274 724L203 724Z"/>
<glyph unicode="&#xeb;" horiz-adv-x="468" d="M243 -8C362 -8 412 49 422 149L350 149C341 82 312 58 243 58C160 58 125 91 124 245L425 245L425 264C425 429 379 512 242 512C105 512 44 435 44 253C44 66 102 -8 243 -8ZM239 439C312 439 342 410 348 307L126 307C134 410 170 439 239 439ZM283 597L363 597L363 691L283 691ZM115 597L195 597L195 691L115 691Z"/>
<glyph unicode="&#xec;" horiz-adv-x="216" d="M68 0L148 0L148 504L68 504ZM85 568L150 568L70 724L-18 724Z"/>
<glyph unicode="&#xed;" horiz-adv-x="216" d="M68 0L148 0L148 504L68 504ZM66 568L131 568L234 724L146 724Z"/>
<glyph unicode="&#xee;" horiz-adv-x="216" d="M68 0L148 0L148 504L68 504ZM-32 568L38 568L108 678L178 568L248 568L143 724L72 724Z"/>
<glyph unicode="&#xef;" horiz-adv-x="216" d="M68 0L148 0L148 504L68 504ZM152 597L232 597L232 691L152 691ZM-16 597L64 597L64 691L-16 691Z"/>
<glyph unicode="&#xf0;" horiz-adv-x="486" d="M116 520L265 581C290 540 310 504 325 471C301 490 273 496 240 496C104 496 45 422 45 242C45 61 105 -8 245 -8C378 -8 441 70 441 247C441 388 399 504 331 608L455 659L455 712L304 650L264 712L180 712L238 622L116 572ZM125 236C125 383 158 423 243 423C328 423 361 379 361 236C361 99 328 58 243 58C158 58 125 92 125 236Z"/>
<glyph unicode="&#xf1;" horiz-adv-x="496" d="M68 0L148 0L148 317C148 412 184 439 253 439C324 439 352 406 352 317L352 0L432 0L432 338C432 446 381 512 273 512C209 512 165 488 145 439L145 504L68 504ZM123 584L178 584L178 622C178 639 184 647 195 647C224 647 258 584 308 584C347 584 371 603 371 654L371 705L315 705L315 666C315 649 309 641 298 641C267 641 237 705 186 705C146 705 123 686 123 635Z"/>
<glyph unicode="&#xf2;" horiz-adv-x="484" d="M242 -8C383 -8 440 71 440 252C440 433 386 512 242 512C99 512 44 433 44 252C44 71 98 -8 242 -8ZM242 58C157 58 124 106 124 252C124 395 157 439 242 439C327 439 360 395 360 252C360 106 327 58 242 58ZM219 568L284 568L204 724L116 724Z"/>
<glyph unicode="&#xf3;" horiz-adv-x="484" d="M242 -8C383 -8 440 71 440 252C440 433 386 512 242 512C99 512 44 433 44 252C44 71 98 -8 242 -8ZM242 58C157 58 124 106 124 252C124 395 157 439 242 439C327 439 360 395 360 252C360 106 327 58 242 58ZM200 568L265 568L368 724L280 724Z"/>
<glyph unicode="&#xf4;" horiz-adv-x="484" d="M242 -8C383 -8 440 71 440 252C440 433 386 512 242 512C99 512 44 433 44 252C44 71 98 -8 242 -8ZM242 58C157 58 124 106 124 252C124 395 157 439 242 439C327 439 360 395 360 252C360 106 327 58 242 58ZM102 568L172 568L242 678L312 568L382 568L277 724L206 724Z"/>
<glyph unicode="&#xf5;" horiz-adv-x="484" d="M242 -8C383 -8 440 71 440 252C440 433 386 512 242 512C99 512 44 433 44 252C44 71 98 -8 242 -8ZM242 58C157 58 124 106 124 252C124 395 157 439 242 439C327 439 360 395 360 252C360 106 327 58 242 58ZM115 584L170 584L170 622C170 639 176 647 187 647C216 647 250 584 300 584C339 584 363 603 363 654L363 705L307 705L307 666C307 649 301 641 290 641C259 641 229 705 178 705C138 705 115 686 115 635Z"/>
<glyph unicode="&#xf6;" horiz-adv-x="484" d="M242 -8C383 -8 440 71 440 252C440 433 386 512 242 512C99 512 44 433 44 252C44 71 98 -8 242 -8ZM242 58C157 58 124 106 124 252C124 395 157 439 242 439C327 439 360 395 360 252C360 106 327 58 242 58ZM286 597L366 597L366 691L286 691ZM118 597L198 597L198 691L118 691Z"/>
<glyph unicode="&#xf7;" horiz-adv-x="560" d="M247 473L313 473L313 580L247 580ZM56 257L504 257L504 323L56 323ZM247 0L313 0L313 107L247 107Z"/>
<glyph unicode="&#xf8;" horiz-adv-x="494" d="M39 0L92 56C123 13 175 -8 247 -8C390 -8 445 71 445 252C445 311 438 361 425 401L456 433L456 504L401 447C370 490 319 512 247 512C104 512 49 433 49 252C49 189 56 139 69 102L39 71ZM247 58C198 58 167 73 148 114L360 333C363 310 365 284 365 252C365 106 332 58 247 58ZM129 252C129 395 162 439 247 439C295 439 325 425 344 388L134 169C130 192 129 220 129 252Z"/>
<glyph unicode="&#xf9;" horiz-adv-x="496" d="M64 166C64 58 115 -8 223 -8C287 -8 331 15 351 64L351 0L428 0L428 504L348 504L348 186C348 94 315 58 243 58C171 58 144 97 144 186L144 504L64 504ZM228 568L293 568L213 724L125 724Z"/>
<glyph unicode="&#xfa;" horiz-adv-x="496" d="M64 166C64 58 115 -8 223 -8C287 -8 331 15 351 64L351 0L428 0L428 504L348 504L348 186C348 94 315 58 243 58C171 58 144 97 144 186L144 504L64 504ZM209 568L274 568L377 724L289 724Z"/>
<glyph unicode="&#xfb;" horiz-adv-x="496" d="M64 166C64 58 115 -8 223 -8C287 -8 331 15 351 64L351 0L428 0L428 504L348 504L348 186C348 94 315 58 243 58C171 58 144 97 144 186L144 504L64 504ZM111 568L181 568L251 678L321 568L391 568L286 724L215 724Z"/>
<glyph unicode="&#xfc;" horiz-adv-x="496" d="M64 166C64 58 115 -8 223 -8C287 -8 331 15 351 64L351 0L428 0L428 504L348 504L348 186C348 94 315 58 243 58C171 58 144 97 144 186L144 504L64 504ZM295 597L375 597L375 691L295 691ZM127 597L207 597L207 691L127 691Z"/>
<glyph unicode="&#xfd;" horiz-adv-x="440" d="M39 -142L39 -208L79 -208C175 -208 205 -159 236 -67L429 504L355 504L227 110L99 504L15 504L187 -5L169 -62C149 -122 121 -142 78 -142ZM180 568L245 568L348 724L260 724Z"/>
<glyph unicode="&#xfe;" horiz-adv-x="509" d="M68 -208L148 -208L148 57C171 14 212 -8 269 -8C405 -8 464 71 464 252C464 433 413 512 273 512C214 512 172 488 148 440L148 712L68 712ZM266 58C181 58 148 106 148 252C148 400 184 439 266 439C353 439 385 395 385 252C385 106 353 58 266 58Z"/>
<glyph unicode="&#xff;" horiz-adv-x="440" d="M39 -142L39 -208L79 -208C175 -208 205 -159 236 -67L429 504L355 504L227 110L99 504L15 504L187 -5L169 -62C149 -122 121 -142 78 -142ZM266 597L346 597L346 691L266 691ZM98 597L178 597L178 691L98 691Z"/>
<glyph unicode="&#x100;" horiz-adv-x="564" d="M14 0L90 0L142 172L413 172L465 0L550 0L327 712L237 712ZM277 615L391 242L164 242ZM151 825L413 825L413 883L151 883Z"/>
<glyph unicode="&#x101;" horiz-adv-x="454" d="M38 125C38 42 91 -8 186 -8C253 -8 294 23 313 62L313 0L390 0L390 344C390 443 348 512 227 512C96 512 53 453 50 345L123 345C124 418 149 442 220 442C293 442 310 406 310 334L310 302L235 290C111 269 38 231 38 125ZM310 166C310 98 270 57 203 57C146 57 118 83 118 134C118 184 144 216 241 229L310 239ZM89 617L351 617L351 675L89 675Z"/>
<glyph unicode="&#x102;" horiz-adv-x="564" d="M14 0L90 0L142 172L413 172L465 0L550 0L327 712L237 712ZM277 615L391 242L164 242ZM282 769C358 769 406 814 409 914L361 914C358 847 333 821 282 821C231 821 206 847 203 914L154 914C157 815 206 769 282 769Z"/>
<glyph unicode="&#x103;" horiz-adv-x="454" d="M38 125C38 42 91 -8 186 -8C253 -8 294 23 313 62L313 0L390 0L390 344C390 443 348 512 227 512C96 512 53 453 50 345L123 345C124 418 149 442 220 442C293 442 310 406 310 334L310 302L235 290C111 269 38 231 38 125ZM310 166C310 98 270 57 203 57C146 57 118 83 118 134C118 184 144 216 241 229L310 239ZM220 561C296 561 344 606 347 706L299 706C296 639 271 613 220 613C169 613 144 639 141 706L92 706C95 607 144 561 220 561Z"/>
<glyph unicode="&#x104;" horiz-adv-x="564" d="M14 0L90 0L142 172L412 172L465 0L511 0C467 -44 422 -81 422 -130C422 -187 458 -216 531 -216L571 -216L571 -165L533 -165C496 -165 478 -148 478 -113C478 -76 509 -44 550 0L327 712L237 712ZM277 615L392 240L163 240Z"/>
<glyph unicode="&#x105;" horiz-adv-x="454" d="M38 125C38 42 91 -8 186 -8C253 -8 294 23 313 62L313 0L351 0C306 -45 261 -81 261 -130C261 -187 298 -216 371 -216L411 -216L411 -165L373 -165C336 -165 317 -148 317 -113C317 -76 347 -44 390 0L390 344C390 443 348 512 227 512C96 512 53 453 50 345L123 345C124 418 149 442 220 442C293 442 310 406 310 334L310 302L235 290C111 269 38 231 38 125ZM203 57C146 57 118 83 118 134C118 184 144 216 241 229L310 239L310 170C310 96 267 57 203 57Z"/>
<glyph unicode="&#x106;" horiz-adv-x="591" d="M312 -12C472 -12 541 64 549 259L471 259C460 110 430 54 312 54C172 54 135 116 135 361C135 584 172 648 312 648C429 648 461 599 469 451L548 451C540 636 494 724 312 724C113 724 50 625 50 361C50 86 112 -12 312 -12ZM270 776L335 776L438 932L350 932Z"/>
<glyph unicode="&#x107;" horiz-adv-x="461" d="M241 -8C353 -8 414 47 423 191L347 191C340 91 309 58 238 58C156 58 124 100 124 253C124 396 155 439 238 439C309 439 336 411 347 317L423 317C413 445 364 512 241 512C101 512 44 434 44 253C44 65 99 -8 241 -8ZM196 568L261 568L364 724L276 724Z"/>
<glyph unicode="&#x108;" horiz-adv-x="591" d="M312 -12C472 -12 541 64 549 259L471 259C460 110 430 54 312 54C172 54 135 116 135 361C135 584 172 648 312 648C429 648 461 599 469 451L548 451C540 636 494 724 312 724C113 724 50 625 50 361C50 86 112 -12 312 -12ZM172 776L242 776L312 886L382 776L452 776L347 932L276 932Z"/>
<glyph unicode="&#x109;" horiz-adv-x="461" d="M241 -8C353 -8 414 47 423 191L347 191C340 91 309 58 238 58C156 58 124 100 124 253C124 396 155 439 238 439C309 439 336 411 347 317L423 317C413 445 364 512 241 512C101 512 44 434 44 253C44 65 99 -8 241 -8ZM98 568L168 568L238 678L308 568L378 568L273 724L202 724Z"/>
<glyph unicode="&#x10a;" horiz-adv-x="591" d="M312 -12C472 -12 541 64 549 259L471 259C460 110 430 54 312 54C172 54 135 116 135 361C135 584 172 648 312 648C429 648 461 599 469 451L548 451C540 636 494 724 312 724C113 724 50 625 50 361C50 86 112 -12 312 -12ZM272 805L352 805L352 899L272 899Z"/>
<glyph unicode="&#x10b;" horiz-adv-x="461" d="M241 -8C353 -8 414 47 423 191L347 191C340 91 309 58 238 58C156 58 124 100 124 253C124 396 155 439 238 439C309 439 336 411 347 317L423 317C413 445 364 512 241 512C101 512 44 434 44 253C44 65 99 -8 241 -8ZM198 597L278 597L278 691L198 691Z"/>
<glyph unicode="&#x10c;" horiz-adv-x="591" d="M312 -12C472 -12 541 64 549 259L471 259C460 110 430 54 312 54C172 54 135 116 135 361C135 584 172 648 312 648C429 648 461 599 469 451L548 451C540 636 494 724 312 724C113 724 50 625 50 361C50 86 112 -12 312 -12ZM276 776L347 776L452 932L382 932L312 821L242 932L172 932Z"/>
<glyph unicode="&#x10d;" horiz-adv-x="461" d="M241 -8C353 -8 414 47 423 191L347 191C340 91 309 58 238 58C156 58 124 100 124 253C124 396 155 439 238 439C309 439 336 411 347 317L423 317C413 445 364 512 241 512C101 512 44 434 44 253C44 65 99 -8 241 -8ZM202 568L273 568L378 724L308 724L238 613L168 724L98 724Z"/>
<glyph unicode="&#x10e;" horiz-adv-x="615" d="M81 0L303 0C503 0 565 99 565 361C565 617 502 712 303 712L81 712ZM303 636C443 636 480 572 480 361C480 129 443 66 303 66L164 66L164 636ZM261 776L332 776L437 932L367 932L297 821L227 932L157 932Z"/>
<glyph unicode="&#x10f;" horiz-adv-x="512" d="M229 -8C294 -8 338 19 363 72L363 0L440 0L440 712L360 712L360 448C337 491 296 512 239 512C106 512 44 433 44 252C44 71 95 -8 229 -8ZM243 58C156 58 124 106 124 252C124 395 156 439 243 439C325 439 360 400 360 252C360 106 328 58 243 58ZM480 560L515 560L560 660L560 712L480 712Z"/>
<glyph unicode="&#x110;" horiz-adv-x="635" d="M33 334L93 334L93 0L323 0C523 0 585 99 585 361C585 617 522 712 323 712L93 712L93 397L33 397ZM323 636C463 636 500 572 500 361C500 129 463 66 323 66L176 66L176 334L323 334L323 397L176 397L176 636Z"/>
<glyph unicode="&#x111;" horiz-adv-x="508" d="M239 581L360 581L360 448C337 491 296 512 239 512C106 512 44 433 44 252C44 71 95 -8 229 -8C294 -8 338 19 363 72L363 0L440 0L440 581L501 581L501 639L440 639L440 712L360 712L360 639L239 639ZM242 58C157 58 124 106 124 252C124 395 157 439 242 439C327 439 360 395 360 252C360 106 327 58 242 58Z"/>
<glyph unicode="&#x112;" horiz-adv-x="510" d="M81 0L462 0L462 66L164 66L164 331L438 331L438 401L164 401L164 636L462 636L462 712L81 712ZM141 825L403 825L403 883L141 883Z"/>
<glyph unicode="&#x113;" horiz-adv-x="468" d="M243 -8C362 -8 412 49 422 149L350 149C341 82 312 58 243 58C160 58 125 91 124 245L425 245L425 264C425 429 379 512 242 512C105 512 44 435 44 253C44 66 102 -8 243 -8ZM239 439C312 439 342 410 348 307L126 307C134 410 170 439 239 439ZM108 617L370 617L370 675L108 675Z"/>
<glyph unicode="&#x114;" horiz-adv-x="510" d="M81 0L462 0L462 66L164 66L164 331L438 331L438 401L164 401L164 636L462 636L462 712L81 712ZM272 769C348 769 396 814 399 914L351 914C348 847 323 821 272 821C221 821 196 847 193 914L144 914C147 815 196 769 272 769Z"/>
<glyph unicode="&#x115;" horiz-adv-x="468" d="M243 -8C362 -8 412 49 422 149L350 149C341 82 312 58 243 58C160 58 125 91 124 245L425 245L425 264C425 429 379 512 242 512C105 512 44 435 44 253C44 66 102 -8 243 -8ZM239 439C312 439 342 410 348 307L126 307C134 410 170 439 239 439ZM239 561C315 561 363 606 366 706L318 706C315 639 290 613 239 613C188 613 163 639 160 706L111 706C114 607 163 561 239 561Z"/>
<glyph unicode="&#x116;" horiz-adv-x="510" d="M81 0L462 0L462 66L164 66L164 331L438 331L438 401L164 401L164 636L462 636L462 712L81 712ZM232 805L312 805L312 899L232 899Z"/>
<glyph unicode="&#x117;" horiz-adv-x="468" d="M243 -8C362 -8 412 49 422 149L350 149C341 82 312 58 243 58C160 58 125 91 124 245L425 245L425 264C425 429 379 512 242 512C105 512 44 435 44 253C44 66 102 -8 243 -8ZM239 439C312 439 342 410 348 307L126 307C134 410 170 439 239 439ZM199 597L279 597L279 691L199 691Z"/>
<glyph unicode="&#x118;" horiz-adv-x="510" d="M81 0L402 0C358 -44 313 -81 313 -130C313 -187 349 -216 422 -216L462 -216L462 -165L424 -165C387 -165 369 -148 369 -113C369 -76 400 -44 441 0L462 0L462 66L164 66L164 331L438 331L438 401L164 401L164 636L462 636L462 712L81 712Z"/>
<glyph unicode="&#x119;" horiz-adv-x="468" d="M243 -8C264 -8 287 -6 303 -2C258 -43 217 -82 217 -130C217 -186 253 -216 326 -216L366 -216L366 -165L329 -165C293 -165 273 -147 273 -113C273 -76 306 -45 345 0L371 30C403 65 417 97 422 149L350 149C341 82 312 58 243 58C160 58 125 91 124 245L425 245L425 264C425 429 379 512 242 512C105 512 44 435 44 253C44 66 102 -8 243 -8ZM239 439C312 439 342 410 348 307L126 307C134 410 170 439 239 439Z"/>
<glyph unicode="&#x11a;" horiz-adv-x="510" d="M81 0L462 0L462 66L164 66L164 331L438 331L438 401L164 401L164 636L462 636L462 712L81 712ZM236 776L307 776L412 932L342 932L272 821L202 932L132 932Z"/>
<glyph unicode="&#x11b;" horiz-adv-x="468" d="M243 -8C362 -8 412 49 422 149L350 149C341 82 312 58 243 58C160 58 125 91 124 245L425 245L425 264C425 429 379 512 242 512C105 512 44 435 44 253C44 66 102 -8 243 -8ZM239 439C312 439 342 410 348 307L126 307C134 410 170 439 239 439ZM203 568L274 568L379 724L309 724L239 613L169 724L99 724Z"/>
<glyph unicode="&#x11c;" horiz-adv-x="599" d="M312 296L473 296L473 268C473 115 432 54 312 54C172 54 135 116 135 361C135 584 172 648 312 648C419 648 458 602 469 488L547 488C534 644 481 724 312 724C113 724 50 625 50 361C50 86 112 -12 312 -12C477 -12 552 77 552 268L552 366L312 366ZM172 776L242 776L312 886L382 776L452 776L347 932L276 932Z"/>
<glyph unicode="&#x11d;" horiz-adv-x="508" d="M64 -50C72 -152 111 -216 251 -216C380 -216 440 -158 440 -39L440 504L363 504L363 442C339 491 299 512 239 512C106 512 44 433 44 252C44 71 95 -8 229 -8C291 -8 335 17 360 66L360 -39C360 -124 324 -150 248 -150C168 -150 144 -122 140 -50ZM242 58C157 58 124 106 124 252C124 395 157 439 242 439C327 439 360 395 360 252C360 100 322 58 242 58ZM102 568L172 568L242 678L312 568L382 568L277 724L206 724Z"/>
<glyph unicode="&#x11e;" horiz-adv-x="599" d="M312 296L473 296L473 268C473 115 432 54 312 54C172 54 135 116 135 361C135 584 172 648 312 648C419 648 458 602 469 488L547 488C534 644 481 724 312 724C113 724 50 625 50 361C50 86 112 -12 312 -12C477 -12 552 77 552 268L552 366L312 366ZM312 769C388 769 436 814 439 914L391 914C388 847 363 821 312 821C261 821 236 847 233 914L184 914C187 815 236 769 312 769Z"/>
<glyph unicode="&#x11f;" horiz-adv-x="508" d="M64 -50C72 -152 111 -216 251 -216C380 -216 440 -158 440 -39L440 504L363 504L363 442C339 491 299 512 239 512C106 512 44 433 44 252C44 71 95 -8 229 -8C291 -8 335 17 360 66L360 -39C360 -124 324 -150 248 -150C168 -150 144 -122 140 -50ZM242 58C157 58 124 106 124 252C124 395 157 439 242 439C327 439 360 395 360 252C360 100 322 58 242 58ZM242 561C318 561 366 606 369 706L321 706C318 639 293 613 242 613C191 613 166 639 163 706L114 706C117 607 166 561 242 561Z"/>
<glyph unicode="&#x120;" horiz-adv-x="599" d="M312 296L473 296L473 268C473 115 432 54 312 54C172 54 135 116 135 361C135 584 172 648 312 648C419 648 458 602 469 488L547 488C534 644 481 724 312 724C113 724 50 625 50 361C50 86 112 -12 312 -12C477 -12 552 77 552 268L552 366L312 366ZM272 805L352 805L352 899L272 899Z"/>
<glyph unicode="&#x121;" horiz-adv-x="508" d="M64 -50C72 -152 111 -216 251 -216C380 -216 440 -158 440 -39L440 504L363 504L363 442C339 491 299 512 239 512C106 512 44 433 44 252C44 71 95 -8 229 -8C291 -8 335 17 360 66L360 -39C360 -124 324 -150 248 -150C168 -150 144 -122 140 -50ZM242 58C157 58 124 106 124 252C124 395 157 439 242 439C327 439 360 395 360 252C360 100 322 58 242 58ZM202 597L282 597L282 691L202 691Z"/>
<glyph unicode="&#x122;" horiz-adv-x="599" d="M312 296L473 296L473 268C473 115 432 54 312 54C172 54 135 116 135 361C135 584 172 648 312 648C419 648 458 602 469 488L547 488C534 644 481 724 312 724C113 724 50 625 50 361C50 86 112 -12 312 -12C477 -12 552 77 552 268L552 366L312 366ZM274 -56L274 -208L309 -208L354 -108L354 -56Z"/>
<glyph unicode="&#x123;" horiz-adv-x="508" d="M64 -50C72 -152 111 -216 251 -216C380 -216 440 -158 440 -39L440 504L363 504L363 442C339 491 299 512 239 512C106 512 44 433 44 252C44 71 95 -8 229 -8C291 -8 335 17 360 66L360 -39C360 -124 324 -150 248 -150C168 -150 144 -122 140 -50ZM242 58C157 58 124 106 124 252C124 395 157 439 242 439C327 439 360 395 360 252C360 100 322 58 242 58ZM207 560L286 560L286 712L250 712L207 612Z"/>
<glyph unicode="&#x124;" horiz-adv-x="637" d="M81 0L164 0L164 330L473 330L473 0L556 0L556 712L473 712L473 401L164 401L164 712L81 712ZM178 776L248 776L318 886L388 776L458 776L353 932L282 932Z"/>
<glyph unicode="&#x125;" horiz-adv-x="496" d="M68 0L148 0L148 318C148 412 184 439 253 439C324 439 352 406 352 317L352 0L432 0L432 338C432 446 381 512 273 512C213 512 169 490 148 446L148 712L68 712ZM-32 776L38 776L108 886L178 776L248 776L143 932L72 932Z"/>
<glyph unicode="&#x126;" horiz-adv-x="642" d="M24 525L84 525L84 0L166 0L166 330L475 330L475 0L558 0L558 525L618 525L618 588L558 588L558 712L475 712L475 588L166 588L166 712L84 712L84 588L24 588ZM166 525L475 525L475 401L166 401Z"/>
<glyph unicode="&#x127;" horiz-adv-x="496" d="M7 581L68 581L68 0L148 0L148 318C148 410 184 439 253 439C324 439 352 406 352 317L352 0L432 0L432 338C432 446 381 512 273 512C213 512 169 490 148 446L148 581L269 581L269 639L148 639L148 712L68 712L68 639L7 639Z"/>
<glyph unicode="&#x128;" horiz-adv-x="245" d="M81 0L164 0L164 712L81 712ZM-4 792L51 792L51 830C51 847 57 855 68 855C97 855 131 792 181 792C220 792 244 811 244 862L244 913L188 913L188 874C188 857 182 849 171 849C140 849 110 913 59 913C19 913 -4 894 -4 843Z"/>
<glyph unicode="&#x129;" horiz-adv-x="216" d="M68 0L148 0L148 504L68 504ZM-19 584L36 584L36 622C36 639 42 647 53 647C82 647 116 584 166 584C205 584 229 603 229 654L229 705L173 705L173 666C173 649 167 641 156 641C125 641 95 705 44 705C4 705 -19 686 -19 635Z"/>
<glyph unicode="&#x12a;" horiz-adv-x="245" d="M81 0L164 0L164 712L81 712ZM-8 825L254 825L254 883L-8 883Z"/>
<glyph unicode="&#x12b;" horiz-adv-x="216" d="M68 0L148 0L148 504L68 504ZM-23 617L239 617L239 675L-23 675Z"/>
<glyph unicode="&#x12c;" horiz-adv-x="245" d="M81 0L164 0L164 712L81 712ZM123 769C199 769 247 814 250 914L202 914C199 847 174 821 123 821C72 821 47 847 44 914L-5 914C-2 815 47 769 123 769Z"/>
<glyph unicode="&#x12d;" horiz-adv-x="216" d="M68 0L148 0L148 504L68 504ZM108 561C184 561 232 606 235 706L187 706C184 639 159 613 108 613C57 613 32 639 29 706L-20 706C-17 607 32 561 108 561Z"/>
<glyph unicode="&#x12e;" horiz-adv-x="245" d="M81 0L124 0C80 -44 35 -81 35 -130C35 -187 71 -216 144 -216L184 -216L184 -165L146 -165C109 -165 91 -148 91 -113C91 -76 122 -44 164 0L164 712L81 712Z"/>
<glyph unicode="&#x12f;" horiz-adv-x="216" d="M68 0L109 0C65 -44 20 -81 20 -130C20 -187 56 -216 129 -216L169 -216L169 -165L131 -165C94 -165 76 -148 76 -113C76 -76 107 -44 148 0L148 504L68 504ZM68 618L148 618L148 712L68 712Z"/>
<glyph unicode="&#x130;" horiz-adv-x="245" d="M81 0L164 0L164 712L81 712ZM83 805L163 805L163 899L83 899Z"/>
<glyph unicode="&#x131;" horiz-adv-x="216" d="M68 0L148 0L148 504L68 504Z"/>
<glyph unicode="&#x132;" horiz-adv-x="615" d="M81 0L164 0L164 712L81 712ZM248 66L248 0L328 0C476 0 539 61 539 192L539 712L456 712L456 190C456 103 419 66 328 66Z"/>
<glyph unicode="&#x133;" horiz-adv-x="418" d="M68 618L148 618L148 712L68 712ZM68 0L148 0L148 504L68 504ZM270 618L350 618L350 712L270 712ZM270 -77C270 -125 251 -142 207 -142L180 -142L180 -208L222 -208C313 -208 350 -160 350 -72L350 504L270 504Z"/>
<glyph unicode="&#x134;" horiz-adv-x="385" d="M18 66L18 0L98 0C246 0 309 61 309 192L309 712L226 712L226 190C226 103 189 66 98 66ZM129 776L199 776L269 886L339 776L409 776L304 932L233 932Z"/>
<glyph unicode="&#x135;" horiz-adv-x="216" d="M68 -77C68 -125 49 -142 5 -142L-22 -142L-22 -208L20 -208C111 -208 148 -160 148 -72L148 504L68 504ZM-32 568L38 568L108 678L178 568L248 568L143 724L72 724Z"/>
<glyph unicode="&#x136;" horiz-adv-x="567" d="M81 0L164 0L164 213L262 338L466 0L558 0L316 401L560 712L467 712L164 325L164 712L81 712ZM270 -56L270 -208L305 -208L350 -108L350 -56Z"/>
<glyph unicode="&#x137;" horiz-adv-x="454" d="M68 0L148 0L148 155L215 233L355 0L444 0L267 292L444 504L354 504L148 254L148 712L68 712ZM210 -56L210 -208L245 -208L290 -108L290 -56Z"/>
<glyph unicode="&#x139;" horiz-adv-x="479" d="M81 0L462 0L462 66L164 66L164 712L81 712ZM81 776L146 776L249 932L161 932Z"/>
<glyph unicode="&#x13a;" horiz-adv-x="216" d="M68 0L148 0L148 712L68 712ZM66 776L131 776L234 932L146 932Z"/>
<glyph unicode="&#x13b;" horiz-adv-x="479" d="M81 0L462 0L462 66L164 66L164 712L81 712ZM215 -56L215 -208L250 -208L295 -108L295 -56Z"/>
<glyph unicode="&#x13c;" horiz-adv-x="216" d="M68 0L148 0L148 712L68 712ZM70 -56L70 -208L105 -208L150 -108L150 -56Z"/>
<glyph unicode="&#x13d;" horiz-adv-x="480" d="M81 0L462 0L462 66L164 66L164 712L81 712ZM293 560L328 560L373 660L373 712L293 712Z"/>
<glyph unicode="&#x13e;" horiz-adv-x="220" d="M68 0L148 0L148 712L68 712ZM188 560L223 560L268 660L268 712L188 712Z"/>
<glyph unicode="&#x13f;" horiz-adv-x="480" d="M81 0L462 0L462 66L164 66L164 712L81 712ZM296 327L376 327L376 421L296 421Z"/>
<glyph unicode="&#x140;" horiz-adv-x="250" d="M68 0L148 0L148 712L68 712ZM193 327L273 327L273 421L193 421Z"/>
<glyph unicode="&#x141;" horiz-adv-x="490" d="M19 198L92 254L92 0L473 0L473 66L175 66L175 318L358 460L358 535L175 393L175 712L92 712L92 329L19 273Z"/>
<glyph unicode="&#x142;" horiz-adv-x="270" d="M22 256L97 313L97 0L177 0L177 375L251 432L251 498L177 441L177 712L97 712L97 379L22 322Z"/>
<glyph unicode="&#x143;" horiz-adv-x="637" d="M81 0L164 0L164 542L483 0L556 0L556 712L473 712L473 170L154 712L81 712ZM276 776L341 776L444 932L356 932Z"/>
<glyph unicode="&#x144;" horiz-adv-x="496" d="M68 0L148 0L148 317C148 412 184 439 253 439C324 439 352 406 352 317L352 0L432 0L432 338C432 446 381 512 273 512C209 512 165 488 145 439L145 504L68 504ZM208 568L273 568L376 724L288 724Z"/>
<glyph unicode="&#x145;" horiz-adv-x="637" d="M81 0L164 0L164 542L483 0L556 0L556 712L473 712L473 170L154 712L81 712ZM280 -56L280 -208L315 -208L360 -108L360 -56Z"/>
<glyph unicode="&#x146;" horiz-adv-x="496" d="M68 0L148 0L148 317C148 412 184 439 253 439C324 439 352 406 352 317L352 0L432 0L432 338C432 446 381 512 273 512C209 512 165 488 145 439L145 504L68 504ZM212 -56L212 -208L247 -208L292 -108L292 -56Z"/>
<glyph unicode="&#x147;" horiz-adv-x="637" d="M81 0L164 0L164 542L483 0L556 0L556 712L473 712L473 170L154 712L81 712ZM282 776L353 776L458 932L388 932L318 821L248 932L178 932Z"/>
<glyph unicode="&#x148;" horiz-adv-x="496" d="M68 0L148 0L148 317C148 412 184 439 253 439C324 439 352 406 352 317L352 0L432 0L432 338C432 446 381 512 273 512C209 512 165 488 145 439L145 504L68 504ZM214 568L285 568L390 724L320 724L250 613L180 724L110 724Z"/>
<glyph unicode="&#x149;" horiz-adv-x="496" d="M68 0L148 0L148 317C148 412 184 439 253 439C324 439 352 406 352 317L352 0L432 0L432 338C432 446 381 512 273 512C209 512 165 488 145 439L145 504L68 504ZM69 560L104 560L149 660L149 712L69 712Z"/>
<glyph unicode="&#x14a;" horiz-adv-x="637" d="M81 0L164 0L164 542L473 17L473 -20C473 -108 442 -142 358 -142L307 -142L307 -208L358 -208C501 -208 556 -148 556 -17L556 712L473 712L473 170L154 712L81 712Z"/>
<glyph unicode="&#x14b;" horiz-adv-x="496" d="M262 -142L262 -208L304 -208C395 -208 432 -160 432 -72L432 338C432 446 381 512 273 512C209 512 165 488 145 439L145 504L68 504L68 0L148 0L148 317C148 406 181 439 253 439C324 439 352 406 352 317L352 -77C352 -125 333 -142 289 -142Z"/>
<glyph unicode="&#x14c;" horiz-adv-x="623" d="M312 -12C512 -12 573 86 573 361C573 625 509 724 312 724C113 724 50 625 50 361C50 86 112 -12 312 -12ZM312 54C172 54 135 116 135 361C135 584 172 648 312 648C452 648 488 584 488 361C488 116 452 54 312 54ZM181 825L443 825L443 883L181 883Z"/>
<glyph unicode="&#x14d;" horiz-adv-x="484" d="M242 -8C383 -8 440 71 440 252C440 433 386 512 242 512C99 512 44 433 44 252C44 71 98 -8 242 -8ZM242 58C157 58 124 106 124 252C124 395 157 439 242 439C327 439 360 395 360 252C360 106 327 58 242 58ZM111 617L373 617L373 675L111 675Z"/>
<glyph unicode="&#x14e;" horiz-adv-x="623" d="M312 -12C512 -12 573 86 573 361C573 625 509 724 312 724C113 724 50 625 50 361C50 86 112 -12 312 -12ZM312 54C172 54 135 116 135 361C135 584 172 648 312 648C452 648 488 584 488 361C488 116 452 54 312 54ZM312 769C388 769 436 814 439 914L391 914C388 847 363 821 312 821C261 821 236 847 233 914L184 914C187 815 236 769 312 769Z"/>
<glyph unicode="&#x14f;" horiz-adv-x="484" d="M242 -8C383 -8 440 71 440 252C440 433 386 512 242 512C99 512 44 433 44 252C44 71 98 -8 242 -8ZM242 58C157 58 124 106 124 252C124 395 157 439 242 439C327 439 360 395 360 252C360 106 327 58 242 58ZM242 561C318 561 366 606 369 706L321 706C318 639 293 613 242 613C191 613 166 639 163 706L114 706C117 607 166 561 242 561Z"/>
<glyph unicode="&#x150;" horiz-adv-x="623" d="M312 -12C512 -12 573 86 573 361C573 625 509 724 312 724C113 724 50 625 50 361C50 86 112 -12 312 -12ZM312 54C172 54 135 116 135 361C135 584 172 648 312 648C452 648 488 584 488 361C488 116 452 54 312 54ZM345 776L410 776L513 932L425 932ZM195 776L260 776L363 932L275 932Z"/>
<glyph unicode="&#x151;" horiz-adv-x="484" d="M242 -8C383 -8 440 71 440 252C440 433 386 512 242 512C99 512 44 433 44 252C44 71 98 -8 242 -8ZM242 58C157 58 124 106 124 252C124 395 157 439 242 439C327 439 360 395 360 252C360 106 327 58 242 58ZM275 568L340 568L443 724L355 724ZM125 568L190 568L293 724L205 724Z"/>
<glyph unicode="&#x152;" horiz-adv-x="888" d="M840 0L840 66L542 66L542 331L816 331L816 401L542 401L542 636L840 636L840 712L312 712C113 712 50 617 50 361C50 99 112 0 312 0ZM136 361C136 572 172 636 312 636L460 636L460 66L312 66C172 66 136 129 136 361Z"/>
<glyph unicode="&#x153;" horiz-adv-x="784" d="M559 -8C678 -8 728 49 738 149L666 149C657 82 628 58 559 58C476 58 441 91 440 245L741 245L741 264C741 429 696 512 558 512C482 512 430 485 399 426C371 484 320 512 242 512C99 512 44 433 44 252C44 71 98 -8 242 -8C319 -8 369 19 398 77C428 17 481 -8 559 -8ZM242 58C156 58 124 106 124 252C124 395 156 439 242 439C328 439 360 395 360 252C360 106 328 58 242 58ZM555 439C628 439 658 410 664 307L442 307C450 410 486 439 555 439Z"/>
<glyph unicode="&#x154;" horiz-adv-x="558" d="M81 0L164 0L164 283L279 283L435 0L528 0L363 294C456 307 508 359 508 494C508 654 448 712 305 712L81 712ZM305 636C392 636 425 606 425 494C425 379 392 352 303 352L164 352L164 636ZM228 776L293 776L396 932L308 932Z"/>
<glyph unicode="&#x155;" horiz-adv-x="310" d="M64 0L144 0L144 360C144 409 169 434 218 434L294 434L294 504L215 504C115 504 64 450 64 354ZM145 568L210 568L313 724L225 724Z"/>
<glyph unicode="&#x156;" horiz-adv-x="558" d="M81 0L164 0L164 283L279 283L435 0L528 0L363 294C456 307 508 359 508 494C508 654 448 712 305 712L81 712ZM305 636C392 636 425 606 425 494C425 379 392 352 303 352L164 352L164 636ZM253 -56L253 -208L288 -208L333 -108L333 -56Z"/>
<glyph unicode="&#x157;" horiz-adv-x="310" d="M64 0L144 0L144 360C144 409 169 434 218 434L294 434L294 504L215 504C115 504 64 450 64 354ZM66 -56L66 -208L101 -208L146 -108L146 -56Z"/>
<glyph unicode="&#x158;" horiz-adv-x="558" d="M81 0L164 0L164 283L279 283L435 0L528 0L363 294C456 307 508 359 508 494C508 654 448 712 305 712L81 712ZM305 636C392 636 425 606 425 494C425 379 392 352 303 352L164 352L164 636ZM234 776L305 776L410 932L340 932L270 821L200 932L130 932Z"/>
<glyph unicode="&#x159;" horiz-adv-x="310" d="M64 0L144 0L144 360C144 409 169 434 218 434L294 434L294 504L215 504C115 504 64 450 64 354ZM151 568L222 568L327 724L257 724L187 613L117 724L47 724Z"/>
<glyph unicode="&#x15a;" horiz-adv-x="544" d="M41 216C48 61 112 -12 271 -12C426 -12 500 63 500 180C500 304 434 354 317 385L261 400C185 420 133 444 133 530C133 610 182 648 270 648C367 648 408 608 416 488L495 488C487 637 438 724 270 724C122 724 51 649 51 530C51 397 127 355 232 327L288 312C368 291 417 263 417 180C417 92 368 54 271 54C167 54 127 100 119 216ZM228 776L293 776L396 932L308 932Z"/>
<glyph unicode="&#x15b;" horiz-adv-x="429" d="M40 143C48 55 84 -8 212 -8C339 -8 388 47 388 130C388 210 352 254 257 277L204 290C140 306 122 327 122 370C122 418 143 442 214 442C277 442 305 425 309 354L382 354C381 471 322 512 214 512C106 512 45 466 45 370C45 283 91 244 164 226L218 213C293 195 310 182 310 130C310 79 287 56 215 56C150 56 120 76 113 143ZM172 568L237 568L340 724L252 724Z"/>
<glyph unicode="&#x15c;" horiz-adv-x="544" d="M41 216C48 61 112 -12 271 -12C426 -12 500 63 500 180C500 304 434 354 317 385L261 400C185 420 133 444 133 530C133 610 182 648 270 648C367 648 408 608 416 488L495 488C487 637 438 724 270 724C122 724 51 649 51 530C51 397 127 355 232 327L288 312C368 291 417 263 417 180C417 92 368 54 271 54C167 54 127 100 119 216ZM130 776L200 776L270 886L340 776L410 776L305 932L234 932Z"/>
<glyph unicode="&#x15d;" horiz-adv-x="429" d="M40 143C48 55 84 -8 212 -8C339 -8 388 47 388 130C388 210 352 254 257 277L204 290C140 306 122 327 122 370C122 418 143 442 214 442C277 442 305 425 309 354L382 354C381 471 322 512 214 512C106 512 45 466 45 370C45 283 91 244 164 226L218 213C293 195 310 182 310 130C310 79 287 56 215 56C150 56 120 76 113 143ZM74 568L144 568L214 678L284 568L354 568L249 724L178 724Z"/>
<glyph unicode="&#x15e;" horiz-adv-x="544" d="M233 -78L261 -78C305 -78 328 -87 328 -122C328 -161 305 -170 261 -170L204 -170L204 -216L274 -216C357 -216 394 -177 394 -125C394 -73 362 -41 286 -37L286 -12C430 -7 500 67 500 180C500 304 434 354 317 385L261 400C185 420 133 444 133 530C133 610 182 648 270 648C367 648 408 608 416 488L495 488C487 637 438 724 270 724C122 724 51 649 51 530C51 397 127 355 232 327L288 312C368 291 417 263 417 180C417 92 368 54 271 54C167 54 127 100 119 216L41 216C47 67 107 -5 251 -11Z"/>
<glyph unicode="&#x15f;" horiz-adv-x="429" d="M181 -78L209 -78C253 -78 276 -87 276 -122C276 -161 253 -170 209 -170L152 -170L152 -216L222 -216C305 -216 342 -177 342 -125C342 -73 310 -41 234 -37L234 -7C345 -1 388 52 388 130C388 210 352 254 257 277L204 290C140 306 122 327 122 370C122 418 143 442 214 442C277 442 305 425 309 354L382 354C381 471 322 512 214 512C106 512 45 466 45 370C45 283 91 244 164 226L218 213C293 195 310 182 310 130C310 79 287 56 215 56C150 56 120 76 113 143L40 143C48 57 82 -4 201 -8Z"/>
<glyph unicode="&#x160;" horiz-adv-x="544" d="M41 216C48 61 112 -12 271 -12C426 -12 500 63 500 180C500 304 434 354 317 385L261 400C185 420 133 444 133 530C133 610 182 648 270 648C367 648 408 608 416 488L495 488C487 637 438 724 270 724C122 724 51 649 51 530C51 397 127 355 232 327L288 312C368 291 417 263 417 180C417 92 368 54 271 54C167 54 127 100 119 216ZM234 776L305 776L410 932L340 932L270 821L200 932L130 932Z"/>
<glyph unicode="&#x161;" horiz-adv-x="429" d="M40 143C48 55 84 -8 212 -8C339 -8 388 47 388 130C388 210 352 254 257 277L204 290C140 306 122 327 122 370C122 418 143 442 214 442C277 442 305 425 309 354L382 354C381 471 322 512 214 512C106 512 45 466 45 370C45 283 91 244 164 226L218 213C293 195 310 182 310 130C310 79 287 56 215 56C150 56 120 76 113 143ZM178 568L249 568L354 724L284 724L214 613L144 724L74 724Z"/>
<glyph unicode="&#x162;" horiz-adv-x="525" d="M224 -78L252 -78C296 -78 319 -87 319 -122C319 -161 296 -170 252 -170L195 -170L195 -216L265 -216C348 -216 385 -177 385 -125C385 -73 353 -41 277 -37L277 0L304 0L304 636L506 636L506 712L19 712L19 636L222 636L222 0L246 0Z"/>
<glyph unicode="&#x163;" horiz-adv-x="334" d="M156 -78L184 -78C228 -78 251 -87 251 -122C251 -161 228 -170 184 -170L127 -170L127 -216L197 -216C280 -216 317 -177 317 -125C317 -73 285 -41 209 -37L209 1C218 0 226 0 237 0L314 0L314 66L251 66C188 66 166 90 166 158L166 434L314 434L314 504L166 504L166 624L89 624L89 504L22 504L22 434L86 434L86 155C86 75 116 26 177 8Z"/>
<glyph unicode="&#x164;" horiz-adv-x="525" d="M19 636L222 636L222 0L304 0L304 636L506 636L506 712L19 712ZM227 776L298 776L403 932L333 932L263 821L193 932L123 932Z"/>
<glyph unicode="&#x165;" horiz-adv-x="334" d="M22 434L86 434L86 155C86 52 136 0 237 0L314 0L314 66L251 66C188 66 166 90 166 158L166 434L314 434L314 504L166 504L166 624L89 624L89 504L22 504ZM218 560L253 560L298 660L298 712L218 712Z"/>
<glyph unicode="&#x166;" horiz-adv-x="551" d="M32 636L234 636L234 397L80 397L80 334L234 334L234 0L316 0L316 334L471 334L471 397L316 397L316 636L519 636L519 712L32 712Z"/>
<glyph unicode="&#x167;" horiz-adv-x="341" d="M26 434L90 434L90 292L26 292L26 234L90 234L90 155C90 52 140 0 241 0L317 0L317 66L255 66C192 66 170 90 170 158L170 234L317 234L317 292L170 292L170 434L317 434L317 504L170 504L170 624L93 624L93 504L26 504Z"/>
<glyph unicode="&#x168;" horiz-adv-x="625" d="M76 235C76 68 141 -12 313 -12C484 -12 549 68 549 235L549 712L466 712L466 235C466 102 422 54 313 54C202 54 159 102 159 235L159 712L76 712ZM186 792L241 792L241 830C241 847 247 855 258 855C287 855 321 792 371 792C410 792 434 811 434 862L434 913L378 913L378 874C378 857 372 849 361 849C330 849 300 913 249 913C209 913 186 894 186 843Z"/>
<glyph unicode="&#x169;" horiz-adv-x="496" d="M64 166C64 58 115 -8 223 -8C287 -8 331 15 351 64L351 0L428 0L428 504L348 504L348 186C348 94 315 58 243 58C171 58 144 97 144 186L144 504L64 504ZM124 584L179 584L179 622C179 639 185 647 196 647C225 647 259 584 309 584C348 584 372 603 372 654L372 705L316 705L316 666C316 649 310 641 299 641C268 641 238 705 187 705C147 705 124 686 124 635Z"/>
<glyph unicode="&#x16a;" horiz-adv-x="625" d="M76 235C76 68 141 -12 313 -12C484 -12 549 68 549 235L549 712L466 712L466 235C466 102 422 54 313 54C202 54 159 102 159 235L159 712L76 712ZM182 825L444 825L444 883L182 883Z"/>
<glyph unicode="&#x16b;" horiz-adv-x="496" d="M64 166C64 58 115 -8 223 -8C287 -8 331 15 351 64L351 0L428 0L428 504L348 504L348 186C348 94 315 58 243 58C171 58 144 97 144 186L144 504L64 504ZM120 617L382 617L382 675L120 675Z"/>
<glyph unicode="&#x16c;" horiz-adv-x="625" d="M76 235C76 68 141 -12 313 -12C484 -12 549 68 549 235L549 712L466 712L466 235C466 102 422 54 313 54C202 54 159 102 159 235L159 712L76 712ZM313 769C389 769 437 814 440 914L392 914C389 847 364 821 313 821C262 821 237 847 234 914L185 914C188 815 237 769 313 769Z"/>
<glyph unicode="&#x16d;" horiz-adv-x="496" d="M64 166C64 58 115 -8 223 -8C287 -8 331 15 351 64L351 0L428 0L428 504L348 504L348 186C348 94 315 58 243 58C171 58 144 97 144 186L144 504L64 504ZM251 561C327 561 375 606 378 706L330 706C327 639 302 613 251 613C200 613 175 639 172 706L123 706C126 607 175 561 251 561Z"/>
<glyph unicode="&#x16e;" horiz-adv-x="625" d="M76 235C76 68 141 -12 313 -12C484 -12 549 68 549 235L549 712L466 712L466 235C466 102 422 54 313 54C202 54 159 102 159 235L159 712L76 712ZM313 769C377 769 406 806 406 863C406 922 377 957 313 957C249 957 220 922 220 863C220 806 249 769 313 769ZM313 807C270 807 262 831 262 863C262 895 270 919 313 919C356 919 364 895 364 863C364 831 356 807 313 807Z"/>
<glyph unicode="&#x16f;" horiz-adv-x="496" d="M64 166C64 58 115 -8 223 -8C287 -8 331 15 351 64L351 0L428 0L428 504L348 504L348 186C348 94 315 58 243 58C171 58 144 97 144 186L144 504L64 504ZM251 561C315 561 344 598 344 655C344 714 315 749 251 749C187 749 158 714 158 655C158 598 187 561 251 561ZM251 599C208 599 200 623 200 655C200 687 208 711 251 711C294 711 302 687 302 655C302 623 294 599 251 599Z"/>
<glyph unicode="&#x170;" horiz-adv-x="625" d="M76 235C76 68 141 -12 313 -12C484 -12 549 68 549 235L549 712L466 712L466 235C466 102 422 54 313 54C202 54 159 102 159 235L159 712L76 712ZM346 776L411 776L514 932L426 932ZM196 776L261 776L364 932L276 932Z"/>
<glyph unicode="&#x171;" horiz-adv-x="496" d="M64 166C64 58 115 -8 223 -8C287 -8 331 15 351 64L351 0L428 0L428 504L348 504L348 186C348 94 315 58 243 58C171 58 144 97 144 186L144 504L64 504ZM284 568L349 568L452 724L364 724ZM134 568L199 568L302 724L214 724Z"/>
<glyph unicode="&#x172;" horiz-adv-x="625" d="M275 -130C275 -187 312 -216 385 -216L425 -216L425 -165L387 -165C350 -165 331 -148 331 -113C331 -77 360 -46 401 -3C506 22 549 99 549 235L549 712L466 712L466 235C466 102 422 54 313 54C202 54 159 102 159 235L159 712L76 712L76 235C76 68 141 -12 313 -12C328 -12 340 -11 355 -10C312 -50 275 -85 275 -130Z"/>
<glyph unicode="&#x173;" horiz-adv-x="496" d="M64 166C64 58 115 -8 223 -8C287 -8 331 15 351 64L351 0L389 0C344 -45 299 -81 299 -130C299 -187 336 -216 409 -216L449 -216L449 -165L411 -165C374 -165 355 -148 355 -113C355 -76 385 -44 428 0L428 504L348 504L348 186C348 94 315 58 243 58C171 58 144 97 144 186L144 504L64 504Z"/>
<glyph unicode="&#x174;" horiz-adv-x="888" d="M200 0L291 0L448 554L600 0L688 0L872 712L796 712L646 108L481 712L418 712L251 110L102 712L16 712ZM308 776L378 776L448 886L518 776L588 776L483 932L412 932Z"/>
<glyph unicode="&#x175;" horiz-adv-x="694" d="M165 0L238 0L347 360L456 0L529 0L681 504L606 504L497 119L382 504L323 504L207 119L98 504L13 504ZM210 568L280 568L350 678L420 568L490 568L385 724L314 724Z"/>
<glyph unicode="&#x176;" horiz-adv-x="544" d="M230 0L313 0L313 296L532 712L450 712L277 378L105 712L12 712L230 296ZM132 776L202 776L272 886L342 776L412 776L307 932L236 932Z"/>
<glyph unicode="&#x177;" horiz-adv-x="440" d="M39 -142L39 -208L79 -208C175 -208 205 -159 236 -67L429 504L355 504L227 110L99 504L15 504L187 -5L169 -62C149 -122 121 -142 78 -142ZM82 568L152 568L222 678L292 568L362 568L257 724L186 724Z"/>
<glyph unicode="&#x178;" horiz-adv-x="544" d="M230 0L313 0L313 296L532 712L450 712L277 378L105 712L12 712L230 296ZM316 805L396 805L396 899L316 899ZM148 805L228 805L228 899L148 899Z"/>
<glyph unicode="&#x179;" horiz-adv-x="489" d="M30 636L363 636L38 50L38 0L453 0L453 66L130 66L461 662L461 712L30 712ZM204 776L269 776L372 932L284 932Z"/>
<glyph unicode="&#x17a;" horiz-adv-x="401" d="M34 434L269 434L38 46L38 0L363 0L363 66L134 66L368 458L368 504L34 504ZM159 568L224 568L327 724L239 724Z"/>
<glyph unicode="&#x17b;" horiz-adv-x="489" d="M30 636L363 636L38 50L38 0L453 0L453 66L130 66L461 662L461 712L30 712ZM206 805L286 805L286 899L206 899Z"/>
<glyph unicode="&#x17c;" horiz-adv-x="401" d="M34 434L269 434L38 46L38 0L363 0L363 66L134 66L368 458L368 504L34 504ZM161 597L241 597L241 691L161 691Z"/>
<glyph unicode="&#x17d;" horiz-adv-x="489" d="M30 636L363 636L38 50L38 0L453 0L453 66L130 66L461 662L461 712L30 712ZM210 776L281 776L386 932L316 932L246 821L176 932L106 932Z"/>
<glyph unicode="&#x17e;" horiz-adv-x="401" d="M34 434L269 434L38 46L38 0L363 0L363 66L134 66L368 458L368 504L34 504ZM165 568L236 568L341 724L271 724L201 613L131 724L61 724Z"/>
<glyph unicode="&#x17f;" horiz-adv-x="255" d="M23 434L87 434L87 0L167 0L167 556C167 613 190 639 247 639L307 639L307 712L244 712C139 712 87 655 87 554L87 504L23 504Z"/>
<glyph unicode="&#x18f;" horiz-adv-x="608" d="M298 -12C494 -12 558 82 558 356C558 620 494 724 294 724C123 724 62 644 49 483L128 483C139 606 185 648 294 648C433 648 470 583 473 371L45 371L45 336C45 77 113 -12 298 -12ZM298 54C177 54 134 100 129 302L472 302C467 102 425 54 298 54Z"/>
<glyph unicode="&#x192;" horiz-adv-x="560" d="M83 331L227 331L227 -21C227 -110 198 -142 121 -142L47 -142L47 -208L132 -208C250 -208 309 -147 309 -24L309 331L478 331L478 401L309 401L309 525C309 613 337 639 415 639L489 639L489 712L404 712C286 712 227 651 227 528L227 401L83 401Z"/>
<glyph unicode="&#x1fc;" horiz-adv-x="814" d="M7 0L87 0L150 172L387 172L387 0L765 0L765 72L470 72L470 327L744 327L744 396L470 396L470 633L765 633L765 712L273 712ZM320 633L387 633L387 242L176 242ZM388 776L453 776L556 932L468 932Z"/>
<glyph unicode="&#x1fd;" horiz-adv-x="734" d="M38 123C38 40 92 -8 185 -8C265 -8 320 29 338 82C368 19 423 -8 509 -8C628 -8 678 49 688 149L616 149C607 82 578 58 509 58C426 58 391 91 390 245L691 245L691 264C691 429 645 512 508 512C440 512 391 493 359 453C336 490 295 512 227 512C96 512 53 453 50 345L123 345C125 418 149 442 220 442C293 442 310 406 310 334L310 299L235 287C112 266 38 227 38 123ZM201 57C147 57 118 81 118 131C118 181 144 210 241 225L310 236L310 166C310 96 268 57 201 57ZM505 439C578 439 608 410 614 307L392 307C400 410 436 439 505 439ZM313 568L378 568L481 724L393 724Z"/>
<glyph unicode="&#x1fe;" horiz-adv-x="637" d="M44 0L110 76C151 13 216 -12 319 -12C519 -12 580 86 580 361C580 453 573 525 554 581L594 627L594 712L527 636C487 697 422 724 319 724C120 724 57 625 57 361C57 262 64 187 84 131L44 85ZM319 54C236 54 191 75 166 139L486 504C492 466 495 418 495 361C495 116 459 54 319 54ZM142 361C142 584 179 648 319 648C399 648 444 628 469 569L150 206C143 247 142 297 142 361ZM277 773L342 773L445 929L357 929Z"/>
<glyph unicode="&#x1ff;" horiz-adv-x="494" d="M39 0L92 56C123 13 175 -8 247 -8C390 -8 445 71 445 252C445 311 438 361 425 401L456 433L456 504L401 447C370 490 319 512 247 512C104 512 49 433 49 252C49 189 56 139 69 102L39 71ZM247 58C198 58 167 73 148 114L360 333C363 310 365 284 365 252C365 106 332 58 247 58ZM129 252C129 395 162 439 247 439C295 439 325 425 344 388L134 169C130 192 129 220 129 252ZM205 568L270 568L373 724L285 724Z"/>
<glyph unicode="&#x218;" horiz-adv-x="544" d="M41 216C48 61 112 -12 271 -12C426 -12 500 63 500 180C500 304 434 354 317 385L261 400C185 420 133 444 133 530C133 610 182 648 270 648C367 648 408 608 416 488L495 488C487 637 438 724 270 724C122 724 51 649 51 530C51 397 127 355 232 327L288 312C368 291 417 263 417 180C417 92 368 54 271 54C167 54 127 100 119 216ZM230 -56L230 -208L265 -208L310 -108L310 -56Z"/>
<glyph unicode="&#x219;" horiz-adv-x="429" d="M40 143C48 55 84 -8 212 -8C339 -8 388 47 388 130C388 210 352 254 257 277L204 290C140 306 122 327 122 370C122 418 143 442 214 442C277 442 305 425 309 354L382 354C381 471 322 512 214 512C106 512 45 466 45 370C45 283 91 244 164 226L218 213C293 195 310 182 310 130C310 79 287 56 215 56C150 56 120 76 113 143ZM174 -56L174 -208L209 -208L254 -108L254 -56Z"/>
<glyph unicode="&#x21a;" horiz-adv-x="525" d="M19 636L222 636L222 0L304 0L304 636L506 636L506 712L19 712ZM225 -56L225 -208L260 -208L305 -108L305 -56Z"/>
<glyph unicode="&#x21b;" horiz-adv-x="334" d="M22 434L86 434L86 155C86 52 136 0 237 0L314 0L314 66L251 66C188 66 166 90 166 158L166 434L314 434L314 504L166 504L166 624L89 624L89 504L22 504ZM157 -56L157 -208L192 -208L237 -108L237 -56Z"/>
<glyph unicode="&#x237;" horiz-adv-x="216" d="M68 -77C68 -125 49 -142 5 -142L-22 -142L-22 -208L20 -208C111 -208 148 -160 148 -72L148 504L68 504Z"/>
<glyph unicode="&#x259;" horiz-adv-x="468" d="M225 -8C362 -8 423 68 423 251C423 438 365 512 224 512C108 512 59 453 49 349L121 349C130 413 158 439 224 439C306 439 342 406 343 259L42 259L42 242C42 75 88 -8 225 -8ZM228 58C154 58 124 89 119 197L341 197C333 86 298 58 228 58Z"/>
<glyph unicode="&#x2c6;" horiz-adv-x="468" d="M94 568L164 568L234 678L304 568L374 568L269 724L198 724Z"/>
<glyph unicode="&#x2c7;" horiz-adv-x="468" d="M198 568L269 568L374 724L304 724L234 613L164 724L94 724Z"/>
<glyph unicode="&#x2c9;" horiz-adv-x="468" d="M103 617L365 617L365 675L103 675Z"/>
<glyph unicode="&#x2d8;" horiz-adv-x="468" d="M234 561C310 561 358 606 361 706L313 706C310 639 285 613 234 613C183 613 158 639 155 706L106 706C109 607 158 561 234 561Z"/>
<glyph unicode="&#x2d9;" horiz-adv-x="468" d="M194 597L274 597L274 691L194 691Z"/>
<glyph unicode="&#x2da;" horiz-adv-x="468" d="M234 561C298 561 327 598 327 655C327 714 298 749 234 749C170 749 141 714 141 655C141 598 170 561 234 561ZM234 599C191 599 183 623 183 655C183 687 191 711 234 711C277 711 285 687 285 655C285 623 277 599 234 599Z"/>
<glyph unicode="&#x2db;" horiz-adv-x="468" d="M145 -130C145 -187 182 -216 255 -216L295 -216L295 -165L257 -165C220 -165 201 -148 201 -113C201 -76 231 -44 274 0L235 0C190 -45 145 -81 145 -130Z"/>
<glyph unicode="&#x2dc;" horiz-adv-x="468" d="M107 584L162 584L162 622C162 639 168 647 179 647C208 647 242 584 292 584C331 584 355 603 355 654L355 705L299 705L299 666C299 649 293 641 282 641C251 641 221 705 170 705C130 705 107 686 107 635Z"/>
<glyph unicode="&#x2dd;" horiz-adv-x="468" d="M267 568L332 568L435 724L347 724ZM117 568L182 568L285 724L197 724Z"/>
<glyph unicode="&#x326;" horiz-adv-x="0" d="M-274 -56L-274 -208L-239 -208L-194 -108L-194 -56Z"/>
<glyph unicode="&#x37e;" horiz-adv-x="206" d="M61 370L145 370L145 472L61 472ZM61 102L61 -128L101 -128L145 27L145 102Z"/>
<glyph unicode="&#x385;" horiz-adv-x="473" d="M181 568L240 568L294 724L213 724ZM307 597L381 597L381 691L307 691ZM89 597L163 597L163 691L89 691Z"/>
<glyph unicode="&#x387;" horiz-adv-x="192" d="M54 370L138 370L138 472L54 472Z"/>
<glyph unicode="&#x394;" horiz-adv-x="564" d="M14 0L550 0L327 712L237 712ZM277 615L445 66L110 66Z"/>
<glyph unicode="&#x3a9;" horiz-adv-x="633" d="M60 0L278 0L278 146C189 162 136 206 136 397C136 580 177 648 317 648C456 648 497 584 497 397C497 205 444 162 355 146L355 0L573 0L573 66L424 66L424 99C524 131 582 204 582 399C582 613 514 724 317 724C119 724 51 610 51 399C51 204 109 131 209 99L209 66L60 66Z"/>
<glyph unicode="&#x3bc;" horiz-adv-x="516" d="M68 -208L143 -208L143 29C163 5 194 -8 241 -8C296 -8 340 15 363 66C378 23 409 0 472 0L502 0L502 66L487 66C443 66 432 83 432 131L432 504L352 504L352 186C352 91 317 58 248 58C176 58 148 94 148 185L148 504L68 504Z"/>
<glyph unicode="&#x3c0;" horiz-adv-x="545" d="M22 434L116 434L79 0L159 0L193 434L343 434L343 120C343 44 372 0 463 0L495 0L495 66L478 66C431 66 423 84 423 131L423 434L515 434L515 504L22 504Z"/>
<glyph unicode="&#xe3f;" horiz-adv-x="547" d="M61 0L233 0L233 -104L313 -104L313 0L317 0C446 0 512 66 512 199C512 282 481 346 412 375C456 396 489 444 489 524C489 642 429 709 305 712L305 816L225 816L225 712L61 712ZM313 330C387 330 429 297 429 199C429 102 386 66 310 66L144 66L144 330ZM295 636C379 636 406 600 406 521C406 442 383 401 298 401L144 401L144 636Z"/>
<glyph unicode="&#x1e80;" horiz-adv-x="888" d="M200 0L291 0L448 554L600 0L688 0L872 712L796 712L646 108L481 712L418 712L251 110L102 712L16 712ZM425 776L490 776L410 932L322 932Z"/>
<glyph unicode="&#x1e81;" horiz-adv-x="694" d="M165 0L238 0L347 360L456 0L529 0L681 504L606 504L497 119L382 504L323 504L207 119L98 504L13 504ZM327 568L392 568L312 724L224 724Z"/>
<glyph unicode="&#x1e82;" horiz-adv-x="888" d="M200 0L291 0L448 554L600 0L688 0L872 712L796 712L646 108L481 712L418 712L251 110L102 712L16 712ZM406 776L471 776L574 932L486 932Z"/>
<glyph unicode="&#x1e83;" horiz-adv-x="694" d="M165 0L238 0L347 360L456 0L529 0L681 504L606 504L497 119L382 504L323 504L207 119L98 504L13 504ZM308 568L373 568L476 724L388 724Z"/>
<glyph unicode="&#x1e84;" horiz-adv-x="888" d="M200 0L291 0L448 554L600 0L688 0L872 712L796 712L646 108L481 712L418 712L251 110L102 712L16 712ZM492 805L572 805L572 899L492 899ZM324 805L404 805L404 899L324 899Z"/>
<glyph unicode="&#x1e85;" horiz-adv-x="694" d="M165 0L238 0L347 360L456 0L529 0L681 504L606 504L497 119L382 504L323 504L207 119L98 504L13 504ZM394 597L474 597L474 691L394 691ZM226 597L306 597L306 691L226 691Z"/>
<glyph unicode="&#x1e8a;" horiz-adv-x="519" d="M9 0L90 0L254 299L419 0L510 0L309 363L502 712L421 712L264 428L108 712L17 712L210 363ZM224 805L304 805L304 899L224 899Z"/>
<glyph unicode="&#x1e8b;" horiz-adv-x="436" d="M18 0L98 0L214 191L330 0L419 0L263 255L418 504L337 504L221 314L107 504L18 504L172 250ZM182 597L262 597L262 691L182 691Z"/>
<glyph unicode="&#x1ef2;" horiz-adv-x="544" d="M230 0L313 0L313 296L532 712L450 712L277 378L105 712L12 712L230 296ZM249 776L314 776L234 932L146 932Z"/>
<glyph unicode="&#x1ef3;" horiz-adv-x="440" d="M39 -142L39 -208L79 -208C175 -208 205 -159 236 -67L429 504L355 504L227 110L99 504L15 504L187 -5L169 -62C149 -122 121 -142 78 -142ZM199 568L264 568L184 724L96 724Z"/>
<glyph unicode="&#x2007;" horiz-adv-x="560" />
<glyph unicode="&#x2008;" horiz-adv-x="206" />
<glyph unicode="&#x200b;" horiz-adv-x="0" />
<glyph unicode="&#x2013;" horiz-adv-x="620" d="M61 258L559 258L559 325L61 325Z"/>
<glyph unicode="&#x2014;" horiz-adv-x="886" d="M61 258L825 258L825 325L61 325Z"/>
<glyph unicode="&#x2015;" horiz-adv-x="620" d="M61 258L559 258L559 325L61 325Z"/>
<glyph unicode="&#x2018;" horiz-adv-x="180" d="M46 493L124 493L124 712L88 712L46 563Z"/>
<glyph unicode="&#x2019;" horiz-adv-x="176" d="M56 493L93 493L134 642L134 712L56 712Z"/>
<glyph unicode="&#x201a;" horiz-adv-x="188" d="M55 91L55 -128L92 -128L133 21L133 91Z"/>
<glyph unicode="&#x201c;" horiz-adv-x="329" d="M195 493L273 493L273 712L236 712L195 563ZM46 493L124 493L124 712L88 712L46 563Z"/>
<glyph unicode="&#x201d;" horiz-adv-x="325" d="M205 493L241 493L283 642L283 712L205 712ZM56 493L93 493L134 642L134 712L56 712Z"/>
<glyph unicode="&#x201e;" horiz-adv-x="337" d="M204 91L204 -128L240 -128L282 21L282 91ZM55 91L55 -128L92 -128L133 21L133 91Z"/>
<glyph unicode="&#x2020;" horiz-adv-x="492" d="M48 468L207 468L207 0L284 0L284 468L444 468L444 535L284 535L284 712L207 712L207 535L48 535Z"/>
<glyph unicode="&#x2021;" horiz-adv-x="492" d="M48 467L207 467L207 240L48 240L48 173L207 173L207 0L284 0L284 173L444 173L444 240L284 240L284 467L444 467L444 534L284 534L284 712L207 712L207 534L48 534Z"/>
<glyph unicode="&#x2022;" horiz-adv-x="430" d="M100 175L330 175L330 407L100 407Z"/>
<glyph unicode="&#x2026;" horiz-adv-x="631" d="M509 0L592 0L592 102L509 102ZM279 0L363 0L363 102L279 102ZM39 0L123 0L123 102L39 102Z"/>
<glyph unicode="&#x2030;" horiz-adv-x="1035" d="M173 348C276 348 313 400 313 536C313 662 282 720 173 720C65 720 34 661 34 536C34 398 69 348 173 348ZM173 400C118 400 104 424 104 536C104 636 121 661 173 661C225 661 243 636 243 536C243 424 229 400 173 400ZM103 0L163 0L619 712L559 712ZM547 -8C650 -8 687 44 687 180C687 306 656 364 547 364C439 364 408 305 408 180C408 42 443 -8 547 -8ZM547 44C492 44 478 68 478 180C478 280 495 305 547 305C599 305 617 280 617 180C617 68 603 44 547 44ZM865 -8C968 -8 1005 44 1005 180C1005 306 974 364 865 364C757 364 726 305 726 180C726 42 761 -8 865 -8ZM865 44C810 44 796 68 796 180C796 280 813 305 865 305C917 305 935 280 935 180C935 68 921 44 865 44Z"/>
<glyph unicode="&#x2039;" horiz-adv-x="245" d="M132 64L198 64L114 256L198 448L132 448L37 256Z"/>
<glyph unicode="&#x203a;" horiz-adv-x="245" d="M47 64L114 64L208 256L115 448L47 448L131 256Z"/>
<glyph unicode="&#x2044;" horiz-adv-x="56" d="M-230 0L-170 0L286 712L226 712Z"/>
<glyph unicode="&#x2070;" horiz-adv-x="318" d="M159 508C262 508 299 560 299 696C299 822 268 880 159 880C51 880 20 821 20 696C20 558 55 508 159 508ZM159 560C104 560 90 584 90 696C90 796 107 821 159 821C211 821 229 796 229 696C229 584 215 560 159 560Z"/>
<glyph unicode="&#x2071;" horiz-adv-x="161" d="M46 949L115 949L115 1022L46 1022ZM46 516L115 516L115 872L46 872Z"/>
<glyph unicode="&#x2074;" horiz-adv-x="318" d="M12 593L183 593L183 516L250 516L250 593L300 593L300 647L250 647L250 872L163 872L12 637ZM78 647L183 810L183 647Z"/>
<glyph unicode="&#x2075;" horiz-adv-x="318" d="M24 624C31 543 70 509 161 509C248 509 297 547 297 631C297 715 252 753 168 753C139 753 114 746 95 732L104 813L278 813L278 872L51 872L31 678L31 654L91 654C100 685 117 700 161 700C210 700 227 679 227 632C227 583 210 561 161 561C113 561 94 576 90 624Z"/>
<glyph unicode="&#x2076;" horiz-adv-x="318" d="M25 629C25 541 78 508 163 508C247 508 300 540 300 628C300 711 254 747 171 747C160 747 149 746 138 742L240 872L161 872L68 746C42 710 26 685 25 634ZM95 628C95 675 112 694 163 694C214 694 230 675 230 628C230 581 214 560 163 560C112 560 95 581 95 628Z"/>
<glyph unicode="&#x2077;" horiz-adv-x="318" d="M69 516L137 516L294 828L294 872L25 872L25 813L220 813Z"/>
<glyph unicode="&#x2078;" horiz-adv-x="318" d="M21 612C21 540 70 508 159 508C247 508 297 540 297 612C297 652 277 678 242 693C270 708 291 734 291 774C291 838 247 880 159 880C71 880 28 838 28 774C28 734 47 708 76 693C41 678 21 652 21 612ZM159 720C114 720 97 737 97 772C97 806 118 823 159 823C200 823 221 806 221 772C221 737 204 720 159 720ZM92 614C92 651 112 668 159 668C206 668 226 651 226 614C226 578 204 560 159 560C114 560 92 578 92 614Z"/>
<glyph unicode="&#x2079;" horiz-adv-x="318" d="M80 516L158 516L251 642C276 677 293 703 294 754L294 759C294 847 241 880 156 880C72 880 18 847 18 759C18 676 64 640 148 640C159 640 170 642 180 645ZM156 687C105 687 89 708 89 753C89 800 105 823 156 823C207 823 223 800 223 753C223 708 207 687 156 687Z"/>
<glyph unicode="&#x207a;" horiz-adv-x="318" d="M136 579L181 579L181 673L284 673L284 715L181 715L181 809L136 809L136 715L34 715L34 673L136 673Z"/>
<glyph unicode="&#x207b;" horiz-adv-x="318" d="M34 673L284 673L284 715L34 715Z"/>
<glyph unicode="&#x207c;" horiz-adv-x="318" d="M34 738L284 738L284 780L34 780ZM34 608L284 608L284 650L34 650Z"/>
<glyph unicode="&#x207d;" horiz-adv-x="157" d="M19 694C19 488 46 456 129 456L145 456L145 509L139 509C95 509 83 519 83 694C83 870 95 879 139 879L145 879L145 932L129 932C46 932 19 900 19 694Z"/>
<glyph unicode="&#x207e;" horiz-adv-x="157" d="M137 694C137 900 111 932 28 932L11 932L11 879L18 879C62 879 74 870 74 694C74 519 62 509 18 509L11 509L11 456L28 456C110 456 137 488 137 694Z"/>
<glyph unicode="&#x207f;" horiz-adv-x="356" d="M46 516L115 516L115 736C115 797 134 818 182 818C229 818 244 797 244 736L244 516L313 516L313 753C313 833 280 880 201 880C156 880 127 863 112 829L112 872L46 872Z"/>
<glyph unicode="&#x2080;" horiz-adv-x="318" d="M159 -168C262 -168 299 -116 299 20C299 146 268 204 159 204C51 204 20 145 20 20C20 -118 55 -168 159 -168ZM159 -116C104 -116 90 -92 90 20C90 120 107 145 159 145C211 145 229 120 229 20C229 -92 215 -116 159 -116Z"/>
<glyph unicode="&#x2081;" horiz-adv-x="318" d="M153 -160L223 -160L223 196L171 196L62 158L62 99L153 129Z"/>
<glyph unicode="&#x2082;" horiz-adv-x="318" d="M31 -160L285 -160L285 -108L100 -108C103 -81 116 -71 159 -48L206 -23C246 -2 290 31 290 94C290 165 250 204 159 204C68 204 30 158 25 74L90 74C97 129 114 145 159 145C199 145 220 131 220 92C220 51 196 35 160 16L116 -7C68 -32 31 -62 31 -121Z"/>
<glyph unicode="&#x2083;" horiz-adv-x="318" d="M20 -44C27 -133 67 -168 159 -168C248 -168 294 -129 294 -64C294 -17 276 8 244 21C273 37 289 67 289 99C289 166 250 204 157 204C68 204 28 158 24 75L90 75C93 130 117 145 157 145C199 145 220 129 220 96C220 65 208 43 161 43L125 43L125 -11L161 -11C209 -11 224 -29 224 -64C224 -99 202 -116 159 -116C111 -116 90 -100 87 -44Z"/>
<glyph unicode="&#x2084;" horiz-adv-x="318" d="M12 -83L183 -83L183 -160L250 -160L250 -83L300 -83L300 -29L250 -29L250 196L163 196L12 -39ZM78 -29L183 134L183 -29Z"/>
<glyph unicode="&#x2085;" horiz-adv-x="318" d="M24 -52C31 -133 70 -167 161 -167C248 -167 297 -129 297 -45C297 39 252 77 168 77C139 77 114 70 95 56L104 137L278 137L278 196L51 196L31 2L31 -22L91 -22C100 9 117 24 161 24C210 24 227 3 227 -44C227 -93 210 -115 161 -115C113 -115 94 -100 90 -52Z"/>
<glyph unicode="&#x2086;" horiz-adv-x="318" d="M25 -47C25 -135 78 -168 163 -168C247 -168 300 -136 300 -48C300 35 254 71 171 71C160 71 149 70 138 66L240 196L161 196L68 70C42 34 26 9 25 -42ZM95 -48C95 -1 112 18 163 18C214 18 230 -1 230 -48C230 -95 214 -116 163 -116C112 -116 95 -95 95 -48Z"/>
<glyph unicode="&#x2087;" horiz-adv-x="318" d="M69 -160L137 -160L294 152L294 196L25 196L25 137L220 137Z"/>
<glyph unicode="&#x2088;" horiz-adv-x="318" d="M21 -64C21 -136 70 -168 159 -168C247 -168 297 -136 297 -64C297 -24 277 2 242 17C270 32 291 58 291 98C291 162 247 204 159 204C71 204 28 162 28 98C28 58 47 32 76 17C41 2 21 -24 21 -64ZM159 44C114 44 97 61 97 96C97 130 118 147 159 147C200 147 221 130 221 96C221 61 204 44 159 44ZM92 -62C92 -25 112 -8 159 -8C206 -8 226 -25 226 -62C226 -98 204 -116 159 -116C114 -116 92 -98 92 -62Z"/>
<glyph unicode="&#x2089;" horiz-adv-x="318" d="M79 -160L157 -160L250 -34C275 1 292 27 293 78L293 83C293 171 240 204 155 204C71 204 17 171 17 83C17 0 63 -36 147 -36C158 -36 169 -34 179 -31ZM155 11C104 11 88 32 88 77C88 124 104 147 155 147C206 147 222 124 222 77C222 32 206 11 155 11Z"/>
<glyph unicode="&#x208a;" horiz-adv-x="318" d="M136 -97L181 -97L181 -3L284 -3L284 39L181 39L181 133L136 133L136 39L34 39L34 -3L136 -3Z"/>
<glyph unicode="&#x208b;" horiz-adv-x="318" d="M34 -3L284 -3L284 39L34 39Z"/>
<glyph unicode="&#x208c;" horiz-adv-x="318" d="M34 62L284 62L284 104L34 104ZM34 -68L284 -68L284 -26L34 -26Z"/>
<glyph unicode="&#x208d;" horiz-adv-x="157" d="M19 18C19 -188 46 -220 129 -220L145 -220L145 -167L139 -167C95 -167 83 -157 83 18C83 194 95 203 139 203L145 203L145 256L129 256C46 256 19 224 19 18Z"/>
<glyph unicode="&#x208e;" horiz-adv-x="157" d="M137 18C137 224 111 256 28 256L11 256L11 203L18 203C62 203 74 194 74 18C74 -157 62 -167 18 -167L11 -167L11 -220L28 -220C110 -220 137 -188 137 18Z"/>
<glyph unicode="&#x2090;" horiz-adv-x="330" d="M27 -71C27 -132 65 -168 132 -168C180 -168 209 -145 221 -117L221 -160L287 -160L287 78C287 146 261 204 166 204C71 204 37 156 36 79L98 79C99 128 114 146 161 146C208 146 218 120 218 72L218 54L168 45C76 29 27 2 27 -71ZM95 -65C95 -32 113 -14 176 -3L218 4L218 -49C218 -93 188 -115 149 -115C113 -115 95 -98 95 -65Z"/>
<glyph unicode="&#x2091;" horiz-adv-x="339" d="M177 -168C264 -168 301 -126 308 -54L247 -54C242 -99 223 -114 177 -114C121 -114 100 -93 99 10L310 10L310 24C310 146 278 204 175 204C75 204 31 151 31 18C31 -117 72 -168 177 -168ZM174 145C222 145 242 126 245 58L100 58C106 128 129 145 174 145Z"/>
<glyph unicode="&#x2092;" horiz-adv-x="351" d="M176 -168C283 -168 320 -113 320 19C320 150 283 204 176 204C69 204 31 150 31 19C31 -112 69 -168 176 -168ZM176 -113C120 -113 100 -82 100 19C100 118 120 143 176 143C232 143 251 118 251 19C251 -82 232 -113 176 -113Z"/>
<glyph unicode="&#x2093;" horiz-adv-x="320" d="M9 -160L77 -160L157 -37L235 -160L310 -160L196 21L310 195L242 195L163 74L86 195L11 195L124 16Z"/>
<glyph unicode="&#x2095;" horiz-adv-x="356" d="M46 -160L115 -160L115 61C115 124 134 142 182 142C229 142 245 122 245 61L245 -160L313 -160L313 81C313 157 280 204 201 204C158 204 130 189 115 159L115 346L46 346Z"/>
<glyph unicode="&#x2096;" horiz-adv-x="337" d="M46 -160L115 -160L115 -54L159 -2L253 -160L329 -160L204 49L329 196L254 196L115 30L115 346L46 346Z"/>
<glyph unicode="&#x2097;" horiz-adv-x="161" d="M46 -160L115 -160L115 346L46 346Z"/>
<glyph unicode="&#x2098;" horiz-adv-x="555" d="M46 -160L115 -160L115 61C115 124 134 142 182 142C229 142 245 122 245 61L245 -160L313 -160L313 61C313 124 333 142 380 142C427 142 444 122 444 61L444 -160L512 -160L512 81C512 157 480 204 400 204C349 204 317 182 302 145C286 184 254 204 201 204C156 204 126 187 112 153L112 196L46 196Z"/>
<glyph unicode="&#x2099;" horiz-adv-x="356" d="M46 -160L115 -160L115 60C115 121 134 142 182 142C229 142 244 121 244 60L244 -160L313 -160L313 77C313 157 280 204 201 204C156 204 127 187 112 153L112 196L46 196Z"/>
<glyph unicode="&#x209a;" horiz-adv-x="366" d="M115 -122C131 -153 159 -168 198 -168C293 -168 335 -113 335 19C335 151 298 204 201 204C160 204 128 187 112 147L112 195L46 195L46 -308L115 -308ZM190 -113C134 -113 115 -82 115 19C115 118 134 143 190 143C246 143 265 118 265 19C265 -82 246 -113 190 -113Z"/>
<glyph unicode="&#x209b;" horiz-adv-x="312" d="M29 -56C32 -120 59 -168 154 -168C249 -168 283 -125 283 -65C283 -9 256 24 192 38L152 47C109 57 97 70 97 98C97 129 110 146 157 146C200 146 214 132 217 87L279 87C278 170 240 204 156 204C76 204 31 168 31 97C31 34 66 5 119 -7L159 -16C206 -27 217 -37 217 -66C217 -98 203 -116 156 -116C113 -116 94 -100 90 -56Z"/>
<glyph unicode="&#x209c;" horiz-adv-x="244" d="M60 -45C60 -125 95 -160 172 -160L227 -160L227 -105L184 -105C143 -105 128 -91 128 -47L128 138L227 138L227 196L128 196L128 283L63 283L63 196L16 196L16 138L60 138Z"/>
<glyph unicode="&#x20a1;" horiz-adv-x="512" d="M340 -12C394 -12 451 -1 492 19L492 88C446 67 396 54 340 54C329 54 319 54 309 55L432 636C453 630 473 623 492 615L492 693C478 699 464 705 448 709L471 816L424 816L403 719C383 722 361 724 340 724L360 816L313 816L293 722C124 708 44 612 44 360C44 185 77 86 147 35L118 -104L165 -104L189 12C207 4 227 -1 249 -5L228 -104L275 -104L295 -10C309 -11 324 -12 340 -12ZM129 360C129 553 178 625 276 643L168 131C142 177 129 249 129 360ZM205 87L324 647C329 647 334 648 340 648C356 648 372 646 387 644L263 61C241 66 222 74 205 87Z"/>
<glyph unicode="&#x20a2;" horiz-adv-x="531" d="M340 -12C394 -12 451 -1 492 19L492 88C449 68 403 55 352 54L352 277C352 327 376 351 426 351L484 351L484 421L423 421C323 421 275 366 275 271L275 59C177 76 129 145 129 360C129 591 199 648 340 648C396 648 446 635 492 615L492 693C451 713 394 724 340 724C139 724 44 635 44 360C44 68 137 -12 340 -12Z"/>
<glyph unicode="&#x20a5;" horiz-adv-x="767" d="M345 100L425 100L425 416C425 510 461 539 530 539C600 539 629 506 629 417L629 100L709 100L709 438C709 546 657 612 550 612C526 612 503 608 484 601L533 712L490 712L408 529C385 582 338 612 266 612C202 612 158 588 138 539L138 604L61 604L61 100L141 100L141 417C141 510 177 539 246 539C316 539 345 506 345 417L345 384L175 0L218 0L345 287Z"/>
<glyph unicode="&#x20a6;" horiz-adv-x="661" d="M20 389L93 389L93 323L20 323L20 276L93 276L93 0L176 0L176 276L332 276L495 0L568 0L568 276L641 276L641 323L568 323L568 389L641 389L641 436L568 436L568 712L485 712L485 436L328 436L166 712L93 712L93 436L20 436ZM356 389L485 389L485 323L395 323ZM176 389L266 389L305 323L176 323ZM238 436L176 436L176 542ZM422 276L485 276L485 170Z"/>
</font>
</defs>
</svg>
